  0
SECTION
  2
HEADER
  9
$ACADVER
  1
AC1032
  9
$ACADMAINTVER
 90
        4
  9
$DWGCODEPAGE
  3
ANSI_932
  9
$LASTSAVEDBY
  1
9128
  9
$REQUIREDVERSIONS
160
                 0
  9
$INSBASE
 10
0.0
 20
0.0
 30
0.0
  9
$EXTMIN
 10
434.4250200184738
 20
7.087207260636177
 30
0.0
  9
$EXTMAX
 10
854.4250200184738
 20
304.0872072606362
 30
0.0
  9
$LIMMIN
 10
14.6844
 20
10.7156
  9
$LIMMAX
 10
404.6802
 20
287.7344
  9
$ORTHOMODE
 70
     0
  9
$REGENMODE
 70
     1
  9
$FILLMODE
 70
     1
  9
$QTEXTMODE
 70
     0
  9
$MIRRTEXT
 70
     1
  9
$LTSCALE
 40
1.0
  9
$ATTMODE
 70
     1
  9
$TEXTSIZE
 40
2.5
  9
$TRACEWID
 40
0.05
  9
$TEXTSTYLE
  7
STANDARD
  9
$CLAYER
  8
0
  9
$CELTYPE
  6
CONTINUOUS
  9
$CECOLOR
 62
     4
  9
$CELTSCALE
 40
1.0
  9
$DISPSILH
 70
     0
  9
$DIMSCALE
 40
1.0
  9
$DIMASZ
 40
2.5
  9
$DIMEXO
 40
0.625
  9
$DIMDLI
 40
3.75
  9
$DIMRND
 40
0.0
  9
$DIMDLE
 40
0.0
  9
$DIMEXE
 40
1.25
  9
$DIMTP
 40
0.0
  9
$DIMTM
 40
0.0
  9
$DIMTXT
 40
2.5
  9
$DIMCEN
 40
2.5
  9
$DIMTSZ
 40
0.0
  9
$DIMTOL
 70
     0
  9
$DIMLIM
 70
     0
  9
$DIMTIH
 70
     0
  9
$DIMTOH
 70
     0
  9
$DIMSE1
 70
     0
  9
$DIMSE2
 70
     0
  9
$DIMTAD
 70
     1
  9
$DIMZIN
 70
     8
  9
$DIMBLK
  1
OPEN
  9
$DIMASO
 70
     1
  9
$DIMSHO
 70
     1
  9
$DIMPOST
  1

  9
$DIMAPOST
  1

  9
$DIMALT
 70
     0
  9
$DIMALTD
 70
     3
  9
$DIMALTF
 40
0.0393700787
  9
$DIMLFAC
 40
1.0
  9
$DIMTOFL
 70
     1
  9
$DIMTVP
 40
0.0
  9
$DIMTIX
 70
     0
  9
$DIMSOXD
 70
     0
  9
$DIMSAH
 70
     0
  9
$DIMBLK1
  1

  9
$DIMBLK2
  1

  9
$DIMSTYLE
  2
ISO-2
  9
$DIMCLRD
 70
     0
  9
$DIMCLRE
 70
     0
  9
$DIMCLRT
 70
     0
  9
$DIMTFAC
 40
1.0
  9
$DIMGAP
 40
0.625
  9
$DIMJUST
 70
     0
  9
$DIMSD1
 70
     0
  9
$DIMSD2
 70
     0
  9
$DIMTOLJ
 70
     0
  9
$DIMTZIN
 70
     8
  9
$DIMALTZ
 70
     0
  9
$DIMALTTZ
 70
     0
  9
$DIMUPT
 70
     0
  9
$DIMDEC
 70
     1
  9
$DIMTDEC
 70
     2
  9
$DIMALTU
 70
     2
  9
$DIMALTTD
 70
     3
  9
$DIMTXSTY
  7
STANDARD
  9
$DIMAUNIT
 70
     0
  9
$DIMADEC
 70
     0
  9
$DIMALTRND
 40
0.0
  9
$DIMAZIN
 70
     0
  9
$DIMDSEP
 70
    46
  9
$DIMATFIT
 70
     3
  9
$DIMFRAC
 70
     0
  9
$DIMLDRBLK
  1
OPEN
  9
$DIMLUNIT
 70
     2
  9
$DIMLWD
 70
     9
  9
$DIMLWE
 70
    -2
  9
$DIMTMOVE
 70
     2
  9
$DIMFXL
 40
1.0
  9
$DIMFXLON
 70
     0
  9
$DIMJOGANG
 40
0.7853981633974483
  9
$DIMTFILL
 70
     0
  9
$DIMTFILLCLR
 70
     0
  9
$DIMARCSYM
 70
     0
  9
$DIMLTYPE
  6

  9
$DIMLTEX1
  6

  9
$DIMLTEX2
  6

  9
$DIMTXTDIRECTION
 70
     0
  9
$LUNITS
 70
     2
  9
$LUPREC
 70
     4
  9
$SKETCHINC
 40
0.1
  9
$FILLETRAD
 40
0.0
  9
$AUNITS
 70
     0
  9
$AUPREC
 70
     0
  9
$MENU
  1
acad
  9
$ELEVATION
 40
0.0
  9
$PELEVATION
 40
0.0
  9
$THICKNESS
 40
0.0
  9
$LIMCHECK
 70
     0
  9
$CHAMFERA
 40
0.0
  9
$CHAMFERB
 40
0.0
  9
$CHAMFERC
 40
0.0
  9
$CHAMFERD
 40
0.0
  9
$SKPOLY
 70
     0
  9
$TDCREATE
 40
2447893.375
  9
$TDUCREATE
 40
0.0
  9
$TDUPDATE
 40
2459633.484554525
  9
$TDUUPDATE
 40
2459633.109554525
  9
$TDINDWG
 40
0.3051262616
  9
$TDUSRTIMER
 40
0.0001002662
  9
$USRTIMER
 70
     1
  9
$ANGBASE
 50
0.0
  9
$ANGDIR
 70
     0
  9
$PDMODE
 70
     0
  9
$PDSIZE
 40
0.0
  9
$PLINEWID
 40
0.0
  9
$SPLFRAME
 70
     0
  9
$SPLINETYPE
 70
     6
  9
$SPLINESEGS
 70
     8
  9
$HANDSEED
  5
50D0
  9
$SURFTAB1
 70
     6
  9
$SURFTAB2
 70
     6
  9
$SURFTYPE
 70
     6
  9
$SURFU
 70
     6
  9
$SURFV
 70
     6
  9
$UCSBASE
  2

  9
$UCSNAME
  2

  9
$UCSORG
 10
0.0
 20
0.0
 30
0.0
  9
$UCSXDIR
 10
1.0
 20
0.0
 30
0.0
  9
$UCSYDIR
 10
0.0
 20
1.0
 30
0.0
  9
$UCSORTHOREF
  2

  9
$UCSORTHOVIEW
 70
     0
  9
$UCSORGTOP
 10
0.0
 20
0.0
 30
0.0
  9
$UCSORGBOTTOM
 10
0.0
 20
0.0
 30
0.0
  9
$UCSORGLEFT
 10
0.0
 20
0.0
 30
0.0
  9
$UCSORGRIGHT
 10
0.0
 20
0.0
 30
0.0
  9
$UCSORGFRONT
 10
0.0
 20
0.0
 30
0.0
  9
$UCSORGBACK
 10
0.0
 20
0.0
 30
0.0
  9
$PUCSBASE
  2

  9
$PUCSNAME
  2

  9
$PUCSORG
 10
0.0
 20
0.0
 30
0.0
  9
$PUCSXDIR
 10
1.0
 20
0.0
 30
0.0
  9
$PUCSYDIR
 10
0.0
 20
1.0
 30
0.0
  9
$PUCSORTHOREF
  2

  9
$PUCSORTHOVIEW
 70
     0
  9
$PUCSORGTOP
 10
0.0
 20
0.0
 30
0.0
  9
$PUCSORGBOTTOM
 10
0.0
 20
0.0
 30
0.0
  9
$PUCSORGLEFT
 10
0.0
 20
0.0
 30
0.0
  9
$PUCSORGRIGHT
 10
0.0
 20
0.0
 30
0.0
  9
$PUCSORGFRONT
 10
0.0
 20
0.0
 30
0.0
  9
$PUCSORGBACK
 10
0.0
 20
0.0
 30
0.0
  9
$USERI1
 70
     0
  9
$USERI2
 70
     0
  9
$USERI3
 70
     0
  9
$USERI4
 70
     0
  9
$USERI5
 70
     0
  9
$USERR1
 40
0.0
  9
$USERR2
 40
0.0
  9
$USERR3
 40
0.0
  9
$USERR4
 40
0.0
  9
$USERR5
 40
0.0
  9
$WORLDVIEW
 70
     1
  9
$SHADEDGE
 70
     3
  9
$SHADEDIF
 70
    70
  9
$TILEMODE
 70
     1
  9
$MAXACTVP
 70
    16
  9
$PINSBASE
 10
0.0
 20
0.0
 30
0.0
  9
$PLIMCHECK
 70
     0
  9
$PEXTMIN
 10
40.5
 20
25.69999999999999
 30
0.0
  9
$PEXTMAX
 10
364.5
 20
231.3
 30
0.0
  9
$PLIMMIN
 10
34.5
 20
9.699999999999989
  9
$PLIMMAX
 10
370.5
 20
247.3
  9
$UNITMODE
 70
     0
  9
$VISRETAIN
 70
     0
  9
$PLINEGEN
 70
     1
  9
$PSLTSCALE
 70
     0
  9
$TREEDEPTH
 70
  3020
  9
$CMLSTYLE
  2
STANDARD
  9
$CMLJUST
 70
     0
  9
$CMLSCALE
 40
1.0
  9
$PROXYGRAPHICS
 70
     0
  9
$MEASUREMENT
 70
     1
  9
$CELWEIGHT
370
    -1
  9
$ENDCAPS
280
     0
  9
$JOINSTYLE
280
     0
  9
$LWDISPLAY
290
     0
  9
$INSUNITS
 70
     0
  9
$HYPERLINKBASE
  1

  9
$STYLESHEET
  1

  9
$XEDIT
290
     1
  9
$CEPSNTYPE
380
     0
  9
$PSTYLEMODE
290
     1
  9
$FINGERPRINTGUID
  2
{4F654013-6306-466B-A47A-ED658B346563}
  9
$VERSIONGUID
  2
{FAEB1C32-E019-11D5-929B-00C0DF256EC4}
  9
$EXTNAMES
290
     1
  9
$PSVPSCALE
 40
0.0
  9
$OLESTARTUP
290
     0
  9
$SORTENTS
280
   127
  9
$INDEXCTL
280
     0
  9
$HIDETEXT
280
     1
  9
$XCLIPFRAME
280
     2
  9
$HALOGAP
280
     0
  9
$OBSCOLOR
 70
   257
  9
$OBSLTYPE
280
     0
  9
$INTERSECTIONDISPLAY
280
     0
  9
$INTERSECTIONCOLOR
 70
   257
  9
$DIMASSOC
280
     2
  9
$PROJECTNAME
  1

  9
$CAMERADISPLAY
290
     0
  9
$LENSLENGTH
 40
50.0
  9
$CAMERAHEIGHT
 40
0.0
  9
$STEPSPERSEC
 40
2.0
  9
$STEPSIZE
 40
6.0
  9
$3DDWFPREC
 40
2.0
  9
$PSOLWIDTH
 40
0.25
  9
$PSOLHEIGHT
 40
4.0
  9
$LOFTANG1
 40
1.570796326794897
  9
$LOFTANG2
 40
1.570796326794897
  9
$LOFTMAG1
 40
0.0
  9
$LOFTMAG2
 40
0.0
  9
$LOFTPARAM
 70
     7
  9
$LOFTNORMALS
280
     1
  9
$LATITUDE
 40
37.795
  9
$LONGITUDE
 40
-122.394
  9
$NORTHDIRECTION
 40
0.0
  9
$TIMEZONE
 70
 -8000
  9
$LIGHTGLYPHDISPLAY
280
     1
  9
$TILEMODELIGHTSYNCH
280
     1
  9
$SOLIDHIST
280
     0
  9
$SHOWHIST
280
     1
  9
$DWFFRAME
280
     2
  9
$DGNFRAME
280
     2
  9
$REALWORLDSCALE
290
     1
  9
$INTERFERECOLOR
 62
   256
  9
$CSHADOW
280
     0
  9
$SHADOWPLANELOCATION
 40
0.0
  0
ENDSEC
  0
SECTION
  2
CLASSES
  0
CLASS
  1
LWPOLYLINE
  2
AcDbPolyline
  3
ObjectDBX Classes
 90
        0
 91
        1
280
     0
281
     1
  0
CLASS
  1
IMAGE
  2
AcDbRasterImage
  3
ISM
 90
      127
 91
        4
280
     0
281
     1
  0
CLASS
  1
OLE2FRAME
  2
AcDbOle2Frame
  3
ObjectDBX Classes
 90
        0
 91
        1
280
     0
281
     1
  0
CLASS
  1
HATCH
  2
AcDbHatch
  3
ObjectDBX Classes
 90
        0
 91
        1
280
     0
281
     1
  0
CLASS
  1
DICTIONARYVAR
  2
AcDbDictionaryVar
  3
ObjectDBX Classes
 90
        0
 91
        3
280
     0
281
     0
  0
CLASS
  1
RASTERVARIABLES
  2
AcDbRasterVariables
  3
ISM
 90
        0
 91
        3
280
     0
281
     0
  0
CLASS
  1
IMAGEDEF
  2
AcDbRasterImageDef
  3
ISM
 90
        0
 91
        3
280
     0
281
     0
  0
CLASS
  1
IMAGEDEF_REACTOR
  2
AcDbRasterImageDefReactor
  3
ISM
 90
        1
 91
        3
280
     0
281
     0
  0
CLASS
  1
IDBUFFER
  2
AcDbIdBuffer
  3
ObjectDBX Classes
 90
        0
 91
        3
280
     0
281
     0
  0
CLASS
  1
SPATIAL_FILTER
  2
AcDbSpatialFilter
  3
ObjectDBX Classes
 90
        0
 91
        3
280
     0
281
     0
  0
CLASS
  1
XRECORD
  2
AcDbXrecord
  3
ObjectDBX Classes
 90
        0
 91
        1
280
     0
281
     0
  0
CLASS
  1
SORTENTSTABLE
  2
AcDbSortentsTable
  3
ObjectDBX Classes
 90
        0
 91
        3
280
     0
281
     0
  0
CLASS
  1
LAYER_INDEX
  2
AcDbLayerIndex
  3
ObjectDBX Classes
 90
        0
 91
        3
280
     0
281
     0
  0
CLASS
  1
SPATIAL_INDEX
  2
AcDbSpatialIndex
  3
AutoCAD 2000
 90
        0
 91
        3
280
     0
281
     0
  0
CLASS
  1
OBJECT_PTR
  2
CAseDLPNTableRecord
  3
ASE-LPNTableRecord
 90
        1
 91
        3
280
     0
281
     0
  0
CLASS
  1
LAYOUT
  2
AcDbLayout
  3
ObjectDBX Classes
 90
        0
 91
        1
280
     0
281
     0
  0
CLASS
  1
PLOTSETTINGS
  2
AcDbPlotSettings
  3
ObjectDBX Classes
 90
        0
 91
        3
280
     0
281
     0
  0
CLASS
  1
ACDBDICTIONARYWDFLT
  2
AcDbDictionaryWithDefault
  3
ObjectDBX Classes
 90
        0
 91
        3
280
     0
281
     0
  0
CLASS
  1
ACDBPLACEHOLDER
  2
AcDbPlaceHolder
  3
ObjectDBX Classes
 90
        0
 91
        1
280
     0
281
     0
  0
CLASS
  1
VBA_PROJECT
  2
AcDbVbaProject
  3
ObjectDBX Classes
 90
        0
 91
        1
280
     0
281
     0
  0
CLASS
  1
WIPEOUT
  2
AcDbWipeout
  3
WipeOut|AutoCAD Express Tool|expresstools@autodesk.com
 90
      127
 91
        3
280
     0
281
     1
  0
CLASS
  1
WIPEOUTVARIABLES
  2
AcDbWipeoutVariables
  3
WipeOut|AutoCAD Express Tool|expresstools@autodesk.com
 90
        0
 91
        3
280
     0
281
     0
  0
CLASS
  1
RTEXT
  2
RText
  3
RText|AutoCAD Express Tool|expresstools@autodesk.com
 90
        0
 91
        3
280
     0
281
     1
  0
CLASS
  1
ARCALIGNEDTEXT
  2
AcDbArcAlignedText
  3
ATEXT|AutoCAD Express Tool|expresstools@autodesk.com
 90
        0
 91
        3
280
     0
281
     1
  0
CLASS
  1
SCALE
  2
AcDbScale
  3
ObjectDBX Classes
 90
     1153
 91
        3
280
     0
281
     0
  0
CLASS
  1
VISUALSTYLE
  2
AcDbVisualStyle
  3
ObjectDBX Classes
 90
     4095
 91
        3
280
     0
281
     0
  0
CLASS
  1
MATERIAL
  2
AcDbMaterial
  3
ObjectDBX Classes
 90
     1153
 91
        3
280
     0
281
     0
  0
CLASS
  1
TABLESTYLE
  2
AcDbTableStyle
  3
ObjectDBX Classes
 90
     4095
 91
        3
280
     0
281
     0
  0
CLASS
  1
MLEADERSTYLE
  2
AcDbMLeaderStyle
  3
ACDB_MLEADERSTYLE_CLASS
 90
     4095
 91
        3
280
     0
281
     0
  0
CLASS
  1
SUN
  2
AcDbSun
  3
SCENEOE
 90
     1153
 91
        3
280
     0
281
     0
  0
CLASS
  1
CELLSTYLEMAP
  2
AcDbCellStyleMap
  3
ObjectDBX Classes
 90
     1152
 91
        3
280
     0
281
     0
  0
CLASS
  1
DIMASSOC
  2
AcDbDimAssoc
  3
"AcDbDimAssoc|Product Desc:     AcDim ARX App For Dimension|Company:          Autodesk, Inc.|WEB Address:      www.autodesk.com"
 90
        0
 91
        3
280
     0
281
     0
  0
ENDSEC
  0
SECTION
  2
TABLES
  0
TABLE
  2
VPORT
  5
7
330
0
100
AcDbSymbolTable
 70
     1
  0
VPORT
  5
15
330
7
100
AcDbSymbolTableRecord
100
AcDbViewportTableRecord
  2
*ACTIVE
 70
     0
 10
0.0
 20
0.0
 11
1.0
 21
1.0
 12
687.9347371439331
 22
148.828772173833
 13
0.0
 23
0.0
 14
1.0
 24
1.0
 15
0.0
 25
0.0
 16
0.0
 26
0.0
 36
1.0
 17
0.0
 27
0.0
 37
0.0
 40
392.7167034151985
 41
1.861386138613861
 42
50.0
 43
0.0
 44
0.0
 50
0.0
 51
0.0
 71
    16
 72
   100
 73
     1
 74
     1
 75
     0
 76
     0
 77
     0
 78
     0
281
     0
 65
     1
110
0.0
120
0.0
130
0.0
111
1.0
121
0.0
131
0.0
112
0.0
122
1.0
132
0.0
 79
     0
146
0.0
348
D27
 60
     3
 61
     5
292
     1
282
     1
141
0.0
142
0.0
 63
   256
361
D6B
  0
ENDTAB
  0
TABLE
  2
LTYPE
  5
4
330
0
100
AcDbSymbolTable
 70
     4
  0
LTYPE
  5
11
330
4
100
AcDbSymbolTableRecord
100
AcDbLinetypeTableRecord
  2
BYBLOCK
 70
     0
  3

 72
    65
 73
     0
 40
0.0
  0
LTYPE
  5
12
330
4
100
AcDbSymbolTableRecord
100
AcDbLinetypeTableRecord
  2
BYLAYER
 70
     0
  3

 72
    65
 73
     0
 40
0.0
  0
LTYPE
  5
13
330
4
100
AcDbSymbolTableRecord
100
AcDbLinetypeTableRecord
  2
CONTINUOUS
 70
     0
  3
Solid line
 72
    65
 73
     0
 40
0.0
  0
LTYPE
  5
624
330
4
100
AcDbSymbolTableRecord
100
AcDbLinetypeTableRecord
  2
CENTER
 70
     0
  3
 Center _____  _  _____  _  _____  _  _____  _ 
 72
    65
 73
     4
 40
50.8
 49
31.75
 74
     0
 49
-6.35
 74
     0
 49
6.35
 74
     0
 49
-6.35
 74
     0
  0
LTYPE
  5
18AB
330
4
100
AcDbSymbolTableRecord
100
AcDbLinetypeTableRecord
  2
CENTERX2
 70
     0
  3
Center (2x) ________  __  ________  __  _____
 72
    65
 73
     4
 40
20.32
 49
12.7
 74
     0
 49
-2.54
 74
     0
 49
2.54
 74
     0
 49
-2.54
 74
     0
  0
LTYPE
  5
2083
330
4
100
AcDbSymbolTableRecord
100
AcDbLinetypeTableRecord
  2
HIDDEN
 70
     0
  3
Hidden _ _ _ _ _ _ _ _ _ _ _ _ _ _ _ _ _ _ _ _ 
 72
    65
 73
     2
 40
9.524999999999999
 49
6.35
 74
     0
 49
-3.175
 74
     0
  0
ENDTAB
  0
TABLE
  2
LAYER
  5
2
102
{ACAD_XDICTIONARY
360
29A
102
}
330
0
100
AcDbSymbolTable
 70
     9
  0
LAYER
  5
14
330
2
100
AcDbSymbolTableRecord
100
AcDbLayerTableRecord
  2
0
 70
     0
 62
     7
  6
CONTINUOUS
370
    -3
390
D3D
347
D66
348
0
  0
LAYER
  5
28
330
2
100
AcDbSymbolTableRecord
100
AcDbLayerTableRecord
  2
レイヤー_1
 70
     0
 62
   160
  6
CONTINUOUS
370
    -3
390
D3D
347
D66
348
0
  0
LAYER
  5
1D5
330
2
100
AcDbSymbolTableRecord
100
AcDbLayerTableRecord
  2
999-OFF
 70
     0
 62
     7
  6
CONTINUOUS
370
    -3
390
D3D
347
D66
348
0
1001
ACAECLAYERSTANDARD
1000

1000

  0
LAYER
  5
1D8
330
2
100
AcDbSymbolTableRecord
100
AcDbLayerTableRecord
  2
998-図枠
 70
     0
 62
     7
  6
CONTINUOUS
370
    -3
390
D3D
347
D66
348
0
1001
ACAECLAYERSTANDARD
1000

1000

  0
LAYER
  5
1D9
330
2
100
AcDbSymbolTableRecord
100
AcDbLayerTableRecord
  2
997-図枠_文字
 70
     0
 62
     7
  6
CONTINUOUS
370
    -3
390
D3D
347
D66
348
0
1001
ACAECLAYERSTANDARD
1000

1000

  0
LAYER
  5
464
330
2
100
AcDbSymbolTableRecord
100
AcDbLayerTableRecord
  2
DEFPOINTS
 70
     0
 62
     7
  6
CONTINUOUS
290
     0
370
    -3
390
D3D
347
D66
348
0
  0
LAYER
  5
C7D
330
2
100
AcDbSymbolTableRecord
100
AcDbLayerTableRecord
  2
1
 70
     0
 62
     7
  6
CONTINUOUS
370
    -3
390
D3D
347
D66
348
0
  0
LAYER
  5
C7F
330
2
100
AcDbSymbolTableRecord
100
AcDbLayerTableRecord
  2
THO-49_AD本体_150806
 70
     0
 62
     7
  6
CONTINUOUS
370
    -3
390
D3D
347
D66
348
0
  0
LAYER
  5
4C37
330
2
100
AcDbSymbolTableRecord
100
AcDbLayerTableRecord
  2
_U+30EC_U+30A4_U+30E4_U+30FC 1
 70
     0
 62
     7
  6
CONTINUOUS
370
    -3
390
D3D
347
D66
348
0
  0
ENDTAB
  0
TABLE
  2
STYLE
  5
3
330
0
100
AcDbSymbolTable
 70
     7
  0
STYLE
  5
17
330
3
100
AcDbSymbolTableRecord
100
AcDbTextStyleTableRecord
  2
STANDARD
 70
     0
 40
0.0
 41
1.0
 50
0.0
 71
     0
 42
2.5
  3
msgothic.ttc
  4

1001
ACAD
1000
MS PGothic
1071
        0
  0
STYLE
  5
24
330
3
100
AcDbSymbolTableRecord
100
AcDbTextStyleTableRecord
  2
STD
 70
     0
 40
0.0
 41
1.0
 50
0.0
 71
     0
 42
0.0
  3
txt
  4

  0
STYLE
  5
25
330
3
100
AcDbSymbolTableRecord
100
AcDbTextStyleTableRecord
  2
TATESTD
 70
     4
 40
0.0
 41
1.0
 50
0.0
 71
     0
 42
0.0
  3
txt
  4

  0
STYLE
  5
26
330
3
100
AcDbSymbolTableRecord
100
AcDbTextStyleTableRecord
  2
KANJISTD
 70
     0
 40
0.0
 41
1.0
 50
0.0
 71
     0
 42
0.0
  3
txt
  4
extfont
  0
STYLE
  5
27
330
3
100
AcDbSymbolTableRecord
100
AcDbTextStyleTableRecord
  2
KANJITATE
 70
     4
 40
0.0
 41
1.0
 50
0.0
 71
     0
 42
0.0
  3
txt
  4
extfont
  0
STYLE
  5
1DC
330
3
100
AcDbSymbolTableRecord
100
AcDbTextStyleTableRecord
  2
SLDTEXTSTYLE0
 70
     0
 40
0.0
 41
0.75
 50
0.0
 71
     0
 42
0.0
  3
TXT
  4
bigfont
  0
STYLE
  5
C82
330
3
100
AcDbSymbolTableRecord
100
AcDbTextStyleTableRecord
  2
ＭＳ_Ｐゴシック
 70
     0
 40
0.0
 41
1.0
 50
0.0
 71
     0
 42
2.5
  3
msgothic.ttc
  4
ＭＳ Ｐゴシック
1001
ACAD
1000
ＭＳ Ｐゴシック
1071
        0
  0
ENDTAB
  0
TABLE
  2
VIEW
  5
5
330
0
100
AcDbSymbolTable
 70
     0
  0
ENDTAB
  0
TABLE
  2
UCS
  5
6
330
0
100
AcDbSymbolTable
 70
     0
  0
ENDTAB
  0
TABLE
  2
APPID
  5
8
330
0
100
AcDbSymbolTable
 70
     5
  0
APPID
  5
16
330
8
100
AcDbSymbolTableRecord
100
AcDbRegAppTableRecord
  2
ACAD
 70
     0
  0
APPID
  5
1D7
330
8
100
AcDbSymbolTableRecord
100
AcDbRegAppTableRecord
  2
ACAECLAYERSTANDARD
 70
     0
  0
APPID
  5
485
330
8
100
AcDbSymbolTableRecord
100
AcDbRegAppTableRecord
  2
ACAD_DSTYLE_DIMRADIAL_EXTE
 70
     0
  0
APPID
  5
DD3
330
8
100
AcDbSymbolTableRecord
100
AcDbRegAppTableRecord
  2
ACAD_DSTYLE_DIMRADIAL_EXTENSION
 70
     0
  0
APPID
  5
215B
330
8
100
AcDbSymbolTableRecord
100
AcDbRegAppTableRecord
  2
PLOTTRANSPARENCY
 70
     0
  0
ENDTAB
  0
TABLE
  2
DIMSTYLE
  5
9
330
0
100
AcDbSymbolTable
 70
     6
100
AcDbDimStyleTable
  0
DIMSTYLE
105
18
330
9
100
AcDbSymbolTableRecord
100
AcDbDimStyleTableRecord
  2
STANDARD
 70
     0
178
     0
340
17
  0
DIMSTYLE
105
1DA
102
{ACAD_REACTORS
330
4F27
330
4F29
330
4F2C
330
4F30
330
4F34
330
4F38
330
4F49
330
50B1
330
50C0
330
50C4
102
}
330
9
100
AcDbSymbolTableRecord
100
AcDbDimStyleTableRecord
  2
ISO-25
 70
     0
 41
2.5
 42
0.625
 43
3.75
 44
1.25
 73
     0
 74
     0
 77
     1
 78
     8
140
2.5
141
2.5
143
0.0393700787
147
0.625
171
     3
172
     1
178
     0
271
     2
272
     2
274
     3
283
     0
284
     8
340
17
  0
DIMSTYLE
105
457
102
{ACAD_REACTORS
330
4FF2
330
50A8
330
50AC
330
50B5
330
50B9
102
}
330
9
100
AcDbSymbolTableRecord
100
AcDbDimStyleTableRecord
  2
ISO-2
 70
     0
 41
2.5
 42
0.625
 43
3.75
 44
1.25
 73
     0
 74
     0
 77
     1
 78
     8
140
2.5
141
2.5
143
0.0393700787
147
0.625
171
     3
172
     1
178
     0
271
     1
272
     2
274
     3
283
     0
284
     8
340
17
341
459
342
459
  0
DIMSTYLE
105
10CB
330
9
100
AcDbSymbolTableRecord
100
AcDbDimStyleTableRecord
  2
SLDDIMSTYLE0
 70
     0
 41
3.302
 44
0.0
 45
0.000000001
 73
     0
 74
     0
 77
     3
 78
    12
 79
     3
140
3.5
144
2.0
147
0.875
173
     1
178
     0
271
     2
272
     2
276
     2
284
    12
340
1DC
341
10CD
343
10CD
344
10CD
  0
DIMSTYLE
105
10D3
330
9
100
AcDbSymbolTableRecord
100
AcDbDimStyleTableRecord
  2
SLDDIMSTYLE1
 70
     0
 41
3.302
 44
0.0
 45
0.000000001
 73
     0
 74
     0
 77
     3
 78
    12
 79
     3
140
3.5
144
2.0
147
0.875
173
     1
178
     0
271
     1
272
     1
276
     2
284
    12
340
1DC
341
10CD
343
10CD
344
10CD
  0
DIMSTYLE
105
10D4
330
9
100
AcDbSymbolTableRecord
100
AcDbDimStyleTableRecord
  2
SLDDIMSTYLE2
 70
     0
 41
3.302
 44
0.0
 45
0.000000001
 73
     0
 74
     0
 77
     3
 78
    12
 79
     3
140
3.5
144
2.0
147
0.875
173
     1
178
     0
271
     1
272
     2
276
     2
284
    12
340
1DC
341
10CD
343
10CD
344
10CD
  0
ENDTAB
  0
TABLE
  2
BLOCK_RECORD
  5
1
330
0
100
AcDbSymbolTable
 70
    22
  0
BLOCK_RECORD
  5
A
330
1
100
AcDbSymbolTableRecord
100
AcDbBlockTableRecord
  2
*MODEL_SPACE
340
D61
 70
     0
280
     1
281
     0
  0
BLOCK_RECORD
  5
B
330
1
100
AcDbSymbolTableRecord
100
AcDbBlockTableRecord
  2
*PAPER_SPACE
340
D62
 70
     0
280
     1
281
     0
  0
BLOCK_RECORD
  5
11D
330
1
100
AcDbSymbolTableRecord
100
AcDbBlockTableRecord
  2
AI9-BLK1
340
0
 70
     0
280
     1
281
     0
  0
BLOCK_RECORD
  5
459
330
1
100
AcDbSymbolTableRecord
100
AcDbBlockTableRecord
  2
_OPEN
340
0
102
{BLKREFS
331
4F87
331
4F88
331
4F96
331
4F97
331
4FA3
331
4FA4
331
4FAF
331
4FB0
331
4FBB
331
4FBC
102
}
 70
     0
280
     1
281
     0
  0
BLOCK_RECORD
  5
E9B
330
1
100
AcDbSymbolTableRecord
100
AcDbBlockTableRecord
  2
_DOT
340
0
 70
     0
280
     1
281
     0
  0
BLOCK_RECORD
  5
10CD
330
1
100
AcDbSymbolTableRecord
100
AcDbBlockTableRecord
  2
_OPEN30
340
0
102
{BLKREFS
331
11EB
331
11EC
331
12B7
331
12B8
331
12C1
331
12C2
331
13B6
331
13B7
331
13C0
331
13C1
331
13CA
331
13CB
331
247B
331
247C
102
}
 70
     0
280
     1
281
     0
  0
BLOCK_RECORD
  5
11E6
330
1
100
AcDbSymbolTableRecord
100
AcDbBlockTableRecord
  2
_D
340
0
 70
     0
280
     1
281
     0
  0
BLOCK_RECORD
  5
12B2
330
1
100
AcDbSymbolTableRecord
100
AcDbBlockTableRecord
  2
_D_1
340
0
 70
     0
280
     1
281
     0
  0
BLOCK_RECORD
  5
12BC
330
1
100
AcDbSymbolTableRecord
100
AcDbBlockTableRecord
  2
_D_2
340
0
 70
     0
280
     1
281
     0
  0
BLOCK_RECORD
  5
13B1
330
1
100
AcDbSymbolTableRecord
100
AcDbBlockTableRecord
  2
_D_3
340
0
 70
     0
280
     1
281
     0
  0
BLOCK_RECORD
  5
13BB
330
1
100
AcDbSymbolTableRecord
100
AcDbBlockTableRecord
  2
_D_4
340
0
 70
     0
280
     1
281
     0
  0
BLOCK_RECORD
  5
13C5
330
1
100
AcDbSymbolTableRecord
100
AcDbBlockTableRecord
  2
_D_5
340
0
 70
     0
280
     1
281
     0
  0
BLOCK_RECORD
  5
1AAF
330
1
100
AcDbSymbolTableRecord
100
AcDbBlockTableRecord
  2
SW_CENTERMARKSYMBOL_0
340
0
 70
     0
280
     1
281
     0
  0
BLOCK_RECORD
  5
2051
330
1
100
AcDbSymbolTableRecord
100
AcDbBlockTableRecord
  2
SW_CENTERMARKSYMBOL_1
340
0
 70
     0
280
     1
281
     0
  0
BLOCK_RECORD
  5
234F
330
1
100
AcDbSymbolTableRecord
100
AcDbBlockTableRecord
  2
_Oblique
340
0
 70
     0
280
     1
281
     0
  0
BLOCK_RECORD
  5
2476
330
1
100
AcDbSymbolTableRecord
100
AcDbBlockTableRecord
  2
_D_6
340
0
 70
     0
280
     1
281
     0
  0
BLOCK_RECORD
  5
2480
330
1
100
AcDbSymbolTableRecord
100
AcDbBlockTableRecord
  2
SW_CENTERMARKSYMBOL_3
340
0
 70
     0
280
     1
281
     0
  0
BLOCK_RECORD
  5
248C
330
1
100
AcDbSymbolTableRecord
100
AcDbBlockTableRecord
  2
SW_CENTERMARKSYMBOL_4
340
0
 70
     0
280
     1
281
     0
  0
BLOCK_RECORD
  5
2498
330
1
100
AcDbSymbolTableRecord
100
AcDbBlockTableRecord
  2
SW_CENTERMARKSYMBOL_5
340
0
 70
     0
280
     1
281
     0
  0
BLOCK_RECORD
  5
4F81
330
1
100
AcDbSymbolTableRecord
100
AcDbBlockTableRecord
  2
*D177
340
0
 70
     0
280
     1
281
     0
  0
BLOCK_RECORD
  5
4F8D
330
1
100
AcDbSymbolTableRecord
100
AcDbBlockTableRecord
  2
*D178
340
0
 70
     0
280
     1
281
     0
  0
BLOCK_RECORD
  5
4F9A
330
1
100
AcDbSymbolTableRecord
100
AcDbBlockTableRecord
  2
*D179
340
0
 70
     0
280
     1
281
     0
  0
BLOCK_RECORD
  5
4FA9
330
1
100
AcDbSymbolTableRecord
100
AcDbBlockTableRecord
  2
*D180
340
0
 70
     0
280
     1
281
     0
  0
BLOCK_RECORD
  5
4FB5
330
1
100
AcDbSymbolTableRecord
100
AcDbBlockTableRecord
  2
*D181
340
0
 70
     0
280
     1
281
     0
  0
ENDTAB
  0
ENDSEC
  0
SECTION
  2
BLOCKS
  0
BLOCK
  5
D
330
A
100
AcDbEntity
  8
0
100
AcDbBlockBegin
  2
*MODEL_SPACE
 70
     0
 10
0.0
 20
0.0
 30
0.0
  3
*MODEL_SPACE
  1

  0
ENDBLK
  5
E
330
A
100
AcDbEntity
  8
0
100
AcDbBlockEnd
  0
BLOCK
  5
F
330
B
100
AcDbEntity
 67
     1
  8
0
100
AcDbBlockBegin
  2
*PAPER_SPACE
 70
     0
 10
0.0
 20
0.0
 30
0.0
  3
*PAPER_SPACE
  1

  0
ENDBLK
  5
10
330
B
100
AcDbEntity
 67
     1
  8
0
100
AcDbBlockEnd
  0
BLOCK
  5
11F
330
11D
100
AcDbEntity
  8
レイヤー_1
 62
     7
100
AcDbBlockBegin
  2
AI9-BLK1
 70
     0
 10
0.0
 20
0.0
 30
0.0
  3
AI9-BLK1
  1

  0
MTEXT
  5
122
330
11D
100
AcDbEntity
  8
レイヤー_1
 62
     7
100
AcDbMText
 10
-4.7625
 20
1.215134
 30
0.0
 40
2.362351
 41
0.0
 46
0.0
 71
     1
 72
     2
  1
\fMSGothic|b0|i0|c128;\H2.3624;\C7;記
  7
STD
 73
     1
 44
1.0
  0
MTEXT
  5
121
330
11D
100
AcDbEntity
  8
レイヤー_1
 62
     7
100
AcDbMText
 10
-1.5875
 20
1.215134
 30
0.0
 40
2.362351
 41
0.0
 46
0.0
 71
     1
 72
     2
  1
\fMSGothic|b0|i0|c128;\H2.3624;\C7;
  7
STD
 73
     1
 44
1.0
  0
MTEXT
  5
120
330
11D
100
AcDbEntity
  8
レイヤー_1
 62
     7
100
AcDbMText
 10
1.5875
 20
1.215134
 30
0.0
 40
2.362351
 41
0.0
 46
0.0
 71
     1
 72
     2
  1
\fMSGothic|b0|i0|c128;\H2.3624;\C7;事
  7
STD
 73
     1
 44
1.0
  0
ENDBLK
  5
123
330
11D
100
AcDbEntity
  8
レイヤー_1
100
AcDbBlockEnd
  0
BLOCK
  5
45A
330
459
100
AcDbEntity
  8
0
100
AcDbBlockBegin
  2
_OPEN
 70
     0
 10
0.0
 20
0.0
 30
0.0
  3
_OPEN
  1

  0
LINE
  5
45B
330
459
100
AcDbEntity
  8
0
  6
ByBlock
 62
     0
100
AcDbLine
 10
-1.0
 20
0.166667
 30
0.0
 11
0.0
 21
0.0
 31
0.0
  0
LINE
  5
45C
330
459
100
AcDbEntity
  8
0
  6
ByBlock
 62
     0
100
AcDbLine
 10
-1.0
 20
-0.166667
 30
0.0
 11
0.0
 21
0.0
 31
0.0
  0
LINE
  5
45D
330
459
100
AcDbEntity
  8
0
  6
ByBlock
 62
     0
100
AcDbLine
 10
0.0
 20
0.0
 30
0.0
 11
-1.0
 21
0.0
 31
0.0
  0
ENDBLK
  5
45E
330
459
100
AcDbEntity
  8
0
100
AcDbBlockEnd
  0
BLOCK
  5
E9C
330
E9B
100
AcDbEntity
  8
0
100
AcDbBlockBegin
  2
_DOT
 70
     0
 10
0.0
 20
0.0
 30
0.0
  3
_DOT
  1

  0
LWPOLYLINE
  5
E9D
330
E9B
100
AcDbEntity
  8
0
  6
ByBlock
 62
     0
100
AcDbPolyline
 90
        2
 70
     1
 43
0.5
 10
-0.25
 20
0.0
 42
1.0
 10
0.25
 20
0.0
 42
1.0
  0
LINE
  5
E9E
330
E9B
100
AcDbEntity
  8
0
  6
ByBlock
 62
     0
100
AcDbLine
 10
-0.5
 20
0.0
 30
0.0
 11
-1.0
 21
0.0
 31
0.0
  0
ENDBLK
  5
E9F
330
E9B
100
AcDbEntity
  8
0
100
AcDbBlockEnd
  0
BLOCK
  5
10CE
330
10CD
100
AcDbEntity
  8
0
100
AcDbBlockBegin
  2
_OPEN30
 70
     0
 10
0.0
 20
0.0
 30
0.0
  3
_OPEN30
  1

  0
LINE
  5
10CF
330
10CD
100
AcDbEntity
  8
0
  6
ByBlock
 62
     0
370
    -2
100
AcDbLine
 10
-1.0
 20
0.267949
 30
0.0
 11
0.0
 21
0.0
 31
0.0
  0
LINE
  5
10D0
330
10CD
100
AcDbEntity
  8
0
  6
ByBlock
 62
     0
370
    -2
100
AcDbLine
 10
0.0
 20
0.0
 30
0.0
 11
-1.0
 21
-0.267949
 31
0.0
  0
LINE
  5
10D1
330
10CD
100
AcDbEntity
  8
0
  6
ByBlock
 62
     0
370
    -2
100
AcDbLine
 10
0.0
 20
0.0
 30
0.0
 11
-1.0
 21
0.0
 31
0.0
  0
ENDBLK
  5
10D2
330
10CD
100
AcDbEntity
  8
0
100
AcDbBlockEnd
  0
BLOCK
  5
11E7
330
11E6
100
AcDbEntity
  8
0
100
AcDbBlockBegin
  2
_D
 70
     0
 10
0.0
 20
0.0
 30
0.0
  3
_D
  1

  0
LINE
  5
11E8
330
11E6
100
AcDbEntity
  8
レイヤー_1
 62
     0
370
    -2
100
AcDbLine
 10
8.91016103400004
 20
179.0987216371
 30
0.0
 11
8.91016103400004
 21
207.1900544161
 31
0.0
  0
LINE
  5
11E9
330
11E6
100
AcDbEntity
  8
レイヤー_1
 62
     0
370
    -2
100
AcDbLine
 10
56.41016103400004
 20
179.0987216371
 30
0.0
 11
56.41016103400004
 21
207.1900544161
 31
0.0
  0
LINE
  5
11EA
330
11E6
100
AcDbEntity
  8
レイヤー_1
 62
     0
370
    -2
100
AcDbLine
 10
12.21216103400004
 20
207.1900544161
 30
0.0
 11
53.10816103400004
 21
207.1900544161
 31
0.0
  0
INSERT
  5
11EB
330
11E6
100
AcDbEntity
  8
レイヤー_1
 62
     0
370
    -2
100
AcDbBlockReference
  2
_OPEN30
 10
8.91016103400004
 20
207.1900544161
 30
0.0
 41
3.302
 42
3.302
 43
3.302
 50
180.0
  0
INSERT
  5
11EC
330
11E6
100
AcDbEntity
  8
レイヤー_1
 62
     0
370
    -2
100
AcDbBlockReference
  2
_OPEN30
 10
56.41016103400004
 20
207.1900544161
 30
0.0
 41
3.302
 42
3.302
 43
3.302
  0
MTEXT
  5
11ED
330
11E6
100
AcDbEntity
  8
レイヤー_1
  6
Continuous
 62
     0
100
AcDbMText
 10
32.04679139600005
 20
211.5650544161
 30
0.0
 40
3.5
 41
0.0
 46
0.0
 71
     2
 72
     1
  1
\A1;%%c95
  7
SLDTEXTSTYLE0
 73
     1
 44
1.0
  0
POINT
  5
11EE
330
11E6
100
AcDbEntity
  8
DEFPOINTS
 62
     0
100
AcDbPoint
 10
8.91016103400004
 20
179.0362216371
 30
0.0
  0
POINT
  5
13D0
330
11E6
100
AcDbEntity
  8
DEFPOINTS
 62
     0
100
AcDbPoint
 10
56.41016103400004
 20
179.0362216371
 30
0.0
  0
POINT
  5
13D1
330
11E6
100
AcDbEntity
  8
DEFPOINTS
 62
     0
100
AcDbPoint
 10
56.41016103400004
 20
207.1900544161
 30
0.0
  0
ENDBLK
  5
11EF
330
11E6
100
AcDbEntity
  8
0
100
AcDbBlockEnd
  0
BLOCK
  5
12B3
330
12B2
100
AcDbEntity
  8
0
100
AcDbBlockBegin
  2
_D_1
 70
     0
 10
0.0
 20
0.0
 30
0.0
  3
_D_1
  1

  0
LINE
  5
12B4
330
12B2
100
AcDbEntity
  8
レイヤー_1
 62
     0
370
    -2
100
AcDbLine
 10
239.024514827
 20
179.546771748
 30
0.0
 11
239.024514827
 21
205.638104527
 31
0.0
  0
LINE
  5
12B5
330
12B2
100
AcDbEntity
  8
レイヤー_1
 62
     0
370
    -2
100
AcDbLine
 10
174.124879823
 20
200.796771748
 30
0.0
 11
174.124879823
 21
205.638104527
 31
0.0
  0
LINE
  5
12B6
330
12B2
100
AcDbEntity
  8
レイヤー_1
 62
     0
370
    -2
100
AcDbLine
 10
235.722514827
 20
205.638104527
 30
0.0
 11
177.426879823
 21
205.638104527
 31
0.0
  0
INSERT
  5
12B7
330
12B2
100
AcDbEntity
  8
レイヤー_1
 62
     0
370
    -2
100
AcDbBlockReference
  2
_OPEN30
 10
239.024514827
 20
205.638104527
 30
0.0
 41
3.302
 42
3.302
 43
3.302
  0
INSERT
  5
12B8
330
12B2
100
AcDbEntity
  8
レイヤー_1
 62
     0
370
    -2
100
AcDbBlockReference
  2
_OPEN30
 10
174.124879823
 20
205.638104527
 30
0.0
 41
3.302
 42
3.302
 43
3.302
 50
180.0
  0
MTEXT
  5
12B9
330
12B2
100
AcDbEntity
  8
レイヤー_1
  6
Continuous
 62
     0
100
AcDbMText
 10
204.1456778034
 20
210.013104527
 30
0.0
 40
3.5
 41
0.0
 46
0.0
 71
     2
 72
     1
  1
\A1;129.8
  7
SLDTEXTSTYLE0
 73
     1
 44
1.0
  0
POINT
  5
13D2
330
12B2
100
AcDbEntity
  8
DEFPOINTS
 62
     0
100
AcDbPoint
 10
239.024514827
 20
179.484271748
 30
0.0
  0
POINT
  5
13D3
330
12B2
100
AcDbEntity
  8
DEFPOINTS
 62
     0
100
AcDbPoint
 10
174.124879823
 20
200.734271748
 30
0.0
  0
POINT
  5
13D4
330
12B2
100
AcDbEntity
  8
DEFPOINTS
 62
     0
100
AcDbPoint
 10
174.124879823
 20
205.638104527
 30
0.0
  0
ENDBLK
  5
12BA
330
12B2
100
AcDbEntity
  8
0
100
AcDbBlockEnd
  0
BLOCK
  5
12BD
330
12BC
100
AcDbEntity
  8
0
100
AcDbBlockBegin
  2
_D_2
 70
     0
 10
0.0
 20
0.0
 30
0.0
  3
_D_2
  1

  0
LINE
  5
12BE
330
12BC
100
AcDbEntity
  8
レイヤー_1
 62
     0
370
    -2
100
AcDbLine
 10
200.0623798230001
 20
131.9878439058
 30
0.0
 11
158.1248798229001
 21
131.9878439058
 31
0.0
  0
LINE
  5
12BF
330
12BC
100
AcDbEntity
  8
レイヤー_1
 62
     0
370
    -2
100
AcDbLine
 10
174.562379823
 20
201.234271748
 30
0.0
 11
158.1248798229001
 21
201.234271748
 31
0.0
  0
LINE
  5
12C0
330
12BC
100
AcDbEntity
  8
レイヤー_1
 62
     0
370
    -2
100
AcDbLine
 10
158.1248798229001
 20
135.2898439058
 30
0.0
 11
158.1248798229001
 21
197.932271748
 31
0.0
  0
INSERT
  5
12C1
330
12BC
100
AcDbEntity
  8
レイヤー_1
 62
     0
370
    -2
100
AcDbBlockReference
  2
_OPEN30
 10
158.1248798229001
 20
131.9878439058
 30
0.0
 41
3.302
 42
3.302
 43
3.302
 50
270.0
  0
INSERT
  5
12C2
330
12BC
100
AcDbEntity
  8
レイヤー_1
 62
     0
370
    -2
100
AcDbBlockReference
  2
_OPEN30
 10
158.1248798229001
 20
201.234271748
 30
0.0
 41
3.302
 42
3.302
 43
3.302
 50
90.0
  0
MTEXT
  5
12C3
330
12BC
100
AcDbEntity
  8
レイヤー_1
  6
Continuous
 62
     0
100
AcDbMText
 10
153.7498798229001
 20
166.5801382979
 30
0.0
 40
3.5
 41
0.0
 46
0.0
 71
     2
 72
     1
  1
\A1;138.5
  7
SLDTEXTSTYLE0
 11
0.0
 21
1.0
 31
0.0
 73
     1
 44
1.0
  0
POINT
  5
13D5
330
12BC
100
AcDbEntity
  8
DEFPOINTS
 62
     0
100
AcDbPoint
 10
200.1248798230001
 20
131.9878439058
 30
0.0
  0
POINT
  5
13D6
330
12BC
100
AcDbEntity
  8
DEFPOINTS
 62
     0
100
AcDbPoint
 10
174.624879823
 20
201.234271748
 30
0.0
  0
POINT
  5
13D7
330
12BC
100
AcDbEntity
  8
DEFPOINTS
 62
     0
100
AcDbPoint
 10
158.1248798229001
 20
201.234271748
 30
0.0
  0
ENDBLK
  5
12C4
330
12BC
100
AcDbEntity
  8
0
100
AcDbBlockEnd
  0
BLOCK
  5
13B2
330
13B1
100
AcDbEntity
  8
0
100
AcDbBlockBegin
  2
_D_3
 70
     0
 10
0.0
 20
0.0
 30
0.0
  3
_D_3
  1

  0
LINE
  5
13B3
330
13B1
100
AcDbEntity
  8
レイヤー_1
 62
     0
370
    -2
100
AcDbLine
 10
22.72266103400004
 20
56.17071514850001
 30
0.0
 11
22.72266103400004
 21
10.1689146703
 31
0.0
  0
LINE
  5
13B4
330
13B1
100
AcDbEntity
  8
レイヤー_1
 62
     0
370
    -2
100
AcDbLine
 10
42.59766103400004
 20
56.17071514850001
 30
0.0
 11
42.59766103400004
 21
10.1689146703
 31
0.0
  0
LINE
  5
13B5
330
13B1
100
AcDbEntity
  8
レイヤー_1
 62
     0
370
    -2
100
AcDbLine
 10
26.02466103400004
 20
10.1689146703
 30
0.0
 11
39.29566103400004
 21
10.1689146703
 31
0.0
  0
INSERT
  5
13B6
330
13B1
100
AcDbEntity
  8
レイヤー_1
 62
     0
370
    -2
100
AcDbBlockReference
  2
_OPEN30
 10
22.72266103400004
 20
10.1689146703
 30
0.0
 41
3.302
 42
3.302
 43
3.302
 50
180.0
  0
INSERT
  5
13B7
330
13B1
100
AcDbEntity
  8
レイヤー_1
 62
     0
370
    -2
100
AcDbBlockReference
  2
_OPEN30
 10
42.59766103400004
 20
10.1689146703
 30
0.0
 41
3.302
 42
3.302
 43
3.302
  0
MTEXT
  5
13B8
330
13B1
100
AcDbEntity
  8
レイヤー_1
  6
Continuous
 62
     0
100
AcDbMText
 10
33.29621300240005
 20
14.5439146703
 30
0.0
 40
3.5
 41
0.0
 46
0.0
 71
     2
 72
     1
  1
\A1;39.8
  7
SLDTEXTSTYLE0
 73
     1
 44
1.0
  0
POINT
  5
13D8
330
13B1
100
AcDbEntity
  8
DEFPOINTS
 62
     0
100
AcDbPoint
 10
22.72266103400004
 20
56.23321514850001
 30
0.0
  0
POINT
  5
13D9
330
13B1
100
AcDbEntity
  8
DEFPOINTS
 62
     0
100
AcDbPoint
 10
42.59766103400004
 20
56.23321514850001
 30
0.0
  0
POINT
  5
13DA
330
13B1
100
AcDbEntity
  8
DEFPOINTS
 62
     0
100
AcDbPoint
 10
42.59766103400004
 20
10.1689146703
 30
0.0
  0
ENDBLK
  5
13B9
330
13B1
100
AcDbEntity
  8
0
100
AcDbBlockEnd
  0
BLOCK
  5
13BC
330
13BB
100
AcDbEntity
  8
0
100
AcDbBlockBegin
  2
_D_4
 70
     0
 10
0.0
 20
0.0
 30
0.0
  3
_D_4
  1

  0
LINE
  5
13BD
330
13BB
100
AcDbEntity
  8
レイヤー_1
 62
     0
370
    -2
100
AcDbLine
 10
17.09766103400004
 20
63.1021194521
 30
0.0
 11
4.511736914500048
 21
63.1021194521
 31
0.0
  0
LINE
  5
13BE
330
13BB
100
AcDbEntity
  8
レイヤー_1
 62
     0
370
    -2
100
AcDbLine
 10
28.03416202930005
 20
45.3831547363
 30
0.0
 11
4.511736914500047
 21
45.3831547363
 31
0.0
  0
LINE
  5
13BF
330
13BB
100
AcDbEntity
  8
レイヤー_1
 62
     0
370
    -2
100
AcDbLine
 10
4.511736914500048
 20
59.8001194521
 30
0.0
 11
4.511736914500047
 21
48.6851547363
 31
0.0
  0
INSERT
  5
13C0
330
13BB
100
AcDbEntity
  8
レイヤー_1
 62
     0
370
    -2
100
AcDbBlockReference
  2
_OPEN30
 10
4.511736914500048
 20
63.1021194521
 30
0.0
 41
3.302
 42
3.302
 43
3.302
 50
90.0
  0
INSERT
  5
13C1
330
13BB
100
AcDbEntity
  8
レイヤー_1
 62
     0
370
    -2
100
AcDbBlockReference
  2
_OPEN30
 10
4.511736914500047
 20
45.3831547363
 30
0.0
 41
3.302
 42
3.302
 43
3.302
 50
270.0
  0
MTEXT
  5
13C2
330
13BB
100
AcDbEntity
  8
レイヤー_1
  6
Continuous
 62
     0
100
AcDbMText
 10
0.1367369145000481
 20
55.0354809761
 30
0.0
 40
3.5
 41
0.0
 46
0.0
 71
     2
 72
     1
  1
\A1;35.4
  7
SLDTEXTSTYLE0
 11
5.012586423337345E-17
 21
1.0
 31
0.0
 73
     1
 44
1.0
  0
POINT
  5
13DB
330
13BB
100
AcDbEntity
  8
DEFPOINTS
 62
     0
100
AcDbPoint
 10
17.16016103400004
 20
63.1021194521
 30
0.0
  0
POINT
  5
13DC
330
13BB
100
AcDbEntity
  8
DEFPOINTS
 62
     0
100
AcDbPoint
 10
28.09666202930005
 20
45.3831547363
 30
0.0
  0
POINT
  5
13DD
330
13BB
100
AcDbEntity
  8
DEFPOINTS
 62
     0
100
AcDbPoint
 10
4.511736914500048
 20
45.3831547363
 30
0.0
  0
ENDBLK
  5
13C3
330
13BB
100
AcDbEntity
  8
0
100
AcDbBlockEnd
  0
BLOCK
  5
13C6
330
13C5
100
AcDbEntity
  8
0
100
AcDbBlockBegin
  2
_D_5
 70
     0
 10
0.0
 20
0.0
 30
0.0
  3
_D_5
  1

  0
LINE
  5
13C7
330
13C5
100
AcDbEntity
  8
レイヤー_1
 62
     0
370
    -2
100
AcDbLine
 10
48.16016103400004
 20
49.39091355730001
 30
0.0
 11
48.16016103400004
 21
1.000000000000007
 31
0.0
  0
LINE
  5
13C8
330
13C5
100
AcDbEntity
  8
レイヤー_1
 62
     0
370
    -2
100
AcDbLine
 10
17.16016103400004
 20
49.39091355730001
 30
0.0
 11
17.16016103400004
 21
1.000000000000007
 31
0.0
  0
LINE
  5
13C9
330
13C5
100
AcDbEntity
  8
レイヤー_1
 62
     0
370
    -2
100
AcDbLine
 10
44.85816103400004
 20
1.000000000000007
 30
0.0
 11
20.46216103400004
 21
1.000000000000007
 31
0.0
  0
INSERT
  5
13CA
330
13C5
100
AcDbEntity
  8
レイヤー_1
 62
     0
370
    -2
100
AcDbBlockReference
  2
_OPEN30
 10
48.16016103400004
 20
1.000000000000007
 30
0.0
 41
3.302
 42
3.302
 43
3.302
  0
INSERT
  5
13CB
330
13C5
100
AcDbEntity
  8
レイヤー_1
 62
     0
370
    -2
100
AcDbBlockReference
  2
_OPEN30
 10
17.16016103400004
 20
1.000000000000007
 30
0.0
 41
3.302
 42
3.302
 43
3.302
 50
180.0
  0
MTEXT
  5
13CC
330
13C5
100
AcDbEntity
  8
レイヤー_1
  6
Continuous
 62
     0
100
AcDbMText
 10
33.29621300240005
 20
5.375000000000007
 30
0.0
 40
3.5
 41
0.0
 46
0.0
 71
     2
 72
     1
  1
\A1;62
  7
SLDTEXTSTYLE0
 73
     1
 44
1.0
  0
POINT
  5
13DE
330
13C5
100
AcDbEntity
  8
DEFPOINTS
 62
     0
100
AcDbPoint
 10
48.16016103400004
 20
49.45341355730001
 30
0.0
  0
POINT
  5
13DF
330
13C5
100
AcDbEntity
  8
DEFPOINTS
 62
     0
100
AcDbPoint
 10
17.16016103400004
 20
49.45341355730001
 30
0.0
  0
POINT
  5
13E0
330
13C5
100
AcDbEntity
  8
DEFPOINTS
 62
     0
100
AcDbPoint
 10
17.16016103400004
 20
1.000000000000007
 30
0.0
  0
ENDBLK
  5
13CD
330
13C5
100
AcDbEntity
  8
0
100
AcDbBlockEnd
  0
BLOCK
  5
1AB0
330
1AAF
100
AcDbEntity
  8
0
100
AcDbBlockBegin
  2
SW_CENTERMARKSYMBOL_0
 70
     0
 10
0.0
 20
0.0
 30
0.0
  3
SW_CENTERMARKSYMBOL_0
  1

  0
LINE
  5
1AB1
330
1AAF
100
AcDbEntity
  8
レイヤー_1
 62
     0
100
AcDbLine
 10
0.0
 20
0.0
 30
0.0
 11
0.0
 21
2.5
 31
0.0
  0
LINE
  5
1AB2
330
1AAF
100
AcDbEntity
  8
レイヤー_1
 62
     0
100
AcDbLine
 10
0.0
 20
0.0
 30
0.0
 11
-2.5
 21
0.0
 31
0.0
  0
LINE
  5
1AB3
330
1AAF
100
AcDbEntity
  8
レイヤー_1
 62
     0
100
AcDbLine
 10
0.0
 20
0.0
 30
0.0
 11
0.0
 21
-2.5
 31
0.0
  0
LINE
  5
1AB4
330
1AAF
100
AcDbEntity
  8
レイヤー_1
 62
     0
100
AcDbLine
 10
0.0
 20
0.0
 30
0.0
 11
2.5
 21
0.0
 31
0.0
  0
LINE
  5
1AB5
330
1AAF
100
AcDbEntity
  8
レイヤー_1
 62
     0
100
AcDbLine
 10
0.0
 20
5.0
 30
0.0
 11
0.0
 21
7.5
 31
0.0
  0
LINE
  5
1AB6
330
1AAF
100
AcDbEntity
  8
レイヤー_1
 62
     0
100
AcDbLine
 10
-5.0
 20
0.0
 30
0.0
 11
-53.3222403928
 21
0.0
 31
0.0
  0
LINE
  5
1AB7
330
1AAF
100
AcDbEntity
  8
レイヤー_1
 62
     0
100
AcDbLine
 10
0.0
 20
-5.0
 30
0.0
 11
0.0
 21
-7.5
 31
0.0
  0
LINE
  5
1AB8
330
1AAF
100
AcDbEntity
  8
レイヤー_1
 62
     0
100
AcDbLine
 10
5.0
 20
0.0
 30
0.0
 11
58.1920837675
 21
0.0
 31
0.0
  0
ENDBLK
  5
1AB9
330
1AAF
100
AcDbEntity
  8
0
100
AcDbBlockEnd
  0
BLOCK
  5
2052
330
2051
100
AcDbEntity
  8
0
100
AcDbBlockBegin
  2
SW_CENTERMARKSYMBOL_1
 70
     0
 10
0.0
 20
0.0
 30
0.0
  3
SW_CENTERMARKSYMBOL_1
  1

  0
LINE
  5
2053
330
2051
100
AcDbEntity
  8
0
  6
Continuous
 62
     0
370
    18
100
AcDbLine
 10
0.0
 20
0.0
 30
0.0
 11
0.0
 21
2.5
 31
0.0
  0
LINE
  5
2054
330
2051
100
AcDbEntity
  8
0
  6
Continuous
 62
     0
370
    18
100
AcDbLine
 10
0.0
 20
0.0
 30
0.0
 11
-2.5
 21
0.0
 31
0.0
  0
LINE
  5
2055
330
2051
100
AcDbEntity
  8
0
  6
Continuous
 62
     0
370
    18
100
AcDbLine
 10
0.0
 20
0.0
 30
0.0
 11
0.0
 21
-2.5
 31
0.0
  0
LINE
  5
2056
330
2051
100
AcDbEntity
  8
0
  6
Continuous
 62
     0
370
    18
100
AcDbLine
 10
0.0
 20
0.0
 30
0.0
 11
2.5
 21
0.0
 31
0.0
  0
LINE
  5
2057
330
2051
100
AcDbEntity
  8
0
  6
Continuous
 62
     0
370
    18
100
AcDbLine
 10
0.0
 20
2.5
 30
0.0
 11
0.0
 21
4.75
 31
0.0
  0
LINE
  5
2058
330
2051
100
AcDbEntity
  8
0
  6
Continuous
 62
     0
370
    18
100
AcDbLine
 10
-2.5
 20
0.0
 30
0.0
 11
-4.75
 21
0.0
 31
0.0
  0
LINE
  5
2059
330
2051
100
AcDbEntity
  8
0
  6
Continuous
 62
     0
370
    18
100
AcDbLine
 10
0.0
 20
-2.5
 30
0.0
 11
0.0
 21
-4.75
 31
0.0
  0
LINE
  5
205A
330
2051
100
AcDbEntity
  8
0
  6
Continuous
 62
     0
370
    18
100
AcDbLine
 10
2.5
 20
0.0
 30
0.0
 11
4.75
 21
0.0
 31
0.0
  0
ENDBLK
  5
205B
330
2051
100
AcDbEntity
  8
0
100
AcDbBlockEnd
  0
BLOCK
  5
2350
330
234F
100
AcDbEntity
  8
0
100
AcDbBlockBegin
  2
_Oblique
 70
     0
 10
0.0
 20
0.0
 30
0.0
  3
_Oblique
  1

  0
LINE
  5
2352
330
234F
100
AcDbEntity
  8
0
  6
ByBlock
 62
     0
370
    -2
100
AcDbLine
 10
-0.5
 20
-0.5
 30
0.0
 11
0.5
 21
0.5
 31
0.0
  0
ENDBLK
  5
2351
330
234F
100
AcDbEntity
  8
0
100
AcDbBlockEnd
  0
BLOCK
  5
2477
330
2476
100
AcDbEntity
  8
0
100
AcDbBlockBegin
  2
_D_6
 70
     0
 10
0.0
 20
0.0
 30
0.0
  3
_D_6
  1

  0
LINE
  5
2478
330
2476
100
AcDbEntity
  8
0
  6
Continuous
 62
     0
370
    -2
100
AcDbLine
 10
56.51173691460002
 20
191.7933364097
 30
0.0
 11
56.51173691460002
 21
202.8273383786
 31
0.0
  0
LINE
  5
2479
330
2476
100
AcDbEntity
  8
0
  6
Continuous
 62
     0
370
    -2
100
AcDbLine
 10
76.51173691460002
 20
189.2933364097
 30
0.0
 11
76.51173691460002
 21
202.8273383786
 31
0.0
  0
LINE
  5
247A
330
2476
100
AcDbEntity
  8
0
  6
Continuous
 62
     0
370
    -2
100
AcDbLine
 10
59.81373691460002
 20
202.8273383786
 30
0.0
 11
73.20973691460001
 21
202.8273383786
 31
0.0
  0
INSERT
  5
247B
330
2476
100
AcDbEntity
  8
0
 62
     0
370
    -2
100
AcDbBlockReference
  2
_OPEN30
 10
56.51173691460002
 20
202.8273383786
 30
0.0
 41
3.302
 42
3.302
 43
3.302
 50
180.0
  0
INSERT
  5
247C
330
2476
100
AcDbEntity
  8
0
 62
     0
370
    -2
100
AcDbBlockReference
  2
_OPEN30
 10
76.51173691460002
 20
202.8273383786
 30
0.0
 41
3.302
 42
3.302
 43
3.302
  0
MTEXT
  5
247D
330
2476
100
AcDbEntity
  8
0
  6
Continuous
 62
     0
370
    18
100
AcDbMText
 10
66.51173691460002
 20
207.2023383786
 30
0.0
 40
3.5
 41
0.0
 46
0.0
 71
     2
 72
     1
  1
\A1;40
  7
SLDTEXTSTYLE0
 73
     1
 44
1.0
  0
POINT
  5
24D5
330
2476
100
AcDbEntity
  8
DEFPOINTS
 62
     0
100
AcDbPoint
 10
56.51173691460002
 20
191.7308364097
 30
0.0
  0
POINT
  5
24D6
330
2476
100
AcDbEntity
  8
DEFPOINTS
 62
     0
100
AcDbPoint
 10
76.51173691460002
 20
189.2308364097
 30
0.0
  0
POINT
  5
24D7
330
2476
100
AcDbEntity
  8
DEFPOINTS
 62
     0
100
AcDbPoint
 10
76.51173691460002
 20
202.8273383786
 30
0.0
  0
ENDBLK
  5
247E
330
2476
100
AcDbEntity
  8
0
100
AcDbBlockEnd
  0
BLOCK
  5
2481
330
2480
100
AcDbEntity
  8
0
100
AcDbBlockBegin
  2
SW_CENTERMARKSYMBOL_3
 70
     0
 10
0.0
 20
0.0
 30
0.0
  3
SW_CENTERMARKSYMBOL_3
  1

  0
LINE
  5
2482
330
2480
100
AcDbEntity
  8
0
  6
Continuous
 62
     0
370
    18
100
AcDbLine
 10
0.0
 20
0.0
 30
0.0
 11
0.0
 21
2.5
 31
0.0
  0
LINE
  5
2483
330
2480
100
AcDbEntity
  8
0
  6
Continuous
 62
     0
370
    18
100
AcDbLine
 10
0.0
 20
0.0
 30
0.0
 11
-2.5
 21
0.0
 31
0.0
  0
LINE
  5
2484
330
2480
100
AcDbEntity
  8
0
  6
Continuous
 62
     0
370
    18
100
AcDbLine
 10
0.0
 20
0.0
 30
0.0
 11
0.0
 21
-2.5
 31
0.0
  0
LINE
  5
2485
330
2480
100
AcDbEntity
  8
0
  6
Continuous
 62
     0
370
    18
100
AcDbLine
 10
0.0
 20
0.0
 30
0.0
 11
2.5
 21
0.0
 31
0.0
  0
LINE
  5
2486
330
2480
100
AcDbEntity
  8
0
  6
Continuous
 62
     0
370
    18
100
AcDbLine
 10
0.0
 20
2.5
 30
0.0
 11
0.0
 21
5.0
 31
0.0
  0
LINE
  5
2487
330
2480
100
AcDbEntity
  8
0
  6
Continuous
 62
     0
370
    18
100
AcDbLine
 10
-2.5
 20
0.0
 30
0.0
 11
-5.0
 21
0.0
 31
0.0
  0
LINE
  5
2488
330
2480
100
AcDbEntity
  8
0
  6
Continuous
 62
     0
370
    18
100
AcDbLine
 10
0.0
 20
-2.5
 30
0.0
 11
0.0
 21
-5.0
 31
0.0
  0
LINE
  5
2489
330
2480
100
AcDbEntity
  8
0
  6
Continuous
 62
     0
370
    18
100
AcDbLine
 10
2.5
 20
0.0
 30
0.0
 11
5.0
 21
0.0
 31
0.0
  0
ENDBLK
  5
248A
330
2480
100
AcDbEntity
  8
0
100
AcDbBlockEnd
  0
BLOCK
  5
248D
330
248C
100
AcDbEntity
  8
0
100
AcDbBlockBegin
  2
SW_CENTERMARKSYMBOL_4
 70
     0
 10
0.0
 20
0.0
 30
0.0
  3
SW_CENTERMARKSYMBOL_4
  1

  0
LINE
  5
248E
330
248C
100
AcDbEntity
  8
0
  6
Continuous
 62
     0
370
    18
100
AcDbLine
 10
0.0
 20
0.0
 30
0.0
 11
0.0
 21
2.5
 31
0.0
  0
LINE
  5
248F
330
248C
100
AcDbEntity
  8
0
  6
Continuous
 62
     0
370
    18
100
AcDbLine
 10
0.0
 20
0.0
 30
0.0
 11
-2.5
 21
0.0
 31
0.0
  0
LINE
  5
2490
330
248C
100
AcDbEntity
  8
0
  6
Continuous
 62
     0
370
    18
100
AcDbLine
 10
0.0
 20
0.0
 30
0.0
 11
0.0
 21
-2.5
 31
0.0
  0
LINE
  5
2491
330
248C
100
AcDbEntity
  8
0
  6
Continuous
 62
     0
370
    18
100
AcDbLine
 10
0.0
 20
0.0
 30
0.0
 11
2.5
 21
0.0
 31
0.0
  0
LINE
  5
2492
330
248C
100
AcDbEntity
  8
0
  6
Continuous
 62
     0
370
    18
100
AcDbLine
 10
0.0
 20
5.0
 30
0.0
 11
0.0
 21
7.5
 31
0.0
  0
LINE
  5
2493
330
248C
100
AcDbEntity
  8
0
  6
Continuous
 62
     0
370
    18
100
AcDbLine
 10
-5.0
 20
0.0
 30
0.0
 11
-7.5
 21
0.0
 31
0.0
  0
LINE
  5
2494
330
248C
100
AcDbEntity
  8
0
  6
Continuous
 62
     0
370
    18
100
AcDbLine
 10
0.0
 20
-5.0
 30
0.0
 11
0.0
 21
-7.5
 31
0.0
  0
LINE
  5
2495
330
248C
100
AcDbEntity
  8
0
  6
Continuous
 62
     0
370
    18
100
AcDbLine
 10
5.0
 20
0.0
 30
0.0
 11
7.5
 21
0.0
 31
0.0
  0
ENDBLK
  5
2496
330
248C
100
AcDbEntity
  8
0
100
AcDbBlockEnd
  0
BLOCK
  5
2499
330
2498
100
AcDbEntity
  8
0
100
AcDbBlockBegin
  2
SW_CENTERMARKSYMBOL_5
 70
     0
 10
0.0
 20
0.0
 30
0.0
  3
SW_CENTERMARKSYMBOL_5
  1

  0
LINE
  5
249A
330
2498
100
AcDbEntity
  8
0
  6
Continuous
 62
     0
370
    18
100
AcDbLine
 10
0.0
 20
0.0
 30
0.0
 11
0.0
 21
2.5
 31
0.0
  0
LINE
  5
249B
330
2498
100
AcDbEntity
  8
0
  6
Continuous
 62
     0
370
    18
100
AcDbLine
 10
0.0
 20
0.0
 30
0.0
 11
-2.5
 21
0.0
 31
0.0
  0
LINE
  5
249C
330
2498
100
AcDbEntity
  8
0
  6
Continuous
 62
     0
370
    18
100
AcDbLine
 10
0.0
 20
0.0
 30
0.0
 11
0.0
 21
-2.5
 31
0.0
  0
LINE
  5
249D
330
2498
100
AcDbEntity
  8
0
  6
Continuous
 62
     0
370
    18
100
AcDbLine
 10
0.0
 20
0.0
 30
0.0
 11
2.5
 21
0.0
 31
0.0
  0
LINE
  5
249E
330
2498
100
AcDbEntity
  8
0
  6
Continuous
 62
     0
370
    18
100
AcDbLine
 10
0.0
 20
2.5
 30
0.0
 11
0.0
 21
5.0
 31
0.0
  0
LINE
  5
249F
330
2498
100
AcDbEntity
  8
0
  6
Continuous
 62
     0
370
    18
100
AcDbLine
 10
-2.5
 20
0.0
 30
0.0
 11
-5.0
 21
0.0
 31
0.0
  0
LINE
  5
24A0
330
2498
100
AcDbEntity
  8
0
  6
Continuous
 62
     0
370
    18
100
AcDbLine
 10
0.0
 20
-2.5
 30
0.0
 11
0.0
 21
-5.0
 31
0.0
  0
LINE
  5
24A1
330
2498
100
AcDbEntity
  8
0
  6
Continuous
 62
     0
370
    18
100
AcDbLine
 10
2.5
 20
0.0
 30
0.0
 11
5.0
 21
0.0
 31
0.0
  0
ENDBLK
  5
24A2
330
2498
100
AcDbEntity
  8
0
100
AcDbBlockEnd
  0
BLOCK
  5
4F82
330
4F81
100
AcDbEntity
  8
0
100
AcDbBlockBegin
  2
*D177
 70
     1
 10
0.0
 20
0.0
 30
0.0
  3
*D177
  1

  0
LINE
  5
4F84
330
4F81
100
AcDbEntity
  8
0
 62
     0
370
    -2
100
AcDbLine
 10
545.242307247802
 20
224.3831210163122
 30
0.0
 11
545.242307247802
 21
246.9992110576777
 31
0.0
  0
LINE
  5
4F85
330
4F81
100
AcDbEntity
  8
0
 62
     0
370
    -2
100
AcDbLine
 10
745.2431807720106
 20
224.0875678775976
 30
0.0
 11
745.2431807720106
 21
246.9992110576777
 31
0.0
  0
LINE
  5
4F86
330
4F81
100
AcDbEntity
  8
0
 62
     0
370
    -2
100
AcDbLine
 10
547.742307247802
 20
245.7492110576777
 30
0.0
 11
742.7431807720106
 21
245.7492110576777
 31
0.0
  0
INSERT
  5
4F87
330
4F81
100
AcDbEntity
  8
0
 62
     0
370
    -2
100
AcDbBlockReference
  2
_OPEN
 10
545.242307247802
 20
245.7492110576777
 30
0.0
 41
2.5
 42
2.5
 43
2.5
 50
180.0
  0
INSERT
  5
4F88
330
4F81
100
AcDbEntity
  8
0
 62
     0
370
    -2
100
AcDbBlockReference
  2
_OPEN
 10
745.2431807720106
 20
245.7492110576777
 30
0.0
 41
2.5
 42
2.5
 43
2.5
  0
MTEXT
  5
4F89
330
4F81
100
AcDbEntity
  8
0
  6
Continuous
 62
     0
370
     9
100
AcDbMText
 10
645.2427440099063
 20
247.8817110576777
 30
0.0
 40
3.0
 41
0.0
 46
0.0
 71
     5
 72
     1
  1
3000
 73
     1
 44
1.0
  0
POINT
  5
4F8A
330
4F81
100
AcDbEntity
  8
DEFPOINTS
 62
     0
100
AcDbPoint
 10
545.242307247802
 20
223.7581210163122
 30
0.0
  0
POINT
  5
4F8B
330
4F81
100
AcDbEntity
  8
DEFPOINTS
 62
     0
100
AcDbPoint
 10
745.2431807720106
 20
223.4625678775976
 30
0.0
  0
POINT
  5
4F8C
330
4F81
100
AcDbEntity
  8
DEFPOINTS
 62
     0
100
AcDbPoint
 10
745.2431807720106
 20
245.7492110576777
 30
0.0
  0
ENDBLK
  5
4F83
330
4F81
100
AcDbEntity
  8
0
100
AcDbBlockEnd
  0
BLOCK
  5
4F8E
330
4F8D
100
AcDbEntity
  8
0
100
AcDbBlockBegin
  2
*D178
 70
     1
 10
0.0
 20
0.0
 30
0.0
  3
*D178
  1

  0
LINE
  5
4F90
330
4F8D
100
AcDbEntity
  8
0
 62
     0
370
    -2
100
AcDbLine
 10
544.617307247802
 20
223.7581210163122
 30
0.0
 11
517.5227112030568
 21
223.7581210163122
 31
0.0
  0
LINE
  5
4F91
330
4F8D
100
AcDbEntity
  8
0
 62
     0
370
    -2
100
AcDbLine
 10
544.617307247802
 20
210.7581210163121
 30
0.0
 11
517.5227112030568
 21
210.7581210163121
 31
0.0
  0
LINE
  5
4F92
330
4F8D
100
AcDbEntity
  8
0
 62
     0
370
    -2
100
AcDbLine
 10
518.7727112030568
 20
223.7581210163122
 30
0.0
 11
518.7727112030568
 21
236.0719114449067
 31
0.0
  0
LINE
  5
4F93
330
4F8D
100
AcDbEntity
  8
0
 62
     0
370
    -2
100
AcDbLine
 10
518.7727112030568
 20
223.7581210163122
 30
0.0
 11
518.7727112030568
 21
210.7581210163121
 31
0.0
  0
LINE
  5
4F94
330
4F8D
100
AcDbEntity
  8
0
 62
     0
370
    -2
100
AcDbLine
 10
518.7727112030568
 20
226.2581210163122
 30
0.0
 11
518.7727112030568
 21
228.7581210163122
 31
0.0
  0
LINE
  5
4F95
330
4F8D
100
AcDbEntity
  8
0
 62
     0
370
    -2
100
AcDbLine
 10
518.7727112030568
 20
208.2581210163121
 30
0.0
 11
518.7727112030568
 21
205.7581210163121
 31
0.0
  0
INSERT
  5
4F96
330
4F8D
100
AcDbEntity
  8
0
 62
     0
370
    -2
100
AcDbBlockReference
  2
_OPEN
 10
518.7727112030568
 20
223.7581210163122
 30
0.0
 41
2.5
 42
2.5
 43
2.5
 50
270.0
  0
INSERT
  5
4F97
330
4F8D
100
AcDbEntity
  8
0
 62
     0
370
    -2
100
AcDbBlockReference
  2
_OPEN
 10
518.7727112030568
 20
210.7581210163121
 30
0.0
 41
2.5
 42
2.5
 43
2.5
 50
90.0
  0
MTEXT
  5
4F98
330
4F8D
100
AcDbEntity
  8
0
  6
Continuous
 62
     0
370
     9
100
AcDbMText
 10
516.6402112030569
 20
233.6064114449067
 30
0.0
 40
3.0
 41
0.0
 46
0.0
 71
     5
 72
     1
  1
13
 11
0.0
 21
1.0
 31
0.0
 73
     1
 44
1.0
  0
POINT
  5
4F99
330
4F8D
100
AcDbEntity
  8
DEFPOINTS
 62
     0
100
AcDbPoint
 10
545.242307247802
 20
223.7581210163122
 30
0.0
  0
POINT
  5
5061
330
4F8D
100
AcDbEntity
  8
DEFPOINTS
 62
     0
100
AcDbPoint
 10
545.242307247802
 20
210.7581210163121
 30
0.0
  0
POINT
  5
5062
330
4F8D
100
AcDbEntity
  8
DEFPOINTS
 62
     0
100
AcDbPoint
 10
518.7727112030568
 20
210.7581210163121
 30
0.0
  0
ENDBLK
  5
4F8F
330
4F8D
100
AcDbEntity
  8
0
100
AcDbBlockEnd
  0
BLOCK
  5
4F9B
330
4F9A
100
AcDbEntity
  8
0
100
AcDbBlockBegin
  2
*D179
 70
     1
 10
0.0
 20
0.0
 30
0.0
  3
*D179
  1

  0
LINE
  5
4F9D
330
4F9A
100
AcDbEntity
  8
0
 62
     0
370
    -2
100
AcDbLine
 10
544.617307247802
 20
146.5654665581558
 30
0.0
 11
517.5227112030568
 21
146.5654665581558
 31
0.0
  0
LINE
  5
4F9E
330
4F9A
100
AcDbEntity
  8
0
 62
     0
370
    -2
100
AcDbLine
 10
544.617307247802
 20
140.5654665581555
 30
0.0
 11
517.5227112030568
 21
140.5654665581555
 31
0.0
  0
LINE
  5
4F9F
330
4F9A
100
AcDbEntity
  8
0
 62
     0
370
    -2
100
AcDbLine
 10
518.7727112030568
 20
146.5654665581558
 30
0.0
 11
518.7727112030568
 21
155.456794904144
 31
0.0
  0
LINE
  5
4FA0
330
4F9A
100
AcDbEntity
  8
0
 62
     0
370
    -2
100
AcDbLine
 10
518.7727112030568
 20
146.5654665581558
 30
0.0
 11
518.7727112030568
 21
140.5654665581555
 31
0.0
  0
LINE
  5
4FA1
330
4F9A
100
AcDbEntity
  8
0
 62
     0
370
    -2
100
AcDbLine
 10
518.7727112030568
 20
149.0654665581558
 30
0.0
 11
518.7727112030568
 21
151.5654665581558
 31
0.0
  0
LINE
  5
4FA2
330
4F9A
100
AcDbEntity
  8
0
 62
     0
370
    -2
100
AcDbLine
 10
518.7727112030568
 20
138.0654665581555
 30
0.0
 11
518.7727112030568
 21
135.5654665581555
 31
0.0
  0
INSERT
  5
4FA3
330
4F9A
100
AcDbEntity
  8
0
 62
     0
370
    -2
100
AcDbBlockReference
  2
_OPEN
 10
518.7727112030568
 20
146.5654665581558
 30
0.0
 41
2.5
 42
2.5
 43
2.5
 50
270.0
  0
INSERT
  5
4FA4
330
4F9A
100
AcDbEntity
  8
0
 62
     0
370
    -2
100
AcDbBlockReference
  2
_OPEN
 10
518.7727112030568
 20
140.5654665581555
 30
0.0
 41
2.5
 42
2.5
 43
2.5
 50
90.0
  0
MTEXT
  5
4FA5
330
4F9A
100
AcDbEntity
  8
0
  6
Continuous
 62
     0
370
     9
100
AcDbMText
 10
516.6477112030568
 20
153.981294904144
 30
0.0
 40
3.0
 41
0.0
 46
0.0
 71
     5
 72
     1
  1
6
 11
0.0
 21
1.0
 31
0.0
 73
     1
 44
1.0
  0
POINT
  5
4FA6
330
4F9A
100
AcDbEntity
  8
DEFPOINTS
 62
     0
100
AcDbPoint
 10
545.242307247802
 20
146.5654665581558
 30
0.0
  0
POINT
  5
4FA7
330
4F9A
100
AcDbEntity
  8
DEFPOINTS
 62
     0
100
AcDbPoint
 10
545.242307247802
 20
140.5654665581555
 30
0.0
  0
POINT
  5
4FA8
330
4F9A
100
AcDbEntity
  8
DEFPOINTS
 62
     0
100
AcDbPoint
 10
518.7727112030568
 20
140.5654665581555
 30
0.0
  0
ENDBLK
  5
4F9C
330
4F9A
100
AcDbEntity
  8
0
100
AcDbBlockEnd
  0
BLOCK
  5
4FAA
330
4FA9
100
AcDbEntity
  8
0
100
AcDbBlockBegin
  2
*D180
 70
     1
 10
0.0
 20
0.0
 30
0.0
  3
*D180
  1

  0
LINE
  5
4FAC
330
4FA9
100
AcDbEntity
  8
0
 62
     0
370
    -2
100
AcDbLine
 10
545.242307247802
 20
139.9404665581555
 30
0.0
 11
545.242307247802
 21
111.6924268378569
 31
0.0
  0
LINE
  5
4FAD
330
4FA9
100
AcDbEntity
  8
0
 62
     0
370
    -2
100
AcDbLine
 10
455.5617334317801
 20
141.9404665581558
 30
0.0
 11
455.5617334317801
 21
111.6924268378569
 31
0.0
  0
LINE
  5
4FAE
330
4FA9
100
AcDbEntity
  8
0
 62
     0
370
    -2
100
AcDbLine
 10
542.742307247802
 20
112.9424268378569
 30
0.0
 11
458.0617334317801
 21
112.9424268378569
 31
0.0
  0
INSERT
  5
4FAF
330
4FA9
100
AcDbEntity
  8
0
 62
     0
370
    -2
100
AcDbBlockReference
  2
_OPEN
 10
545.242307247802
 20
112.9424268378569
 30
0.0
 41
2.5
 42
2.5
 43
2.5
  0
INSERT
  5
4FB0
330
4FA9
100
AcDbEntity
  8
0
 62
     0
370
    -2
100
AcDbBlockReference
  2
_OPEN
 10
455.5617334317801
 20
112.9424268378569
 30
0.0
 41
2.5
 42
2.5
 43
2.5
 50
180.0
  0
MTEXT
  5
4FB1
330
4FA9
100
AcDbEntity
  8
0
  6
Continuous
 62
     0
370
     9
100
AcDbMText
 10
500.4020203397911
 20
115.4266240368065
 30
0.0
 40
3.0
 41
0.0
 46
0.0
 71
     5
 72
     1
  1
(300)
 73
     1
 44
1.0
  0
POINT
  5
4FB2
330
4FA9
100
AcDbEntity
  8
DEFPOINTS
 62
     0
100
AcDbPoint
 10
545.242307247802
 20
140.5654665581555
 30
0.0
  0
POINT
  5
4FB3
330
4FA9
100
AcDbEntity
  8
DEFPOINTS
 62
     0
100
AcDbPoint
 10
455.5617334317801
 20
142.5654665581558
 30
0.0
  0
POINT
  5
4FB4
330
4FA9
100
AcDbEntity
  8
DEFPOINTS
 62
     0
100
AcDbPoint
 10
455.5617334317801
 20
112.9424268378569
 30
0.0
  0
ENDBLK
  5
4FAB
330
4FA9
100
AcDbEntity
  8
0
100
AcDbBlockEnd
  0
BLOCK
  5
4FB6
330
4FB5
100
AcDbEntity
  8
0
100
AcDbBlockBegin
  2
*D181
 70
     1
 10
0.0
 20
0.0
 30
0.0
  3
*D181
  1

  0
LINE
  5
4FB8
330
4FB5
100
AcDbEntity
  8
0
 62
     0
370
    -2
100
AcDbLine
 10
745.2431807720106
 20
139.6449134194409
 30
0.0
 11
745.2431807720106
 21
110.442426837857
 31
0.0
  0
LINE
  5
4FB9
330
4FB5
100
AcDbEntity
  8
0
 62
     0
370
    -2
100
AcDbLine
 10
834.9237545880326
 20
141.6449134194411
 30
0.0
 11
834.9237545880326
 21
110.442426837857
 31
0.0
  0
LINE
  5
4FBA
330
4FB5
100
AcDbEntity
  8
0
 62
     0
370
    -2
100
AcDbLine
 10
747.7431807720106
 20
111.692426837857
 30
0.0
 11
832.4237545880326
 21
111.692426837857
 31
0.0
  0
INSERT
  5
4FBB
330
4FB5
100
AcDbEntity
  8
0
 62
     0
370
    -2
100
AcDbBlockReference
  2
_OPEN
 10
745.2431807720106
 20
111.692426837857
 30
0.0
 41
2.5
 42
2.5
 43
2.5
 50
180.0
  0
INSERT
  5
4FBC
330
4FB5
100
AcDbEntity
  8
0
 62
     0
370
    -2
100
AcDbBlockReference
  2
_OPEN
 10
834.9237545880326
 20
111.692426837857
 30
0.0
 41
2.5
 42
2.5
 43
2.5
 50
360.0
  0
MTEXT
  5
4FBD
330
4FB5
100
AcDbEntity
  8
0
  6
Continuous
 62
     0
370
     9
100
AcDbMText
 10
790.0834676800216
 20
114.1766240368066
 30
0.0
 40
3.0
 41
0.0
 46
0.0
 71
     5
 72
     1
  1
(300)
 73
     1
 44
1.0
  0
POINT
  5
4FBE
330
4FB5
100
AcDbEntity
  8
DEFPOINTS
 62
     0
100
AcDbPoint
 10
745.2431807720106
 20
140.2699134194409
 30
0.0
  0
POINT
  5
4FBF
330
4FB5
100
AcDbEntity
  8
DEFPOINTS
 62
     0
100
AcDbPoint
 10
834.9237545880326
 20
142.2699134194411
 30
0.0
  0
POINT
  5
4FC0
330
4FB5
100
AcDbEntity
  8
DEFPOINTS
 62
     0
100
AcDbPoint
 10
834.9237545880326
 20
111.692426837857
 30
0.0
  0
ENDBLK
  5
4FB7
330
4FB5
100
AcDbEntity
  8
0
100
AcDbBlockEnd
  0
ENDSEC
  0
SECTION
  2
ENTITIES
  0
MTEXT
  5
156
330
A
100
AcDbEntity
  8
レイヤー_1
 62
     7
100
AcDbMText
 10
176.2125
 20
32.789434
 30
0.0
 40
2.362351
 41
0.0
 46
0.0
 71
     1
 72
     2
  1
\fMSGothic|b0|i0|c128;\H2.3624;\C7;
  7
STD
 73
     1
 44
1.0
  0
MTEXT
  5
154
330
A
100
AcDbEntity
  8
レイヤー_1
 62
     7
100
AcDbMText
 10
182.5625
 20
32.789434
 30
0.0
 40
2.362351
 41
0.0
 46
0.0
 71
     1
 72
     2
  1
\fMSGothic|b0|i0|c128;\H2.3624;\C7;
  7
STD
 73
     1
 44
1.0
  0
MTEXT
  5
152
330
A
100
AcDbEntity
  8
レイヤー_1
 62
     7
100
AcDbMText
 10
187.325
 20
32.789434
 30
0.0
 40
2.362351
 41
0.0
 46
0.0
 71
     1
 72
     2
  1
\fMSGothic|b0|i0|c128;\H2.3624;\C7;
  7
STD
 73
     1
 44
1.0
  0
MTEXT
  5
150
330
A
100
AcDbEntity
  8
レイヤー_1
 62
     7
100
AcDbMText
 10
193.675
 20
32.789434
 30
0.0
 40
2.362351
 41
0.0
 46
0.0
 71
     1
 72
     2
  1
\fMSGothic|b0|i0|c128;\H2.3624;\C7;
  7
STD
 73
     1
 44
1.0
  0
MTEXT
  5
14F
330
A
100
AcDbEntity
  8
レイヤー_1
 62
     7
100
AcDbMText
 10
196.85
 20
32.789434
 30
0.0
 40
2.362351
 41
0.0
 46
0.0
 71
     1
 72
     2
  1
\fMSGothic|b0|i0|c128;\H2.3624;\C7; 
  7
STD
 73
     1
 44
1.0
  0
MTEXT
  5
14D
330
A
100
AcDbEntity
  8
レイヤー_1
 62
     7
100
AcDbMText
 10
200.025
 20
32.789434
 30
0.0
 40
2.362351
 41
0.0
 46
0.0
 71
     1
 72
     2
  1
\fMSGothic|b0|i0|c128;\H2.3624;\C7;
  7
STD
 73
     1
 44
1.0
  0
MTEXT
  5
142
330
A
100
AcDbEntity
  8
レイヤー_1
 62
     7
100
AcDbMText
 10
46.302083
 20
283.123066
 30
0.0
 40
2.362351
 41
0.0
 46
0.0
 71
     1
 72
     2
  1
\fMSGothic|b0|i0|c128;\H2.3624;\C7;
  7
STD
 11
-1.0
 21
0.0
 31
0.0
 73
     1
 44
1.0
  0
MTEXT
  5
13E
330
A
100
AcDbEntity
  8
レイヤー_1
 62
     7
100
AcDbMText
 10
29.104167
 20
14.004018
 30
0.0
 40
2.362351
 41
0.0
 46
0.0
 71
     1
 72
     2
  1
\fMSGothic|b0|i0|c128;\H2.3624;\C7; 
  7
STD
 73
     1
 44
1.0
  0
MTEXT
  5
13B
330
A
100
AcDbEntity
  8
レイヤー_1
 62
     7
100
AcDbMText
 10
20.902083
 20
33.583184
 30
0.0
 40
2.362351
 41
0.0
 46
0.0
 71
     1
 72
     2
  1
\fMSGothic|b0|i0|c128;\H2.3624;\C7;
  7
STD
 73
     1
 44
1.0
  0
MTEXT
  5
13A
330
A
100
AcDbEntity
  8
レイヤー_1
 62
     7
100
AcDbMText
 10
17.991667
 20
29.349851
 30
0.0
 40
2.362351
 41
0.0
 46
0.0
 71
     1
 72
     2
  1
\fMSGothic|b0|i0|c128;\H2.3624;\C7;
  7
STD
 73
     1
 44
1.0
  0
MTEXT
  5
139
330
A
100
AcDbEntity
  8
レイヤー_1
 62
     7
100
AcDbMText
 10
17.727083
 20
25.116518
 30
0.0
 40
2.362351
 41
0.0
 46
0.0
 71
     1
 72
     2
  1
\fMSGothic|b0|i0|c128;\H2.3624;\C7;
  7
STD
 73
     1
 44
1.0
  0
MTEXT
  5
138
330
A
100
AcDbEntity
  8
レイヤー_1
 62
     7
100
AcDbMText
 10
20.902083
 20
25.116518
 30
0.0
 40
2.362351
 41
0.0
 46
0.0
 71
     1
 72
     2
  1
\fMSGothic|b0|i0|c128;\H2.3624;\C7;
  7
STD
 73
     1
 44
1.0
  0
MTEXT
  5
137
330
A
100
AcDbEntity
  8
レイヤー_1
 62
     7
100
AcDbMText
 10
17.991667
 20
20.883184
 30
0.0
 40
2.362351
 41
0.0
 46
0.0
 71
     1
 72
     2
  1
\fMSGothic|b0|i0|c128;\H2.3624;\C7;
  7
STD
 73
     1
 44
1.0
  0
MTEXT
  5
11B
330
A
100
AcDbEntity
  8
レイヤー_1
 62
     7
100
AcDbMText
 10
43.920833
 20
14.004018
 30
0.0
 40
2.362351
 41
0.0
 46
0.0
 71
     1
 72
     2
  1
\fMSGothic|b0|i0|c128;\H2.3624;\C7;
  7
STD
 73
     1
 44
1.0
  0
MTEXT
  5
114
330
A
100
AcDbEntity
  8
レイヤー_1
 62
     7
100
AcDbMText
 10
153.19375
 20
25.645684
 30
0.0
 40
2.362351
 41
0.0
 46
0.0
 71
     1
 72
     2
  1
\fMSGothic|b0|i0|c128;\H2.3624;\C7; 
  7
STD
 73
     1
 44
1.0
  0
MTEXT
  5
10F
330
A
100
AcDbEntity
  8
レイヤー_1
 62
     7
100
AcDbMText
 10
153.19375
 20
33.054018
 30
0.0
 40
2.362351
 41
0.0
 46
0.0
 71
     1
 72
     2
  1
\fMSGothic|b0|i0|c128;\H2.3624;\C7; 
  7
STD
 73
     1
 44
1.0
  0
MTEXT
  5
10C
330
A
100
AcDbEntity
  8
レイヤー_1
 62
     7
100
AcDbMText
 10
164.30625
 20
17.708184
 30
0.0
 40
2.362351
 41
0.0
 46
0.0
 71
     1
 72
     2
  1
\fMSGothic|b0|i0|c128;\H2.3624;\C7; 
  7
STD
 73
     1
 44
1.0
  0
MTEXT
  5
109
330
A
100
AcDbEntity
  8
レイヤー_1
 62
     7
100
AcDbMText
 10
164.30625
 20
25.645684
 30
0.0
 40
2.362351
 41
0.0
 46
0.0
 71
     1
 72
     2
  1
\fMSGothic|b0|i0|c128;\H2.3624;\C7; 
  7
STD
 73
     1
 44
1.0
  0
MTEXT
  5
106
330
A
100
AcDbEntity
  8
レイヤー_1
 62
     7
100
AcDbMText
 10
175.154167
 20
25.910268
 30
0.0
 40
2.362351
 41
0.0
 46
0.0
 71
     1
 72
     2
  1
\fMSGothic|b0|i0|c128;\H2.3624;\C7; 
  7
STD
 73
     1
 44
1.0
  0
MTEXT
  5
103
330
A
100
AcDbEntity
  8
レイヤー_1
 62
     7
100
AcDbMText
 10
175.41875
 20
17.708184
 30
0.0
 40
2.362351
 41
0.0
 46
0.0
 71
     1
 72
     2
  1
\fMSGothic|b0|i0|c128;\H2.3624;\C7; 
  7
STD
 73
     1
 44
1.0
  0
MTEXT
  5
FE
330
A
100
AcDbEntity
  8
レイヤー_1
 62
     7
100
AcDbMText
 10
185.7375
 20
26.704018
 30
0.0
 40
2.362351
 41
0.0
 46
0.0
 71
     1
 72
     2
  1
\fMSGothic|b0|i0|c128;\H2.3624;\C7;
  7
STD
 73
     1
 44
1.0
  0
MTEXT
  5
FB
330
A
100
AcDbEntity
  8
レイヤー_1
 62
     7
100
AcDbMText
 10
153.19375
 20
17.708184
 30
0.0
 40
2.362351
 41
0.0
 46
0.0
 71
     1
 72
     2
  1
\fMSGothic|b0|i0|c128;\H2.3624;\C7; 
  7
STD
 73
     1
 44
1.0
  0
MTEXT
  5
F6
330
A
100
AcDbEntity
  8
レイヤー_1
 62
     7
100
AcDbMText
 10
217.4875
 20
20.618601
 30
0.0
 40
2.362351
 41
0.0
 46
0.0
 71
     1
 72
     2
  1
\fMSGothic|b0|i0|c128;\H2.3624;\C7;
  7
STD
 73
     1
 44
1.0
  0
MTEXT
  5
F4
330
A
100
AcDbEntity
  8
レイヤー_1
 62
     7
100
AcDbMText
 10
220.6625
 20
24.851934
 30
0.0
 40
2.362351
 41
0.0
 46
0.0
 71
     1
 72
     2
  1
\fMSGothic|b0|i0|c128;\H2.3624;\C7;
  7
STD
 73
     1
 44
1.0
  0
MTEXT
  5
F3
330
A
100
AcDbEntity
  8
レイヤー_1
 62
     7
100
AcDbMText
 10
217.752083
 20
20.618601
 30
0.0
 40
2.362351
 41
0.0
 46
0.0
 71
     1
 72
     2
  1
\fMSGothic|b0|i0|c128;\H2.3624;\C7;
  7
STD
 73
     1
 44
1.0
  0
MTEXT
  5
F2
330
A
100
AcDbEntity
  8
レイヤー_1
 62
     7
100
AcDbMText
 10
220.927083
 20
20.618601
 30
0.0
 40
2.362351
 41
0.0
 46
0.0
 71
     1
 72
     2
  1
\fMSGothic|b0|i0|c128;\H2.3624;\C7;
  7
STD
 73
     1
 44
1.0
  0
MTEXT
  5
F1
330
A
100
AcDbEntity
  8
レイヤー_1
 62
     7
100
AcDbMText
 10
217.4875
 20
16.385268
 30
0.0
 40
2.362351
 41
0.0
 46
0.0
 71
     1
 72
     2
  1
\fMSGothic|b0|i0|c128;\H2.3624;\C7;
  7
STD
 73
     1
 44
1.0
  0
MTEXT
  5
E1
330
A
100
AcDbEntity
  8
レイヤー_1
 62
     7
100
AcDbMText
 10
217.4875
 20
20.618601
 30
0.0
 40
2.362351
 41
0.0
 46
0.0
 71
     1
 72
     2
  1
\fMSGothic|b0|i0|c128;\H2.3624;\C7;
  7
STD
 73
     1
 44
1.0
  0
LWPOLYLINE
  5
29F
330
A
100
AcDbEntity
  8
999-OFF
 62
     7
100
AcDbPolyline
 90
        4
 70
     1
 43
0.0
 10
434.4250200184738
 20
7.087207260636177
 10
434.4250200184738
 20
304.0872072606362
 10
854.4250200184738
 20
304.0872072606362
 10
854.4250200184738
 20
7.087207260636177
  0
LINE
  5
2C1
330
A
100
AcDbEntity
  8
998-図枠
 62
     7
100
AcDbLine
 10
844.4250200184738
 20
294.0872072606362
 30
0.0
 11
844.4250200184738
 21
17.08720726063618
 31
0.0
  0
LINE
  5
2C3
330
A
100
AcDbEntity
  8
998-図枠
  6
Continuous
 62
     7
100
AcDbLine
 10
854.4250200184738
 20
155.5872072606362
 30
0.0
 11
839.4250200184738
 21
155.5872072606362
 31
0.0
  0
LINE
  5
2C4
330
A
100
AcDbEntity
  8
998-図枠
 62
     7
100
AcDbLine
 10
444.4250200184738
 20
17.08720726063618
 30
0.0
 11
844.4250200184738
 21
17.08720726063618
 31
0.0
  0
LINE
  5
2C5
330
A
100
AcDbEntity
  8
998-図枠
  6
Continuous
 62
     7
100
AcDbLine
 10
494.4250200184738
 20
294.0872072606362
 30
0.0
 11
494.4250200184738
 21
304.0872072606362
 31
0.0
  0
LINE
  5
2C6
330
A
100
AcDbEntity
  8
998-図枠
  6
Continuous
 62
     7
100
AcDbLine
 10
494.4250200184738
 20
17.08720726063618
 30
0.0
 11
494.4250200184738
 21
7.087207260636177
 31
0.0
  0
LINE
  5
2C7
330
A
100
AcDbEntity
  8
998-図枠
  6
Continuous
 62
     7
100
AcDbLine
 10
544.4250200184738
 20
294.0872072606362
 30
0.0
 11
544.4250200184738
 21
304.0872072606362
 31
0.0
  0
LINE
  5
2C8
330
A
100
AcDbEntity
  8
998-図枠
  6
Continuous
 62
     7
100
AcDbLine
 10
544.4250200184738
 20
17.08720726063618
 30
0.0
 11
544.4250200184738
 21
7.087207260636177
 31
0.0
  0
LINE
  5
2C9
330
A
100
AcDbEntity
  8
998-図枠
  6
Continuous
 62
     7
100
AcDbLine
 10
594.4250200184738
 20
294.0872072606362
 30
0.0
 11
594.4250200184738
 21
304.0872072606362
 31
0.0
  0
LINE
  5
2CA
330
A
100
AcDbEntity
  8
998-図枠
  6
Continuous
 62
     7
100
AcDbLine
 10
594.4250200184738
 20
17.08720726063618
 30
0.0
 11
594.4250200184738
 21
7.087207260636177
 31
0.0
  0
LINE
  5
2CD
330
A
100
AcDbEntity
  8
998-図枠
  6
Continuous
 62
     7
100
AcDbLine
 10
644.4250200184738
 20
289.0872072606362
 30
0.0
 11
644.4250200184738
 21
304.0872072606362
 31
0.0
  0
LINE
  5
2CE
330
A
100
AcDbEntity
  8
998-図枠
  6
Continuous
 62
     7
100
AcDbLine
 10
644.4250200184738
 20
17.08720726063618
 30
0.0
 11
644.4250200184738
 21
7.087207260636177
 31
0.0
  0
LINE
  5
2CF
330
A
100
AcDbEntity
  8
998-図枠
 62
     7
100
AcDbLine
 10
844.4250200184738
 20
294.0872072606362
 30
0.0
 11
444.4250200184738
 21
294.0872072606362
 31
0.0
  0
LINE
  5
2D0
330
A
100
AcDbEntity
  8
998-図枠
  6
Continuous
 62
     7
100
AcDbLine
 10
694.4250200184738
 20
294.0872072606362
 30
0.0
 11
694.4250200184738
 21
304.0872072606362
 31
0.0
  0
LINE
  5
2D1
330
A
100
AcDbEntity
  8
998-図枠
 62
     7
100
AcDbLine
 10
444.4250200184738
 20
294.0872072606362
 30
0.0
 11
444.4250200184738
 21
17.08720726063618
 31
0.0
  0
LINE
  5
2D2
330
A
100
AcDbEntity
  8
998-図枠
  6
Continuous
 62
     7
100
AcDbLine
 10
694.4250200184738
 20
17.08720726063618
 30
0.0
 11
694.4250200184738
 21
7.087207260636177
 31
0.0
  0
LINE
  5
2D3
330
A
100
AcDbEntity
  8
998-図枠
  6
Continuous
 62
     7
100
AcDbLine
 10
744.4250200184738
 20
294.0872072606362
 30
0.0
 11
744.4250200184738
 21
304.0872072606362
 31
0.0
  0
LINE
  5
2D4
330
A
100
AcDbEntity
  8
998-図枠
  6
Continuous
 62
     7
100
AcDbLine
 10
744.4238054633738
 20
17.08720726063618
 30
0.0
 11
744.4238054633738
 21
7.087207260636177
 31
0.0
  0
LINE
  5
2D5
330
A
100
AcDbEntity
  8
998-図枠
  6
Continuous
 62
     7
100
AcDbLine
 10
794.4250200184738
 20
294.0872072606362
 30
0.0
 11
794.4250200184738
 21
304.0872072606362
 31
0.0
  0
LINE
  5
2D6
330
A
100
AcDbEntity
  8
998-図枠
  6
Continuous
 62
     7
100
AcDbLine
 10
794.4289351969738
 20
17.08720726063618
 30
0.0
 11
794.4289351969738
 21
7.087207260636177
 31
0.0
  0
LINE
  5
2D7
330
A
100
AcDbEntity
  8
998-図枠
  6
Continuous
 62
     7
100
AcDbLine
 10
844.4250200184738
 20
255.5872072606362
 30
0.0
 11
854.4250200184738
 21
255.5872072606362
 31
0.0
  0
LINE
  5
2D8
330
A
100
AcDbEntity
  8
998-図枠
  6
Continuous
 62
     7
100
AcDbLine
 10
444.4250200184738
 20
255.5872072606362
 30
0.0
 11
434.4250200184738
 21
255.5872072606362
 31
0.0
  0
LINE
  5
2D9
330
A
100
AcDbEntity
  8
998-図枠
  6
Continuous
 62
     7
100
AcDbLine
 10
844.4250200184738
 20
205.5872072606362
 30
0.0
 11
854.4250200184738
 21
205.5872072606362
 31
0.0
  0
LINE
  5
2DA
330
A
100
AcDbEntity
  8
998-図枠
  6
Continuous
 62
     7
100
AcDbLine
 10
444.4250200184738
 20
205.5872072606362
 30
0.0
 11
434.4250200184738
 21
205.5872072606362
 31
0.0
  0
LINE
  5
2DB
330
A
100
AcDbEntity
  8
998-図枠
  6
Continuous
 62
     7
100
AcDbLine
 10
449.4250200184738
 20
155.5872072606362
 30
0.0
 11
434.4250200184738
 21
155.5872072606362
 31
0.0
  0
LINE
  5
2DC
330
A
100
AcDbEntity
  8
998-図枠
  6
Continuous
 62
     7
100
AcDbLine
 10
844.4250200184738
 20
105.5872072606362
 30
0.0
 11
854.4250200184738
 21
105.5872072606362
 31
0.0
  0
LINE
  5
2DD
330
A
100
AcDbEntity
  8
998-図枠
  6
Continuous
 62
     7
100
AcDbLine
 10
444.4250200184738
 20
105.5872072606362
 30
0.0
 11
434.4250200184738
 21
105.5872072606362
 31
0.0
  0
LINE
  5
2DE
330
A
100
AcDbEntity
  8
998-図枠
  6
Continuous
 62
     7
100
AcDbLine
 10
844.4250200184738
 20
55.58720726063618
 30
0.0
 11
854.4250200184738
 21
55.58720726063618
 31
0.0
  0
LINE
  5
2DF
330
A
100
AcDbEntity
  8
998-図枠
  6
Continuous
 62
     7
100
AcDbLine
 10
444.4250200184738
 20
55.58720726063618
 30
0.0
 11
434.4250200184738
 21
55.58720726063618
 31
0.0
  0
MTEXT
  5
300
330
A
100
AcDbEntity
  8
998-図枠
  6
Continuous
 62
     7
100
AcDbMText
 10
849.0387263792737
 20
32.64022530383617
 30
0.0
 40
3.5
 41
0.0
 46
0.0
 71
     2
 72
     1
  1
F
  7
SLDTEXTSTYLE0
 73
     1
 44
1.0
  0
MTEXT
  5
301
330
A
100
AcDbEntity
  8
998-図枠
  6
Continuous
 62
     7
100
AcDbMText
 10
847.7731389288739
 20
282.0525263980362
 30
0.0
 40
3.5
 41
0.0
 46
0.0
 71
     2
 72
     1
  1
A
  7
SLDTEXTSTYLE0
 73
     1
 44
1.0
  0
MTEXT
  5
302
330
A
100
AcDbEntity
  8
998-図枠
  6
Continuous
 62
     7
100
AcDbMText
 10
848.4193628529739
 20
182.8404066821362
 30
0.0
 40
3.5
 41
0.0
 46
0.0
 71
     2
 72
     1
  1
C
  7
SLDTEXTSTYLE0
 73
     1
 44
1.0
  0
MTEXT
  5
303
330
A
100
AcDbEntity
  8
998-図枠
  6
Continuous
 62
     7
100
AcDbMText
 10
848.9455782069738
 20
82.84040668213618
 30
0.0
 40
3.5
 41
0.0
 46
0.0
 71
     2
 72
     1
  1
E
  7
SLDTEXTSTYLE0
 73
     1
 44
1.0
  0
MTEXT
  5
304
330
A
100
AcDbEntity
  8
998-図枠
  6
Continuous
 62
     7
100
AcDbMText
 10
847.8724878529739
 20
232.8404066821362
 30
0.0
 40
3.5
 41
0.0
 46
0.0
 71
     2
 72
     1
  1
B
  7
SLDTEXTSTYLE0
 73
     1
 44
1.0
  0
MTEXT
  5
305
330
A
100
AcDbEntity
  8
998-図枠
  6
Continuous
 62
     7
100
AcDbMText
 10
848.4157169411739
 20
132.8404066821362
 30
0.0
 40
3.5
 41
0.0
 46
0.0
 71
     2
 72
     1
  1
D
  7
SLDTEXTSTYLE0
 73
     1
 44
1.0
  0
MTEXT
  5
306
330
A
100
AcDbEntity
  8
998-図枠
  6
Continuous
 62
     7
100
AcDbMText
 10
520.7149142979738
 20
299.0830088460361
 30
0.0
 40
3.5
 41
0.0
 46
0.0
 71
     2
 72
     1
  1
2
  7
SLDTEXTSTYLE0
 73
     1
 44
1.0
  0
MTEXT
  5
307
330
A
100
AcDbEntity
  8
998-図枠
  6
Continuous
 62
     7
100
AcDbMText
 10
465.8743998655738
 20
299.0830088460361
 30
0.0
 40
3.5
 41
0.0
 46
0.0
 71
     2
 72
     1
  1
1
  7
SLDTEXTSTYLE0
 73
     1
 44
1.0
  0
MTEXT
  5
308
330
A
100
AcDbEntity
  8
998-図枠
  6
Continuous
 62
     7
100
AcDbMText
 10
770.8668622020739
 20
299.0830088460361
 30
0.0
 40
3.5
 41
0.0
 46
0.0
 71
     2
 72
     1
  1
7
  7
SLDTEXTSTYLE0
 73
     1
 44
1.0
  0
MTEXT
  5
309
330
A
100
AcDbEntity
  8
998-図枠
  6
Continuous
 62
     7
100
AcDbMText
 10
670.4961932996739
 20
299.0830088460361
 30
0.0
 40
3.5
 41
0.0
 46
0.0
 71
     2
 72
     1
  1
5
  7
SLDTEXTSTYLE0
 73
     1
 44
1.0
  0
MTEXT
  5
30A
330
A
100
AcDbEntity
  8
998-図枠
  6
Continuous
 62
     7
100
AcDbMText
 10
570.8809126665737
 20
299.0830088460361
 30
0.0
 40
3.5
 41
0.0
 46
0.0
 71
     2
 72
     1
  1
3
  7
SLDTEXTSTYLE0
 73
     1
 44
1.0
  0
MTEXT
  5
30B
330
A
100
AcDbEntity
  8
998-図枠
  6
Continuous
 62
     7
100
AcDbMText
 10
825.8383030788738
 20
299.0166893073361
 30
0.0
 40
3.5
 41
0.0
 46
0.0
 71
     2
 72
     1
  1
8
  7
SLDTEXTSTYLE0
 73
     1
 44
1.0
  0
MTEXT
  5
30C
330
A
100
AcDbEntity
  8
998-図枠
  6
Continuous
 62
     7
100
AcDbMText
 10
720.7990526096738
 20
299.0830088460361
 30
0.0
 40
3.5
 41
0.0
 46
0.0
 71
     2
 72
     1
  1
6
  7
SLDTEXTSTYLE0
 73
     1
 44
1.0
  0
MTEXT
  5
30D
330
A
100
AcDbEntity
  8
998-図枠
  6
Continuous
 62
     7
100
AcDbMText
 10
620.7817348991739
 20
299.0830088460361
 30
0.0
 40
3.5
 41
0.0
 46
0.0
 71
     2
 72
     1
  1
4
  7
SLDTEXTSTYLE0
 73
     1
 44
1.0
  0
MTEXT
  5
30E
330
A
100
AcDbEntity
  8
998-図枠
  6
Continuous
 62
     7
100
AcDbMText
 10
440.6070083028738
 20
132.8404066821362
 30
0.0
 40
3.5
 41
0.0
 46
0.0
 71
     2
 72
     1
  1
D
  7
SLDTEXTSTYLE0
 73
     1
 44
1.0
  0
MTEXT
  5
30F
330
A
100
AcDbEntity
  8
998-図枠
  6
Continuous
 62
     7
100
AcDbMText
 10
440.6106542146738
 20
182.8404066821362
 30
0.0
 40
3.5
 41
0.0
 46
0.0
 71
     2
 72
     1
  1
C
  7
SLDTEXTSTYLE0
 73
     1
 44
1.0
  0
MTEXT
  5
310
330
A
100
AcDbEntity
  8
998-図枠
  6
Continuous
 62
     7
100
AcDbMText
 10
440.0637792146738
 20
232.9618673392361
 30
0.0
 40
3.5
 41
0.0
 46
0.0
 71
     2
 72
     1
  1
B
  7
SLDTEXTSTYLE0
 73
     1
 44
1.0
  0
MTEXT
  5
311
330
A
100
AcDbEntity
  8
998-図枠
  6
Continuous
 62
     7
100
AcDbMText
 10
440.6531889357739
 20
82.84040668213618
 30
0.0
 40
3.5
 41
0.0
 46
0.0
 71
     2
 72
     1
  1
E
  7
SLDTEXTSTYLE0
 73
     1
 44
1.0
  0
MTEXT
  5
312
330
A
100
AcDbEntity
  8
998-図枠
  6
Continuous
 62
     7
100
AcDbMText
 10
824.544015381674
 20
15.41936089403618
 30
0.0
 40
3.5
 41
0.0
 46
0.0
 71
     2
 72
     1
  1
8
  7
SLDTEXTSTYLE0
 73
     1
 44
1.0
  0
MTEXT
  5
313
330
A
100
AcDbEntity
  8
998-図枠
  6
Continuous
 62
     7
100
AcDbMText
 10
569.5004820713739
 20
15.48568043273618
 30
0.0
 40
3.5
 41
0.0
 46
0.0
 71
     2
 72
     1
  1
3
  7
SLDTEXTSTYLE0
 73
     1
 44
1.0
  0
MTEXT
  5
314
330
A
100
AcDbEntity
  8
998-図枠
  6
Continuous
 62
     7
100
AcDbMText
 10
619.404967957074
 20
15.48568060743618
 30
0.0
 40
3.5
 41
0.0
 46
0.0
 71
     2
 72
     1
  1
4
  7
SLDTEXTSTYLE0
 73
     1
 44
1.0
  0
MTEXT
  5
315
330
A
100
AcDbEntity
  8
998-図枠
  6
Continuous
 62
     7
100
AcDbMText
 10
669.4143863058739
 20
15.48568043273618
 30
0.0
 40
3.5
 41
0.0
 46
0.0
 71
     2
 72
     1
  1
5
  7
SLDTEXTSTYLE0
 73
     1
 44
1.0
  0
MTEXT
  5
316
330
A
100
AcDbEntity
  8
998-図枠
  6
Continuous
 62
     7
100
AcDbMText
 10
719.422285667474
 20
15.48568043273618
 30
0.0
 40
3.5
 41
0.0
 46
0.0
 71
     2
 72
     1
  1
6
  7
SLDTEXTSTYLE0
 73
     1
 44
1.0
  0
MTEXT
  5
317
330
A
100
AcDbEntity
  8
998-図枠
  6
Continuous
 62
     7
100
AcDbMText
 10
769.418336044874
 20
15.48568043273618
 30
0.0
 40
3.5
 41
0.0
 46
0.0
 71
     2
 72
     1
  1
7
  7
SLDTEXTSTYLE0
 73
     1
 44
1.0
  0
MTEXT
  5
318
330
A
100
AcDbEntity
  8
998-図枠
  6
Continuous
 62
     7
100
AcDbMText
 10
439.9644302904738
 20
282.0548267218363
 30
0.0
 40
3.5
 41
0.0
 46
0.0
 71
     2
 72
     1
  1
A
  7
SLDTEXTSTYLE0
 73
     1
 44
1.0
  0
MTEXT
  5
319
330
A
100
AcDbEntity
  8
998-図枠
  6
Continuous
 62
     7
100
AcDbMText
 10
519.4092214236739
 20
15.48568043273618
 30
0.0
 40
3.5
 41
0.0
 46
0.0
 71
     2
 72
     1
  1
2
  7
SLDTEXTSTYLE0
 73
     1
 44
1.0
  0
MTEXT
  5
31A
330
A
100
AcDbEntity
  8
998-図枠
  6
Continuous
 62
     7
100
AcDbMText
 10
464.4976329233739
 20
15.48568043273618
 30
0.0
 40
3.5
 41
0.0
 46
0.0
 71
     2
 72
     1
  1
1
  7
SLDTEXTSTYLE0
 73
     1
 44
1.0
  0
MTEXT
  5
31B
330
A
100
AcDbEntity
  8
998-図枠
  6
Continuous
 62
     7
100
AcDbMText
 10
440.6471125048738
 20
33.61610123163618
 30
0.0
 40
3.5
 41
0.0
 46
0.0
 71
     2
 72
     1
  1
F
  7
SLDTEXTSTYLE0
 73
     1
 44
1.0
  0
MTEXT
  5
4B2D
330
A
100
AcDbEntity
  8
997-図枠_文字
  6
Continuous
 62
     7
100
AcDbMText
 10
812.1557035075743
 20
84.3362121918666
 30
0.0
 40
3.0
 41
0.0
 46
3.408
 71
     1
 72
     1
  1
{コード長：約0.3m}
 73
     1
 44
1.0
  0
MTEXT
  5
4CF5
330
A
100
AcDbEntity
  8
1
  6
Continuous
 62
     7
100
AcDbMText
 10
449.5998580032257
 20
280.4536297367245
 30
0.0
 40
3.5
 41
0.0
 46
0.0
 71
     2
 72
     1
  1
1
  7
ＭＳ_Ｐゴシック
 73
     1
 44
1.0
  0
LINE
  5
4CF6
330
A
100
AcDbEntity
  8
1
 62
     7
100
AcDbLine
 10
454.4250200184738
 20
294.0872072606362
 30
0.0
 11
454.4250200184738
 21
254.0872072606362
 31
0.0
  0
LINE
  5
4CF7
330
A
100
AcDbEntity
  8
1
 62
     0
100
AcDbLine
 10
494.4250200184738
 20
294.0872072606362
 30
0.0
 11
494.4250200184738
 21
254.0872072606362
 31
0.0
  0
LINE
  5
4CF8
330
A
100
AcDbEntity
  8
1
 62
     0
100
AcDbLine
 10
506.4344811358828
 20
294.0872072606362
 30
0.0
 11
506.4344811358828
 21
254.0872072606362
 31
0.0
  0
LINE
  5
4CF9
330
A
100
AcDbEntity
  8
1
 62
     0
100
AcDbLine
 10
544.4250200184738
 20
294.0872072606362
 30
0.0
 11
544.4250200184738
 21
254.0872072606362
 31
0.0
  0
LINE
  5
4CFA
330
A
100
AcDbEntity
  8
1
 62
     7
100
AcDbLine
 10
544.4250200184738
 20
284.0872072606362
 30
0.0
 11
444.4250200184738
 21
284.0872072606362
 31
0.0
  0
LINE
  5
4CFB
330
A
100
AcDbEntity
  8
1
 62
     7
100
AcDbLine
 10
544.4250200184738
 20
274.0872072606362
 30
0.0
 11
444.4250200184738
 21
274.0872072606362
 31
0.0
  0
LINE
  5
4CFC
330
A
100
AcDbEntity
  8
1
 62
     7
100
AcDbLine
 10
544.4250200184738
 20
264.0872072606362
 30
0.0
 11
444.4250200184738
 21
264.0872072606362
 31
0.0
  0
MTEXT
  5
4CFD
330
A
100
AcDbEntity
  8
1
  6
Continuous
 62
     7
100
AcDbMText
 10
449.5998580032257
 20
290.4536297367245
 30
0.0
 40
3.5
 41
0.0
 46
0.0
 71
     2
 72
     1
  1
No.
  7
ＭＳ_Ｐゴシック
 73
     1
 44
1.0
  0
MTEXT
  5
4CFE
330
A
100
AcDbEntity
  8
1
  6
Continuous
 62
     7
100
AcDbMText
 10
473.6891701482473
 20
290.4536297367245
 30
0.0
 40
3.5
 41
26.39092267530355
 46
7.0
 71
     2
 72
     1
  1
{\W1;部　品　名}
  7
ＭＳ_Ｐゴシック
 73
     1
 44
1.0
  0
MTEXT
  5
4CFF
330
A
100
AcDbEntity
  8
1
  6
Continuous
 62
     7
100
AcDbMText
 10
500.4371334688129
 20
290.4536297367245
 30
0.0
 40
3.5
 41
0.0
 46
7.0
 71
     2
 72
     1
  1
{個数}
  7
ＭＳ_Ｐゴシック
 73
     1
 44
1.0
  0
MTEXT
  5
4D00
330
A
100
AcDbEntity
  8
1
  6
Continuous
 62
     7
100
AcDbMText
 10
524.1915354275995
 20
290.4536297367245
 30
0.0
 40
3.5
 41
26.39092267530355
 46
7.0
 71
     2
 72
     1
  1
{\W1;材　質}
  7
ＭＳ_Ｐゴシック
 73
     1
 44
1.0
  0
MTEXT
  5
4D01
330
A
100
AcDbEntity
  8
1
  6
Continuous
 62
     7
100
AcDbMText
 10
449.5998580032257
 20
270.4536297367245
 30
0.0
 40
3.5
 41
0.0
 46
0.0
 71
     2
 72
     1
  1
2
  7
ＭＳ_Ｐゴシック
 73
     1
 44
1.0
  0
MTEXT
  5
4D02
330
A
100
AcDbEntity
  8
1
  6
Continuous
 62
     7
100
AcDbMText
 10
500.1022232825781
 20
280.4536297367245
 30
0.0
 40
3.0
 41
0.0
 46
0.0
 71
     2
 72
     1
  1
1
  7
ＭＳ_Ｐゴシック
 73
     1
 44
1.0
  0
MTEXT
  5
4D03
330
A
100
AcDbEntity
  8
1
  6
Continuous
 62
     7
100
AcDbMText
 10
500.1022232825781
 20
270.4536297367245
 30
0.0
 40
3.0
 41
0.0
 46
3.0
 71
     2
 72
     1
  1
{2}
  7
ＭＳ_Ｐゴシック
 73
     1
 44
1.0
  0
MTEXT
  5
4D04
330
A
100
AcDbEntity
  8
1
  6
Continuous
 62
     7
100
AcDbMText
 10
474.4250200184738
 20
279.0872072606362
 30
0.0
 40
3.0
 41
28.21410445348547
 46
16.965
 71
     5
 72
     1
  1
{本体}
  7
ＭＳ_Ｐゴシック
 73
     1
 44
1.0
  0
MTEXT
  5
4D05
330
A
100
AcDbEntity
  8
1
  6
Continuous
 62
     7
100
AcDbMText
 10
474.4250200184738
 20
269.0872072606362
 30
0.0
 40
3.0
 41
28.21410445348547
 46
17.04
 71
     5
 72
     1
  1
{配線}
  7
ＭＳ_Ｐゴシック
 73
     1
 44
1.0
  0
MTEXT
  5
4D06
330
A
100
AcDbEntity
  8
1
  6
Continuous
 62
     7
100
AcDbMText
 10
526.4344811358828
 20
279.0872072606362
 30
0.0
 40
3.0
 41
28.21410445348547
 46
16.11
 71
     5
 72
     1
  1
{シリコン}
  7
ＭＳ_Ｐゴシック
 73
     1
 44
1.0
  0
MTEXT
  5
4D07
330
A
100
AcDbEntity
  8
1
  6
Continuous
 62
     7
100
AcDbMText
 10
526.4344811358828
 20
269.0872072606362
 30
0.0
 40
3.0
 41
28.21410445348545
 46
3.238636363636364
 71
     5
 72
     1
  1
{PVC 白}
  7
ＭＳ_Ｐゴシック
 73
     1
 44
1.0
  0
LINE
  5
4DA5
330
A
100
AcDbEntity
  8
998-図枠
 62
     7
100
AcDbLine
 10
844.4250200184738
 20
78.50551120903617
 30
0.0
 11
444.4250200184738
 21
78.50551120903617
 31
0.0
  0
LINE
  5
4DA6
330
A
100
AcDbEntity
  8
998-図枠
 62
     7
100
AcDbLine
 10
844.4250200184738
 20
33.56932001303619
 30
0.0
 11
694.4250200184738
 21
33.56932001303619
 31
0.0
  0
LINE
  5
4DA7
330
A
100
AcDbEntity
  8
998-図枠
 62
     7
100
AcDbLine
 10
767.4622168124738
 20
17.08720726063618
 30
0.0
 11
767.4622168124738
 21
78.50551120903617
 31
0.0
  0
LINE
  5
4DA8
330
A
100
AcDbEntity
  8
998-図枠
 62
     7
100
AcDbLine
 10
827.1879449296739
 20
17.08720726063618
 30
0.0
 11
827.1808425579738
 21
33.56932001303619
 31
0.0
  0
LINE
  5
4DA9
330
A
100
AcDbEntity
  8
998-図枠
 62
     7
100
AcDbLine
 10
767.4622168124738
 20
71.47692749813619
 30
0.0
 11
844.4250200184738
 21
71.47692749813619
 31
0.0
  0
LINE
  5
4DAA
330
A
100
AcDbEntity
  8
998-図枠
 62
     7
100
AcDbLine
 10
694.4250200184738
 20
17.08720726063618
 30
0.0
 11
694.4250200184738
 21
78.50551120903617
 31
0.0
  0
LINE
  5
4DAB
330
A
100
AcDbEntity
  8
998-図枠
 62
     7
100
AcDbLine
 10
767.4622168124738
 20
71.47692749813619
 30
0.0
 11
694.4250200184738
 21
71.47692749813619
 31
0.0
  0
LINE
  5
4DAC
330
A
100
AcDbEntity
  8
998-図枠
 62
     7
100
AcDbLine
 10
767.4622168124738
 20
26.55297609283619
 30
0.0
 11
694.4250200184738
 21
26.55297609283619
 31
0.0
  0
LINE
  5
4DAD
330
A
100
AcDbEntity
  8
998-図枠
 62
     7
100
AcDbLine
 10
734.0171929817739
 20
17.08720726063618
 30
0.0
 11
734.0100906100738
 21
33.56932001303619
 31
0.0
  0
LINE
  5
4DAE
330
A
100
AcDbEntity
  8
998-図枠
 62
     7
100
AcDbLine
 10
644.4250200184738
 20
17.08720726063618
 30
0.0
 11
644.4250200184738
 21
78.50551120903617
 31
0.0
  0
LINE
  5
4DAF
330
A
100
AcDbEntity
  8
998-図枠
 62
     7
100
AcDbLine
 10
694.4250200184738
 20
71.47692749813619
 30
0.0
 11
644.4250200184738
 21
71.47692749813619
 31
0.0
  0
LINE
  5
4DB0
330
A
100
AcDbEntity
  8
998-図枠
  6
Continuous
 62
     7
100
AcDbLine
 10
662.1027566467739
 20
71.47692749813619
 30
0.0
 11
662.1027566467739
 21
17.08720726063618
 31
0.0
  0
LINE
  5
4DB1
330
A
100
AcDbEntity
  8
998-図枠
 62
     7
100
AcDbLine
 10
644.4250200184738
 20
31.03433793163619
 30
0.0
 11
694.4250200184738
 21
31.03433793163619
 31
0.0
  0
LINE
  5
4DB2
330
A
100
AcDbEntity
  8
998-図枠
 62
     7
100
AcDbLine
 10
644.4250200184738
 20
57.80057604053619
 30
0.0
 11
694.4250200184738
 21
57.80057604053619
 31
0.0
  0
LINE
  5
4DB3
330
A
100
AcDbEntity
  8
998-図枠
 62
     7
100
AcDbLine
 10
694.4250200184738
 20
44.56782911033618
 30
0.0
 11
644.4250200184738
 21
44.56782911033618
 31
0.0
  0
LINE
  5
4DB4
330
A
100
AcDbEntity
  8
998-図枠
 62
     7
100
AcDbLine
 10
694.4250200184738
 20
24.04344574313618
 30
0.0
 11
644.4250200184738
 21
24.04344574313618
 31
0.0
  0
LINE
  5
4DB5
330
A
100
AcDbEntity
  8
998-図枠
 62
     7
100
AcDbLine
 10
644.4250200184738
 20
24.04344574313618
 30
0.0
 11
444.4250200184738
 21
24.04344574313618
 31
0.0
  0
LINE
  5
4DB6
330
A
100
AcDbEntity
  8
998-図枠
 62
     7
100
AcDbLine
 10
644.4250200184738
 20
31.03433793163619
 30
0.0
 11
444.4250200184738
 21
31.03433793163619
 31
0.0
  0
LINE
  5
4DB7
330
A
100
AcDbEntity
  8
998-図枠
 62
     7
100
AcDbLine
 10
644.4250200184738
 20
37.57215719133618
 30
0.0
 11
444.4250200184738
 21
37.57215719133618
 31
0.0
  0
LINE
  5
4DB8
330
A
100
AcDbEntity
  8
998-図枠
 62
     7
100
AcDbLine
 10
644.4250200184738
 20
44.56782911033618
 30
0.0
 11
444.4250200184738
 21
44.56782911033618
 31
0.0
  0
LINE
  5
4DB9
330
A
100
AcDbEntity
  8
998-図枠
 62
     7
100
AcDbLine
 10
644.4250200184738
 20
51.02144370343618
 30
0.0
 11
444.4250200184738
 21
51.02144370343618
 31
0.0
  0
LINE
  5
4DBA
330
A
100
AcDbEntity
  8
998-図枠
 62
     7
100
AcDbLine
 10
644.4250200184738
 20
57.80057604053619
 30
0.0
 11
444.4250200184738
 21
57.80057604053619
 31
0.0
  0
LINE
  5
4DBB
330
A
100
AcDbEntity
  8
998-図枠
 62
     7
100
AcDbLine
 10
644.4250200184738
 20
65.01843800253619
 30
0.0
 11
444.4250200184738
 21
65.01843800253619
 31
0.0
  0
LINE
  5
4DBC
330
A
100
AcDbEntity
  8
998-図枠
 62
     7
100
AcDbLine
 10
644.4250200184738
 20
71.47692749813619
 30
0.0
 11
444.4250200184738
 21
71.47692749813619
 31
0.0
  0
LINE
  5
4DBD
330
A
100
AcDbEntity
  8
998-図枠
 62
     7
100
AcDbLine
 10
456.1812386340738
 20
17.08720726063618
 30
0.0
 11
456.1812386340738
 21
78.50551120903617
 31
0.0
  0
LINE
  5
4DBE
330
A
100
AcDbEntity
  8
998-図枠
 62
     7
100
AcDbLine
 10
604.452730022274
 20
17.08720726063618
 30
0.0
 11
604.452730022274
 21
78.50551120903617
 31
0.0
  0
LINE
  5
4DBF
330
A
100
AcDbEntity
  8
998-図枠
 62
     7
100
AcDbLine
 10
594.4250200184738
 20
17.08720726063618
 30
0.0
 11
594.4250200184738
 21
78.50551120903617
 31
0.0
  0
LINE
  5
4DC0
330
A
100
AcDbEntity
  8
997-図枠_文字
  6
Continuous
 62
     7
100
AcDbLine
 10
715.8117841364738
 20
23.91514224613618
 30
0.0
 11
722.4194475615739
 21
24.91815429432767
 31
0.0
  0
LINE
  5
4DC1
330
A
100
AcDbEntity
  8
997-図枠_文字
  6
Continuous
 62
     7
100
AcDbLine
 10
725.9316290217739
 20
21.91514224613618
 30
0.0
 11
703.1520566132738
 21
21.91514224613618
 31
0.0
  0
LINE
  5
4DC2
330
A
100
AcDbEntity
  8
997-図枠_文字
  6
Continuous
 62
     7
100
AcDbLine
 10
707.9880984401739
 20
25.78669541813618
 30
0.0
 11
707.9880984401739
 21
17.78669541813618
 31
0.0
  0
LINE
  5
4DC3
330
A
100
AcDbEntity
  8
997-図枠_文字
  6
Continuous
 62
     7
100
AcDbLine
 10
715.8117841364738
 20
19.91514224613618
 30
0.0
 11
722.4194475615739
 21
18.91813625811096
 31
0.0
  0
LINE
  5
4DC4
330
A
100
AcDbEntity
  8
997-図枠_文字
  6
Continuous
 62
     7
100
AcDbLine
 10
715.8117841364738
 20
23.91514224613618
 30
0.0
 11
715.8117841364738
 21
19.91514224613618
 31
0.0
  0
CIRCLE
  5
4DC5
330
A
100
AcDbEntity
  8
997-図枠_文字
  6
Continuous
 62
     7
100
AcDbCircle
 10
707.9880984401739
 20
21.91514224613618
 30
0.0
 40
2.999999999999964
  0
CIRCLE
  5
4DC6
330
A
100
AcDbEntity
  8
997-図枠_文字
  6
Continuous
 62
     7
100
AcDbCircle
 10
707.9880984401739
 20
21.91514224613618
 30
0.0
 40
1.999999999999994
  0
MTEXT
  5
4DC7
330
A
100
AcDbEntity
  8
997-図枠_文字
  6
Continuous
 62
     7
100
AcDbMText
 10
805.9436184154738
 20
74.99121935358619
 30
0.0
 40
3.0
 41
76.36279484668658
 46
15.675
 71
     5
 72
     1
  1
{品番 / PART NO.}
 73
     1
 44
1.0
  0
MTEXT
  5
4DC8
330
A
100
AcDbEntity
  8
997-図枠_文字
  6
Continuous
 62
     7
100
AcDbMText
 10
835.8029312882238
 20
25.32826363683619
 30
0.0
 40
5.0
 41
0.0
 46
0.0
 71
     5
 72
     1
  1
1/1
 73
     1
 44
1.0
  0
MTEXT
  5
4DC9
330
A
100
AcDbEntity
  8
997-図枠_文字
  6
Continuous
 62
     7
100
AcDbMText
 10
730.9436184154738
 20
74.99121935358619
 30
0.0
 40
3.0
 41
0.0
 46
3.135
 71
     5
 72
     1
  1
{消費電力 / POWER CONSUMPTION}
 73
     1
 44
1.0
  0
MTEXT
  5
4DCA
330
A
100
AcDbEntity
  8
997-図枠_文字
  6
Continuous
 62
     7
100
AcDbMText
 10
730.9436184154738
 20
59.87383979993618
 30
0.0
 40
3.0
 41
37.62378883580891
 46
3.135
 71
     5
 72
     1
  1
\pi6.34839,l0;光源 / LIGHT
 73
     1
 44
1.0
  0
MTEXT
  5
4DCB
330
A
100
AcDbEntity
  8
997-図枠_文字
  6
Continuous
 62
     7
100
AcDbMText
 10
750.7376654313805
 20
30.06114805293619
 30
0.0
 40
2.5
 41
0.0
 46
0.0
 71
     5
 72
     1
  1
尺度 / SCALE
 73
     1
 44
1.0
  0
MTEXT
  5
4DCC
330
A
100
AcDbEntity
  8
997-図枠_文字
  6
Continuous
 62
     7
100
AcDbMText
 10
714.2190670343805
 20
30.06114805293619
 30
0.0
 40
2.0
 41
0.0
 46
0.0
 71
     5
 72
     1
  1
投影法 / PROJECTION
 73
     1
 44
1.0
  0
MTEXT
  5
4DCD
330
A
100
AcDbEntity
  8
997-図枠_文字
  6
Continuous
 62
     7
100
AcDbMText
 10
669.4250200184738
 20
74.99121935358619
 30
0.0
 40
3.0
 41
0.0
 46
0.0
 71
     5
 72
     1
  1
名前 / NAME
 73
     1
 44
1.0
  0
MTEXT
  5
4DCE
330
A
100
AcDbEntity
  8
997-図枠_文字
  6
Continuous
 62
     7
100
AcDbMText
 10
653.2638883326238
 20
64.63875176933618
 30
0.0
 40
3.0
 41
0.0
 46
0.0
 71
     5
 72
     1
  1
検認
 73
     1
 44
1.0
  0
MTEXT
  5
4DCF
330
A
100
AcDbEntity
  8
997-図枠_文字
  6
Continuous
 62
     7
100
AcDbMText
 10
653.2638883326238
 20
51.0413217099612
 30
0.0
 40
3.0
 41
0.0
 46
0.0
 71
     5
 72
     1
  1
検認
 73
     1
 44
1.0
  0
MTEXT
  5
4DD0
330
A
100
AcDbEntity
  8
997-図枠_文字
  6
Continuous
 62
     7
100
AcDbMText
 10
653.2638883326238
 20
37.6582026555112
 30
0.0
 40
3.0
 41
0.0
 46
0.0
 71
     5
 72
     1
  1
設計
 73
     1
 44
1.0
  0
MTEXT
  5
4DD1
330
A
100
AcDbEntity
  8
997-図枠_文字
  6
Continuous
 62
     7
100
AcDbMText
 10
654.0465858403373
 20
20.87332014597055
 30
0.0
 40
3.0
 41
0.0
 46
0.0
 71
     5
 72
     1
  1
日付
 73
     1
 44
1.0
  0
MTEXT
  5
4DD2
330
A
100
AcDbEntity
  8
997-図枠_文字
  6
Continuous
 62
     7
100
AcDbMText
 10
653.2638883326238
 20
27.53889183738619
 30
0.0
 40
3.0
 41
0.0
 46
0.0
 71
     5
 72
     1
  1
製図
 73
     1
 44
1.0
  0
MTEXT
  5
4DD3
330
A
100
AcDbEntity
  8
997-図枠_文字
  6
Continuous
 62
     7
100
AcDbMText
 10
450.3031293262738
 20
20.56532650188618
 30
0.0
 40
3.0
 41
0.0
 46
0.0
 71
     5
 72
     1
  1
NO.
 73
     1
 44
1.0
  0
MTEXT
  5
4DD4
330
A
100
AcDbEntity
  8
997-図枠_文字
  6
Continuous
 62
     7
100
AcDbMText
 10
525.3031293262738
 20
20.56532650188618
 30
0.0
 40
3.0
 41
0.0
 46
0.0
 71
     5
 72
     1
  1
改定履歴 / REVISION HISTORY
 73
     1
 44
1.0
  0
MTEXT
  5
4DD5
330
A
100
AcDbEntity
  8
997-図枠_文字
  6
Continuous
 62
     7
100
AcDbMText
 10
599.4388750203739
 20
20.56532650188618
 30
0.0
 40
3.0
 41
0.0
 46
0.0
 71
     5
 72
     1
  1
日付
 73
     1
 44
1.0
  0
MTEXT
  5
4DD6
330
A
100
AcDbEntity
  8
997-図枠_文字
  6
Continuous
 62
     7
100
AcDbMText
 10
624.4388750203739
 20
20.56532650188618
 30
0.0
 40
3.0
 41
0.0
 46
0.0
 71
     5
 72
     1
  1
名前 / NAME
 73
     1
 44
1.0
  0
MTEXT
  5
4DD7
330
A
100
AcDbEntity
  8
997-図枠_文字
  6
Continuous
 62
     7
100
AcDbMText
 10
805.9436184154738
 20
59.87383979993618
 30
0.0
 40
3.0
 41
0.0
 46
3.135
 71
     5
 72
     1
  1
{色 / COLOR}
 73
     1
 44
1.0
  0
LINE
  5
4DD8
330
A
100
AcDbEntity
  8
997-図枠_文字
  6
Continuous
 62
     7
100
AcDbLine
 10
722.4194475615739
 20
24.91815429432767
 30
0.0
 11
722.4194475615739
 21
18.91813625811096
 31
0.0
  0
LINE
  5
4DD9
330
A
100
AcDbEntity
  8
998-図枠
 62
     7
100
AcDbLine
 10
767.4622168124738
 20
41.32755240213619
 30
0.0
 11
694.4250200184738
 21
41.32755240213619
 31
0.0
  0
LINE
  5
4DDA
330
A
100
AcDbEntity
  8
998-図枠
 62
     7
100
AcDbLine
 10
767.4622168124738
 20
41.32755240213619
 30
0.0
 11
844.4250200184738
 21
41.32755240213619
 31
0.0
  0
LINE
  5
4DDB
330
A
100
AcDbEntity
  8
0
 62
     7
100
AcDbLine
 10
694.4250200184738
 20
63.53206737938618
 30
0.0
 11
844.4250200184738
 21
63.53206737938618
 31
0.0
  0
LINE
  5
4DDC
330
A
100
AcDbEntity
  8
0
 62
     7
100
AcDbLine
 10
694.4250200184738
 20
48.45737983138618
 30
0.0
 11
844.4250200184738
 21
48.45737983138618
 31
0.0
  0
MTEXT
  5
4DDD
330
A
100
AcDbEntity
  8
997-図枠_文字
  6
Continuous
 62
     7
100
AcDbMText
 10
730.9436184154738
 20
44.8924661167612
 30
0.0
 40
3.0
 41
72.17167895256385
 46
15.675
 71
     5
 72
     1
  1
{重量 / WEIGHT}
 73
     1
 44
1.0
  0
LINE
  5
4DDE
330
A
100
AcDbEntity
  8
0
 62
     7
100
AcDbLine
 10
694.4250200184738
 20
56.2156122204862
 30
0.0
 11
844.4250200184738
 21
56.21561222048618
 31
0.0
  0
MTEXT
  5
4DDF
330
A
100
AcDbEntity
  8
997-図枠_文字
  6
Continuous
 62
     7
100
AcDbMText
 10
730.9436184154738
 20
67.50449743876118
 30
0.0
 40
2.5
 41
73.25769728997102
 46
2.840909090909091
 71
     5
 72
     1
  1
{電球色：約3.8W アンバー：約4W 青：約0.6W}
 73
     1
 44
1.0
  0
MTEXT
  5
4DE0
330
A
100
AcDbEntity
  8
997-図枠_文字
  6
Continuous
 62
     7
100
AcDbMText
 10
730.9436184154738
 20
52.33649602593618
 30
0.0
 40
2.5
 41
72.61422673335937
 46
2.826724084031512
 71
     5
 72
     1
  1
{モジュール：電球色/アンバー/青}
 73
     1
 44
1.0
  0
MTEXT
  5
4DE1
330
A
100
AcDbEntity
  8
997-図枠_文字
  6
Continuous
 62
     7
100
AcDbMText
 10
730.9436184154738
 20
37.44843620758618
 30
0.0
 40
3.0
 41
71.0461698193127
 46
3.579545454545455
 71
     5
 72
     1
  1
{\pxqc;約0.3kg}
 73
     1
 44
1.0
  0
MTEXT
  5
4DE2
330
A
100
AcDbEntity
  8
997-図枠_文字
  6
Continuous
 62
     7
100
AcDbMText
 10
750.7376654313805
 20
21.82009167673618
 30
0.0
 40
3.0
 41
32.84561120864851
 46
3.0
 71
     5
 72
     1
  1
{\pxqc;1 : 1}
 73
     1
 44
1.0
  0
MTEXT
  5
4DE3
330
A
100
AcDbEntity
  8
997-図枠_文字
  6
Continuous
 62
     7
100
AcDbMText
 10
678.2638883326238
 20
20.56532650188618
 30
0.0
 40
3.0
 41
31.4804233856886
 46
3.135050643991497
 71
     5
 72
     1
  1
{\pxqc;2022/02/16}
 73
     1
 44
1.0
  0
MTEXT
  5
4DE4
330
A
100
AcDbEntity
  8
997-図枠_文字
  6
Continuous
 62
     7
100
AcDbMText
 10
678.2638883326238
 20
27.53889183738619
 30
0.0
 40
3.0
 41
31.4804233856886
 46
3.255
 71
     5
 72
     1
  1
{\pxqc;岩下}
 73
     1
 44
1.0
  0
MTEXT
  5
4DE5
330
A
100
AcDbEntity
  8
997-図枠_文字
  6
Continuous
 62
     7
100
AcDbMText
 10
678.2638883326238
 20
64.63875176933618
 30
0.0
 40
3.0
 41
31.4804233856886
 46
3.357
 71
     5
 72
     1
  1
{\pxqc;原}
 73
     1
 44
1.0
  0
MTEXT
  5
4DE6
330
A
100
AcDbEntity
  8
997-図枠_文字
  6
Continuous
 62
     7
100
AcDbMText
 10
805.9436184154738
 20
67.50449743876118
 30
0.0
 40
3.0
 41
73.25769728997102
 46
3.135050643991497
 71
     5
 72
     1
  1
{HAC-D/H/B97T}
 73
     1
 44
1.0
  0
MTEXT
  5
4DE7
330
A
100
AcDbEntity
  8
997-図枠_文字
  6
Continuous
 62
     7
100
AcDbMText
 10
805.9436184154738
 20
52.33649602593619
 30
0.0
 40
3.0
 41
76.71348973937711
 46
3.0
 71
     5
 72
     1
  1
{-}
 73
     1
 44
1.0
  0
MTEXT
  5
4DE8
330
A
100
AcDbEntity
  8
997-図枠_文字
  6
Continuous
 62
     7
100
AcDbMText
 10
805.9436184154738
 20
44.89246611676118
 30
0.0
 40
3.0
 41
0.0
 46
3.135
 71
     5
 72
     1
  1
{品名 / DRAWING NAME}
 73
     1
 44
1.0
  0
MTEXT
  5
4DE9
330
A
100
AcDbEntity
  8
997-図枠_文字
  6
Continuous
 62
     7
100
AcDbMText
 10
805.9436184154738
 20
37.44843620758618
 30
0.0
 40
2.5
 41
72.61422673335937
 46
2.585227272727273
 71
     5
 72
     1
  1
{ドットレスLEDバー 24V 低Wタイプ 3000}
 73
     1
 44
1.0
  0
SPLINE
  5
4DEA
330
A
100
AcDbEntity
  8
_U+30EC_U+30A4_U+30E4_U+30FC 1
370
     0
100
AcDbSpline
210
0.0
220
0.0
230
1.0
 70
    11
 71
     3
 72
    17
 73
    13
 74
     0
 42
0.000000001
 43
0.0000000001
 40
0.0
 40
0.0
 40
0.0
 40
0.0
 40
1.0
 40
1.0
 40
1.0
 40
2.0
 40
2.0
 40
2.0
 40
3.0
 40
3.0
 40
3.0
 40
4.0
 40
4.0
 40
4.0
 40
4.0
 10
821.4178716783279
 20
25.52742808088986
 30
0.0
 10
821.4178716783279
 20
25.94085541411905
 30
0.0
 10
821.7304186703539
 20
26.25217474737514
 30
0.0
 10
822.1297489934997
 20
26.25217474737514
 30
0.0
 10
822.5249729834165
 20
26.25217474737514
 30
0.0
 10
822.835868975485
 20
25.94085541411905
 30
0.0
 10
822.835868975485
 20
25.52742808088986
 30
0.0
 10
822.835868975485
 20
25.10659241432845
 30
0.0
 10
822.5249729834165
 20
24.79696641440561
 30
0.0
 10
822.1297489934997
 20
24.79696641440561
 30
0.0
 10
821.7304186703539
 20
24.79696641440561
 30
0.0
 10
821.4178716783279
 20
25.10659241432845
 30
0.0
 10
821.4178716783279
 20
25.52742808088986
 30
0.0
  0
SPLINE
  5
4DEB
330
A
100
AcDbEntity
  8
_U+30EC_U+30A4_U+30E4_U+30FC 1
370
     0
100
AcDbSpline
210
0.0
220
0.0
230
1.0
 70
    11
 71
     3
 72
    17
 73
    13
 74
     0
 42
0.000000001
 43
0.0000000001
 40
0.0
 40
0.0
 40
0.0
 40
0.0
 40
1.0
 40
1.0
 40
1.0
 40
2.0
 40
2.0
 40
2.0
 40
3.0
 40
3.0
 40
3.0
 40
4.0
 40
4.0
 40
4.0
 40
4.0
 10
822.1297489934997
 20
24.65227108110762
 30
0.0
 10
822.6056179813593
 20
24.65227108110762
 30
0.0
 10
823.0119756376587
 20
25.02141774768328
 30
0.0
 10
823.0119756376587
 20
25.52742808088986
 30
0.0
 10
823.0119756376587
 20
26.02810441409699
 30
0.0
 10
822.6056179813593
 20
26.39767441400598
 30
0.0
 10
822.1297489934997
 20
26.39767441400598
 30
0.0
 10
821.6489693390987
 20
26.39767441400598
 30
0.0
 10
821.2425693494667
 20
26.02810441409699
 30
0.0
 10
821.2425693494667
 20
25.52742808088986
 30
0.0
 10
821.2425693494667
 20
25.02141774768328
 30
0.0
 10
821.6489693390987
 20
24.65227108110762
 30
0.0
 10
822.1297489934997
 20
24.65227108110762
 30
0.0
  0
SPLINE
  5
4DEC
330
A
100
AcDbEntity
  8
_U+30EC_U+30A4_U+30E4_U+30FC 1
370
     0
100
AcDbSpline
210
0.0
220
0.0
230
1.0
 70
    11
 71
     3
 72
    35
 73
    31
 74
     0
 42
0.000000001
 43
0.0000000001
 40
0.0
 40
0.0
 40
0.0
 40
0.0
 40
1.0
 40
1.0
 40
1.0
 40
2.0
 40
2.0
 40
2.0
 40
3.0
 40
3.0
 40
3.0
 40
4.0
 40
4.0
 40
4.0
 40
5.0
 40
5.0
 40
5.0
 40
6.0
 40
6.0
 40
6.0
 40
7.0
 40
7.0
 40
7.0
 40
8.0
 40
8.0
 40
8.0
 40
9.0
 40
9.0
 40
9.0
 40
10.0
 40
10.0
 40
10.0
 40
10.0
 10
821.9453973173387
 20
25.45800141424027
 30
0.0
 10
821.9453973173387
 20
25.45800141424027
 30
0.0
 10
822.1202663270749
 20
25.45800141424027
 30
0.0
 10
822.1202663270749
 20
25.45800141424027
 30
0.0
 10
822.1202663270749
 20
25.45800141424027
 30
0.0
 10
822.3860873172281
 20
25.02141774768328
 30
0.0
 10
822.3860873172281
 20
25.02141774768328
 30
0.0
 10
822.3860873172281
 20
25.02141774768328
 30
0.0
 10
822.5576543159161
 20
25.02141774768328
 30
0.0
 10
822.5576543159161
 20
25.02141774768328
 30
0.0
 10
822.5576543159161
 20
25.02141774768328
 30
0.0
 10
822.2703379899128
 20
25.46502874757143
 30
0.0
 10
822.2703379899128
 20
25.46502874757143
 30
0.0
 10
822.4179119861478
 20
25.48361308090037
 30
0.0
 10
822.5311959832579
 20
25.56176041421437
 30
0.0
 10
822.5311959832579
 20
25.742015747503
 30
0.0
 10
822.5311959832579
 20
25.94085541411905
 30
0.0
 10
822.4141866529096
 20
26.02810441409699
 30
0.0
 10
822.1764849923072
 20
26.02810441409699
 30
0.0
 10
822.1764849923072
 20
26.02810441409699
 30
0.0
 10
821.7920136687826
 20
26.02810441409699
 30
0.0
 10
821.7920136687826
 20
26.02810441409699
 30
0.0
 10
821.7920136687826
 20
26.02810441409699
 30
0.0
 10
821.7920136687826
 20
25.02141774768328
 30
0.0
 10
821.7920136687826
 20
25.02141774768328
 30
0.0
 10
821.7920136687826
 20
25.02141774768328
 30
0.0
 10
821.9453973173387
 20
25.02141774768328
 30
0.0
 10
821.9453973173387
 20
25.02141774768328
 30
0.0
 10
821.9453973173387
 20
25.02141774768328
 30
0.0
 10
821.9453973173387
 20
25.45800141424027
 30
0.0
 10
821.9453973173387
 20
25.45800141424027
 30
0.0
  0
SPLINE
  5
4DED
330
A
100
AcDbEntity
  8
_U+30EC_U+30A4_U+30E4_U+30FC 1
370
     0
100
AcDbSpline
210
0.0
220
0.0
230
1.0
 70
    11
 71
     3
 72
    20
 73
    16
 74
     0
 42
0.000000001
 43
0.0000000001
 40
0.0
 40
0.0
 40
0.0
 40
0.0
 40
1.0
 40
1.0
 40
1.0
 40
2.0
 40
2.0
 40
2.0
 40
3.0
 40
3.0
 40
3.0
 40
4.0
 40
4.0
 40
4.0
 40
5.0
 40
5.0
 40
5.0
 40
5.0
 10
821.9453973173387
 20
25.58656774754163
 30
0.0
 10
821.9453973173387
 20
25.58656774754163
 30
0.0
 10
821.9453973173387
 20
25.89869141413055
 30
0.0
 10
821.9453973173387
 20
25.89869141413055
 30
0.0
 10
821.9453973173387
 20
25.89869141413055
 30
0.0
 10
822.152524326252
 20
25.89869141413055
 30
0.0
 10
822.152524326252
 20
25.89869141413055
 30
0.0
 10
822.2595853235205
 20
25.89869141413055
 30
0.0
 10
822.3715993206627
 20
25.87638174746937
 30
0.0
 10
822.3715993206627
 20
25.75149841416646
 30
0.0
 10
822.3715993206627
 20
25.5964737475384
 30
0.0
 10
822.2567066569273
 20
25.58656774754163
 30
0.0
 10
822.1272936602288
 20
25.58656774754163
 30
0.0
 10
822.1272936602288
 20
25.58656774754163
 30
0.0
 10
821.9453973173387
 20
25.58656774754163
 30
0.0
 10
821.9453973173387
 20
25.58656774754163
 30
0.0
  0
HATCH
  5
4DEE
330
A
100
AcDbEntity
  8
_U+30EC_U+30A4_U+30E4_U+30FC 1
 62
     7
100
AcDbHatch
 10
0.0
 20
0.0
 30
0.0
210
0.0
220
0.0
230
1.0
  2
SOLID
 70
     1
 71
     0
 91
        4
 92
        1
 93
        1
 72
     4
 94
        3
 73
     0
 74
     1
 95
       35
 96
       31
 40
0.0
 40
0.0
 40
0.0
 40
0.0
 40
1.0
 40
1.0
 40
1.0
 40
2.0
 40
2.0
 40
2.0
 40
3.0
 40
3.0
 40
3.0
 40
4.0
 40
4.0
 40
4.0
 40
5.0
 40
5.0
 40
5.0
 40
6.0
 40
6.0
 40
6.0
 40
7.0
 40
7.0
 40
7.0
 40
8.0
 40
8.0
 40
8.0
 40
9.0
 40
9.0
 40
9.0
 40
10.0
 40
10.0
 40
10.0
 40
10.0
 10
821.9453973173387
 20
25.45800141424027
 10
821.9453973173387
 20
25.45800141424027
 10
822.1202663270749
 20
25.45800141424027
 10
822.1202663270749
 20
25.45800141424027
 10
822.1202663270749
 20
25.45800141424027
 10
822.3860873172281
 20
25.02141774768328
 10
822.3860873172281
 20
25.02141774768328
 10
822.3860873172281
 20
25.02141774768328
 10
822.5576543159161
 20
25.02141774768328
 10
822.5576543159161
 20
25.02141774768328
 10
822.5576543159161
 20
25.02141774768328
 10
822.2703379899128
 20
25.46502874757143
 10
822.2703379899128
 20
25.46502874757143
 10
822.4179119861478
 20
25.48361308090037
 10
822.5311959832579
 20
25.56176041421437
 10
822.5311959832579
 20
25.742015747503
 10
822.5311959832579
 20
25.94085541411905
 10
822.4141866529096
 20
26.02810441409699
 10
822.1764849923072
 20
26.02810441409699
 10
822.1764849923072
 20
26.02810441409699
 10
821.7920136687826
 20
26.02810441409699
 10
821.7920136687826
 20
26.02810441409699
 10
821.7920136687826
 20
26.02810441409699
 10
821.7920136687826
 20
25.02141774768328
 10
821.7920136687826
 20
25.02141774768328
 10
821.7920136687826
 20
25.02141774768328
 10
821.9453973173387
 20
25.02141774768328
 10
821.9453973173387
 20
25.02141774768328
 10
821.9453973173387
 20
25.02141774768328
 10
821.9453973173387
 20
25.45800141424027
 10
821.9453973173387
 20
25.45800141424027
 97
        0
 97
        0
 92
        1
 93
        1
 72
     4
 94
        3
 73
     0
 74
     1
 95
       20
 96
       16
 40
0.0
 40
0.0
 40
0.0
 40
0.0
 40
1.0
 40
1.0
 40
1.0
 40
2.0
 40
2.0
 40
2.0
 40
3.0
 40
3.0
 40
3.0
 40
4.0
 40
4.0
 40
4.0
 40
5.0
 40
5.0
 40
5.0
 40
5.0
 10
821.9453973173387
 20
25.58656774754163
 10
821.9453973173387
 20
25.58656774754163
 10
821.9453973173387
 20
25.89869141413055
 10
821.9453973173387
 20
25.89869141413055
 10
821.9453973173387
 20
25.89869141413055
 10
822.152524326252
 20
25.89869141413055
 10
822.152524326252
 20
25.89869141413055
 10
822.2595853235205
 20
25.89869141413055
 10
822.3715993206627
 20
25.87638174746937
 10
822.3715993206627
 20
25.75149841416646
 10
822.3715993206627
 20
25.5964737475384
 10
822.2567066569273
 20
25.58656774754163
 10
822.1272936602288
 20
25.58656774754163
 10
822.1272936602288
 20
25.58656774754163
 10
821.9453973173387
 20
25.58656774754163
 10
821.9453973173387
 20
25.58656774754163
 97
        0
 97
        0
 92
        1
 93
        2
 72
     4
 94
        3
 73
     0
 74
     0
 95
       17
 96
       13
 40
0.0
 40
0.0
 40
0.0
 40
0.0
 40
0.3527777776895833
 40
0.3527777776895833
 40
0.3527777776895833
 40
0.7055555553791667
 40
0.7055555553791667
 40
0.7055555553791667
 40
1.05833333306875
 40
1.05833333306875
 40
1.05833333306875
 40
1.411111110758333
 40
1.411111110758333
 40
1.411111110758333
 40
1.411111110758333
 10
821.4178716783279
 20
25.52742808088986
 10
821.4178716783279
 20
25.94085541411905
 10
821.7304186703539
 20
26.25217474737514
 10
822.1297489934997
 20
26.25217474737514
 10
822.5249729834165
 20
26.25217474737514
 10
822.835868975485
 20
25.94085541411905
 10
822.835868975485
 20
25.52742808088986
 10
822.835868975485
 20
25.10659241432845
 10
822.5249729834165
 20
24.79696641440561
 10
822.1297489934997
 20
24.79696641440561
 10
821.7304186703539
 20
24.79696641440561
 10
821.4178716783279
 20
25.10659241432845
 10
821.4178716783279
 20
25.52742808088986
 97
        0
 72
     1
 10
821.4178716783279
 20
25.52742808088986
 11
821.4178716783279
 21
25.52742808088986
 97
        0
 92
        1
 93
        2
 72
     4
 94
        3
 73
     0
 74
     0
 95
       17
 96
       13
 40
0.0
 40
0.0
 40
0.0
 40
0.0
 40
0.3527777776895833
 40
0.3527777776895833
 40
0.3527777776895833
 40
0.7055555553791667
 40
0.7055555553791667
 40
0.7055555553791667
 40
1.05833333306875
 40
1.05833333306875
 40
1.05833333306875
 40
1.411111110758333
 40
1.411111110758333
 40
1.411111110758333
 40
1.411111110758333
 10
822.1297489934997
 20
24.65227108110762
 10
822.6056179813593
 20
24.65227108110762
 10
823.0119756376587
 20
25.02141774768328
 10
823.0119756376587
 20
25.52742808088986
 10
823.0119756376587
 20
26.02810441409699
 10
822.6056179813593
 20
26.39767441400598
 10
822.1297489934997
 20
26.39767441400598
 10
821.6489693390987
 20
26.39767441400598
 10
821.2425693494667
 20
26.02810441409699
 10
821.2425693494667
 20
25.52742808088986
 10
821.2425693494667
 20
25.02141774768328
 10
821.6489693390987
 20
24.65227108110762
 10
822.1297489934997
 20
24.65227108110762
 97
        0
 72
     1
 10
822.1297489934997
 20
24.65227108110762
 11
822.1297489934997
 21
24.65227108110762
 97
        0
 75
     2
 76
     1
 98
        0
  0
HATCH
  5
4DEF
330
A
100
AcDbEntity
  8
997-図枠_文字
  6
Continuous
 62
     7
100
AcDbHatch
 10
0.0
 20
0.0
 30
0.0
210
0.0
220
0.0
230
1.0
  2
SOLID
 70
     1
 71
     0
 91
        2
 92
        0
 93
        7
 72
     1
 10
787.4675580651485
 20
30.82669110903925
 11
787.4675580651485
 21
25.43017763289058
 72
     1
 10
787.4675580651485
 20
25.43017763289058
 11
789.1996900634135
 21
24.77558759492703
 72
     4
 94
        3
 73
     1
 74
     0
 95
        8
 96
        4
 40
1.0
 40
1.0
 40
1.0
 40
1.0
 40
2.0
 40
2.0
 40
2.0
 40
2.0
 10
789.1996900634135
 20
24.77558759492703
 42
1.0
 10
790.1415998396537
 20
24.77558759492703
 42
1.0
 10
791.1272072070287
 20
24.79410842825573
 42
1.0
 10
791.8830404859195
 20
25.45121216073034
 42
1.0
 97
        0
 72
     4
 94
        3
 73
     1
 74
     0
 95
        8
 96
        4
 40
2.0
 40
2.0
 40
2.0
 40
2.0
 40
3.0
 40
3.0
 40
3.0
 40
3.0
 10
791.8830404859195
 20
25.45121216073034
 42
1.0
 10
792.5492599410481
 20
26.03674058940342
 42
1.0
 10
793.0023451188865
 20
26.83820071290095
 42
1.0
 10
793.0023451188865
 20
28.07311586016165
 42
1.0
 97
        0
 72
     4
 94
        3
 73
     1
 74
     0
 95
        8
 96
        4
 40
3.0
 40
3.0
 40
3.0
 40
3.0
 40
4.0
 40
4.0
 40
4.0
 40
4.0
 10
793.0023451188865
 20
28.07311586016165
 42
1.0
 10
793.0023451188865
 20
28.91658547800635
 42
1.0
 10
792.7181178511623
 20
29.74322235931011
 42
1.0
 10
792.0517537020232
 20
30.29407245682864
 42
1.0
 97
        0
 72
     4
 94
        3
 73
     1
 74
     0
 95
        8
 96
        4
 40
4.0
 40
4.0
 40
4.0
 40
4.0
 40
5.0
 40
5.0
 40
5.0
 40
5.0
 10
792.0517537020232
 20
30.29407245682864
 42
1.0
 10
791.3049396831129
 20
30.91514738071853
 42
1.0
 10
790.4083191321215
 20
30.82669110903925
 42
1.0
 10
789.483772637127
 20
30.82669110903925
 42
1.0
 97
        0
 72
     1
 10
789.483772637127
 20
30.82669110903925
 11
787.4675580651484
 21
30.82669110903925
 97
        0
 92
        0
 93
        5
 72
     4
 94
        3
 73
     1
 74
     0
 95
        8
 96
        4
 40
2.0
 40
2.0
 40
2.0
 40
2.0
 40
3.0
 40
3.0
 40
3.0
 40
3.0
 10
792.1314801017429
 20
27.93970798259086
 42
1.0
 10
792.1314801017429
 20
26.85522637478906
 42
1.0
 10
791.8115616447917
 20
25.86889553736203
 42
1.0
 10
790.8527709006739
 20
25.38995836300259
 42
1.0
 97
        0
 72
     4
 94
        3
 73
     1
 74
     0
 95
        8
 96
        4
 40
3.0
 40
3.0
 40
3.0
 40
3.0
 40
4.0
 40
4.0
 40
4.0
 40
4.0
 10
790.8527709006739
 20
25.38995836300259
 42
1.0
 10
790.1327735050206
 20
25.02571530753809
 42
1.0
 10
789.0309768473098
 20
25.13134193511586
 42
1.0
 10
788.2488092585297
 20
25.17561830229226
 42
1.0
 97
        0
 72
     1
 10
788.2488092585297
 20
25.17561830229226
 11
788.2488092585297
 21
30.47093676885039
 72
     4
 94
        3
 73
     1
 74
     0
 95
        8
 96
        4
 40
0.0
 40
0.0
 40
0.0
 40
0.0
 40
1.0
 40
1.0
 40
1.0
 40
1.0
 10
788.2488092585297
 20
30.4709367688504
 42
1.0
 10
788.6311872966285
 20
30.48058303620913
 42
1.0
 10
789.0039672987054
 20
30.50643503273043
 42
1.0
 10
789.3687408988744
 20
30.50643503273043
 42
1.0
 97
        0
 72
     4
 94
        3
 73
     1
 74
     0
 95
        8
 96
        4
 40
1.0
 40
1.0
 40
1.0
 40
1.0
 40
2.0
 40
2.0
 40
2.0
 40
2.0
 10
789.3687408988744
 20
30.50643503273043
 42
1.0
 10
791.3587658549743
 20
30.50643503273041
 42
1.0
 10
792.1314801017429
 20
29.8227558336826
 42
1.0
 10
792.1314801017429
 20
27.93970798259086
 42
1.0
 97
        0
 97
        0
 75
     0
 76
     1
 98
        1
 10
434.9042564707825
 20
7.868239936922532
  0
HATCH
  5
4DF0
330
A
100
AcDbEntity
  8
997-図枠_文字
  6
Continuous
 62
     7
100
AcDbHatch
 10
0.0
 20
0.0
 30
0.0
210
0.0
220
0.0
230
1.0
  2
SOLID
 70
     1
 71
     0
 91
        1
 92
        0
 93
        6
 72
     4
 94
        3
 73
     1
 74
     0
 95
        8
 96
        4
 40
4.0
 40
4.0
 40
4.0
 40
4.0
 40
5.0
 40
5.0
 40
5.0
 40
5.0
 10
794.7263260212333
 20
28.96882001575371
 42
1.0
 10
794.8413577594856
 20
28.96882001575371
 42
1.0
 10
794.9486724838514
 20
28.98816078180791
 42
1.0
 10
795.0814051227069
 20
28.9964565717364
 42
1.0
 97
        0
 72
     1
 10
795.0814051227069
 20
28.9964565717364
 11
795.0814051227069
 21
24.74954267305855
 72
     4
 94
        3
 73
     1
 74
     0
 95
        8
 96
        4
 40
0.0
 40
0.0
 40
0.0
 40
0.0
 40
1.0
 40
1.0
 40
1.0
 40
1.0
 10
795.0814051227069
 20
24.74954267305855
 42
1.0
 10
794.9486724838514
 20
24.75861016437569
 42
1.0
 10
794.8413577594856
 20
24.77558759492701
 42
1.0
 10
794.7263260212333
 20
24.77558759492701
 42
1.0
 97
        0
 72
     4
 94
        3
 73
     1
 74
     0
 95
        8
 96
        4
 40
1.0
 40
1.0
 40
1.0
 40
1.0
 40
2.0
 40
2.0
 40
2.0
 40
2.0
 10
794.7263260212333
 20
24.77558759492701
 42
1.0
 10
794.6020820976532
 20
24.77558759492701
 42
1.0
 10
794.4859410386546
 20
24.75861016437569
 42
1.0
 10
794.3708610690651
 20
24.74954267305855
 42
1.0
 97
        0
 72
     1
 10
794.3708610690651
 20
24.74954267305855
 11
794.3708610690651
 21
28.9964565717364
 72
     4
 94
        3
 73
     1
 74
     0
 95
        8
 96
        4
 40
3.0
 40
3.0
 40
3.0
 40
3.0
 40
4.0
 40
4.0
 40
4.0
 40
4.0
 10
794.3708610690651
 20
28.9964565717364
 42
1.0
 10
794.4859410386546
 20
28.98816078180791
 42
1.0
 10
794.6020820976532
 20
28.96882001575371
 42
1.0
 10
794.7263260212333
 20
28.96882001575371
 42
1.0
 97
        0
 97
        0
 75
     0
 76
     1
 98
        1
 10
434.9042564707825
 20
7.868239936922532
  0
HATCH
  5
4DF1
330
A
100
AcDbEntity
  8
997-図枠_文字
  6
Continuous
 62
     7
100
AcDbHatch
 10
0.0
 20
0.0
 30
0.0
210
0.0
220
0.0
230
1.0
  2
SOLID
 70
     1
 71
     0
 91
        1
 92
        0
 93
        2
 72
     4
 94
        3
 73
     1
 74
     0
 95
       11
 96
        7
 40
0.0
 40
0.0
 40
0.0
 40
0.0
 40
1.0
 40
1.0
 40
1.0
 40
2.0
 40
2.0
 40
2.0
 40
2.0
 10
794.7263260212333
 20
30.0628996595774
 42
1.0
 10
794.4772593980317
 20
30.0628996595774
 42
1.0
 10
794.2723726793329
 20
30.2662912068356
 42
1.0
 10
794.2723726793329
 20
30.51574368073157
 42
1.0
 10
794.2723726793329
 20
30.76505146061716
 42
1.0
 10
794.4772593980317
 20
30.96969702263193
 42
1.0
 10
794.7263260212333
 20
30.96969702263193
 42
1.0
 97
        0
 72
     4
 94
        3
 73
     1
 74
     0
 95
       11
 96
        7
 40
2.0
 40
2.0
 40
2.0
 40
2.0
 40
3.0
 40
3.0
 40
3.0
 40
4.0
 40
4.0
 40
4.0
 40
4.0
 10
794.7263260212333
 20
30.96969702263193
 42
1.0
 10
794.9655534517287
 20
30.96969702263193
 42
1.0
 10
795.1789288857035
 20
30.76505146061716
 42
1.0
 10
795.1789288857035
 20
30.51574368073157
 42
1.0
 10
795.1789288857035
 20
30.2662912068356
 42
1.0
 10
794.9655534517287
 20
30.0628996595774
 42
1.0
 10
794.7263260212333
 20
30.0628996595774
 42
1.0
 97
        0
 97
        0
 75
     0
 76
     1
 98
        1
 10
434.9042564707825
 20
7.868239936922532
  0
HATCH
  5
4DF2
330
A
100
AcDbEntity
  8
997-図枠_文字
  6
Continuous
 62
     7
100
AcDbHatch
 10
0.0
 20
0.0
 30
0.0
210
0.0
220
0.0
230
1.0
  2
SOLID
 70
     1
 71
     0
 91
        1
 92
        0
 93
       14
 72
     4
 94
        3
 73
     1
 74
     0
 95
        8
 96
        4
 40
12.0
 40
12.0
 40
12.0
 40
12.0
 40
13.0
 40
13.0
 40
13.0
 40
13.0
 10
802.2601090597145
 20
30.44537416034984
 42
1.0
 10
802.1799485779636
 20
30.22244892169031
 42
1.0
 10
802.1179230788471
 20
29.99146904978625
 42
1.0
 10
802.0557046543836
 20
29.76126087927089
 42
1.0
 97
        0
 72
     1
 10
802.0557046543836
 20
29.76126087927089
 11
801.9578915033665
 21
29.76126087927089
 72
     4
 94
        3
 73
     1
 74
     0
 95
        8
 96
        4
 40
0.0
 40
0.0
 40
0.0
 40
0.0
 40
1.0
 40
1.0
 40
1.0
 40
1.0
 10
801.9578915033662
 20
29.76126087927089
 42
1.0
 10
801.4602405703308
 20
30.32947425803507
 42
1.0
 10
800.7135230140941
 20
30.62238316638198
 42
1.0
 10
799.9587990559494
 20
30.62238316638198
 42
1.0
 97
        0
 72
     4
 94
        3
 73
     1
 74
     0
 95
        8
 96
        4
 40
1.0
 40
1.0
 40
1.0
 40
1.0
 40
2.0
 40
2.0
 40
2.0
 40
2.0
 10
799.9587990559494
 20
30.62238316638198
 42
1.0
 10
798.44800066223
 20
30.62238316638198
 42
1.0
 10
797.400223101728
 20
29.62761184501611
 42
1.0
 10
797.400223101728
 20
27.83369550431874
 42
1.0
 97
        0
 72
     4
 94
        3
 73
     1
 74
     0
 95
        8
 96
        4
 40
2.0
 40
2.0
 40
2.0
 40
2.0
 40
3.0
 40
3.0
 40
3.0
 40
3.0
 10
797.400223101728
 20
27.83369550431874
 42
1.0
 10
797.400223101728
 20
26.07301055467212
 42
1.0
 10
798.3059111440364
 20
24.98047431362581
 42
1.0
 10
800.0562263562724
 20
24.98047431362581
 42
1.0
 97
        0
 72
     4
 94
        3
 73
     1
 74
     0
 95
        8
 96
        4
 40
3.0
 40
3.0
 40
3.0
 40
3.0
 40
4.0
 40
4.0
 40
4.0
 40
4.0
 10
800.0562263562724
 20
24.98047431362581
 42
1.0
 10
800.5366104707355
 20
24.98047431362581
 42
1.0
 10
801.034454329118
 20
25.07008813738812
 42
1.0
 10
801.4426843637382
 20
25.28259540730025
 42
1.0
 97
        0
 72
     1
 10
801.4426843637382
 20
25.28259540730025
 11
801.4426843637382
 21
27.56639743580919
 72
     4
 94
        3
 73
     1
 74
     0
 95
        8
 96
        4
 40
5.0
 40
5.0
 40
5.0
 40
5.0
 40
6.0
 40
6.0
 40
6.0
 40
6.0
 10
801.4426843637382
 20
27.5663974358092
 42
1.0
 10
801.5672176753387
 20
27.55689586246085
 42
1.0
 10
801.70062555291
 20
27.53905026784728
 42
1.0
 10
801.833936967807
 20
27.53905026784728
 42
1.0
 97
        0
 72
     4
 94
        3
 73
     1
 74
     0
 95
        8
 96
        4
 40
6.0
 40
6.0
 40
6.0
 40
6.0
 40
7.0
 40
7.0
 40
7.0
 40
7.0
 10
801.833936967807
 20
27.53905026784728
 42
1.0
 10
801.9575056526719
 20
27.53905026784728
 42
1.0
 10
802.082714202988
 20
27.55689586246085
 42
1.0
 10
802.2249001838552
 20
27.5663974358092
 42
1.0
 97
        0
 72
     1
 10
802.2249001838552
 20
27.5663974358092
 11
802.2249001838552
 21
25.05185669208019
 72
     4
 94
        3
 73
     1
 74
     0
 95
        8
 96
        4
 40
8.0
 40
8.0
 40
8.0
 40
8.0
 40
9.0
 40
9.0
 40
9.0
 40
9.0
 10
802.2249001838552
 20
25.05185669208019
 42
1.0
 10
801.451558929708
 20
24.78542678763289
 42
1.0
 10
800.634327159079
 20
24.64285495607134
 42
1.0
 10
799.8074491210914
 20
24.64285495607134
 42
1.0
 97
        0
 72
     4
 94
        3
 73
     1
 74
     0
 95
        8
 96
        4
 40
9.0
 40
9.0
 40
9.0
 40
9.0
 40
10.0
 40
10.0
 40
10.0
 40
10.0
 10
799.8074491210914
 20
24.64285495607134
 42
1.0
 10
797.5598688265145
 20
24.64285495607134
 42
1.0
 10
796.5297921666156
 20
25.9848436710136
 42
1.0
 10
796.5297921666156
 20
27.78845451040643
 42
1.0
 97
        0
 72
     4
 94
        3
 73
     1
 74
     0
 95
        8
 96
        4
 40
10.0
 40
10.0
 40
10.0
 40
10.0
 40
11.0
 40
11.0
 40
11.0
 40
11.0
 10
796.5297921666156
 20
27.78845451040643
 42
1.0
 10
796.5297921666156
 20
29.86654988749108
 42
1.0
 10
798.0223108836904
 20
30.95961667324214
 42
1.0
 10
799.9940079318087
 20
30.95961667324214
 42
1.0
 97
        0
 72
     4
 94
        3
 73
     1
 74
     0
 95
        8
 96
        4
 40
11.0
 40
11.0
 40
11.0
 40
11.0
 40
12.0
 40
12.0
 40
12.0
 40
12.0
 10
799.9940079318087
 20
30.95961667324214
 42
1.0
 10
801.3188262908525
 20
30.95961667324214
 42
1.0
 10
802.0640969069855
 20
30.56976277794029
 42
1.0
 10
802.2601090597145
 20
30.44537416034984
 42
1.0
 97
        0
 97
        0
 75
     0
 76
     1
 98
        1
 10
434.9042564707825
 20
7.868239936922532
  0
HATCH
  5
4DF3
330
A
100
AcDbEntity
  8
997-図枠_文字
  6
Continuous
 62
     7
100
AcDbHatch
 10
0.0
 20
0.0
 30
0.0
210
0.0
220
0.0
230
1.0
  2
SOLID
 70
     1
 71
     0
 91
        1
 92
        0
 93
        6
 72
     4
 94
        3
 73
     1
 74
     0
 95
        8
 96
        4
 40
4.0
 40
4.0
 40
4.0
 40
4.0
 40
5.0
 40
5.0
 40
5.0
 40
5.0
 10
804.1082374229675
 20
28.96882001575371
 42
1.0
 10
804.2236067805775
 20
28.96882001575371
 42
1.0
 10
804.3302944975649
 20
28.98816078180791
 42
1.0
 10
804.4637023751357
 20
28.9964565717364
 42
1.0
 97
        0
 72
     1
 10
804.4637023751357
 20
28.9964565717364
 11
804.4637023751357
 21
24.74954267305855
 72
     4
 94
        3
 73
     1
 74
     0
 95
        8
 96
        4
 40
0.0
 40
0.0
 40
0.0
 40
0.0
 40
1.0
 40
1.0
 40
1.0
 40
1.0
 10
804.4637023751357
 20
24.74954267305855
 42
1.0
 10
804.3302944975649
 20
24.75861016437569
 42
1.0
 10
804.2236067805775
 20
24.77558759492701
 42
1.0
 10
804.1082374229675
 20
24.77558759492701
 42
1.0
 97
        0
 72
     4
 94
        3
 73
     1
 74
     0
 95
        8
 96
        4
 40
1.0
 40
1.0
 40
1.0
 40
1.0
 40
2.0
 40
2.0
 40
2.0
 40
2.0
 10
804.1082374229675
 20
24.77558759492701
 42
1.0
 10
803.9829324099783
 20
24.77558759492701
 42
1.0
 10
803.867563052368
 20
24.75861016437569
 42
1.0
 10
803.7528689334731
 20
24.74954267305855
 42
1.0
 97
        0
 72
     1
 10
803.7528689334731
 20
24.74954267305855
 11
803.7528689334731
 21
28.9964565717364
 72
     4
 94
        3
 73
     1
 74
     0
 95
        8
 96
        4
 40
3.0
 40
3.0
 40
3.0
 40
3.0
 40
4.0
 40
4.0
 40
4.0
 40
4.0
 10
803.7528689334731
 20
28.9964565717364
 42
1.0
 10
803.867563052368
 20
28.98816078180791
 42
1.0
 10
803.9829324099783
 20
28.96882001575371
 42
1.0
 10
804.1082374229675
 20
28.96882001575371
 42
1.0
 97
        0
 97
        0
 75
     0
 76
     1
 98
        1
 10
434.9042564707825
 20
7.868239936922532
  0
HATCH
  5
4DF4
330
A
100
AcDbEntity
  8
997-図枠_文字
  6
Continuous
 62
     7
100
AcDbHatch
 10
0.0
 20
0.0
 30
0.0
210
0.0
220
0.0
230
1.0
  2
SOLID
 70
     1
 71
     0
 91
        1
 92
        0
 93
        2
 72
     4
 94
        3
 73
     1
 74
     0
 95
       11
 96
        7
 40
0.0
 40
0.0
 40
0.0
 40
0.0
 40
1.0
 40
1.0
 40
1.0
 40
2.0
 40
2.0
 40
2.0
 40
2.0
 10
804.1082374229675
 20
30.0628996595774
 42
1.0
 10
803.8595566504603
 20
30.0628996595774
 42
1.0
 10
803.6543805437407
 20
30.2662912068356
 42
1.0
 10
803.6543805437407
 20
30.51574368073157
 42
1.0
 10
803.6543805437407
 20
30.76505146061716
 42
1.0
 10
803.8595566504603
 20
30.96969702263193
 42
1.0
 10
804.1082374229675
 20
30.96969702263193
 42
1.0
 97
        0
 72
     4
 94
        3
 73
     1
 74
     0
 95
       11
 96
        7
 40
2.0
 40
2.0
 40
2.0
 40
2.0
 40
3.0
 40
3.0
 40
3.0
 40
4.0
 40
4.0
 40
4.0
 40
4.0
 10
804.1082374229675
 20
30.96969702263193
 42
1.0
 10
804.3474648534632
 20
30.96969702263193
 42
1.0
 10
804.561226138132
 20
30.76505146061716
 42
1.0
 10
804.561226138132
 20
30.51574368073157
 42
1.0
 10
804.561226138132
 20
30.2662912068356
 42
1.0
 10
804.3474648534632
 20
30.0628996595774
 42
1.0
 10
804.1082374229675
 20
30.0628996595774
 42
1.0
 97
        0
 97
        0
 75
     0
 76
     1
 98
        1
 10
434.9042564707825
 20
7.868239936922532
  0
HATCH
  5
4DF5
330
A
100
AcDbEntity
  8
997-図枠_文字
  6
Continuous
 62
     7
100
AcDbHatch
 10
0.0
 20
0.0
 30
0.0
210
0.0
220
0.0
230
1.0
  2
SOLID
 70
     1
 71
     0
 91
        1
 92
        0
 93
       11
 72
     4
 94
        3
 73
     1
 74
     0
 95
        8
 96
        4
 40
9.0
 40
9.0
 40
9.0
 40
9.0
 40
10.0
 40
10.0
 40
10.0
 40
10.0
 10
810.1055147652182
 20
30.29407245682864
 42
1.0
 10
809.6607253773086
 20
30.34703046462793
 42
1.0
 10
809.0396986847554
 20
30.40104956183661
 42
1.0
 10
808.2489941493629
 20
30.40104956183661
 42
1.0
 97
        0
 72
     1
 10
808.2489941493629
 20
30.40104956183661
 11
808.2489941493629
 21
24.73237231716002
 72
     4
 94
        3
 73
     1
 74
     0
 95
        8
 96
        4
 40
0.0
 40
0.0
 40
0.0
 40
0.0
 40
1.0
 40
1.0
 40
1.0
 40
1.0
 10
808.2489941493629
 20
24.73237231716004
 42
1.0
 10
808.1068081684957
 20
24.74182565917158
 42
1.0
 10
807.9819854688742
 20
24.75861016437569
 42
1.0
 10
807.8577415452942
 20
24.75861016437569
 42
1.0
 97
        0
 72
     4
 94
        3
 73
     1
 74
     0
 95
        8
 96
        4
 40
1.0
 40
1.0
 40
1.0
 40
1.0
 40
2.0
 40
2.0
 40
2.0
 40
2.0
 10
807.8577415452942
 20
24.75861016437569
 42
1.0
 10
807.7247195184177
 20
24.75861016437569
 42
1.0
 10
807.5905399394583
 20
24.74182565917158
 42
1.0
 10
807.466296015878
 20
24.73237231716004
 42
1.0
 97
        0
 72
     1
 10
807.466296015878
 20
24.73237231716004
 11
807.466296015878
 21
30.40104956183663
 72
     4
 94
        3
 73
     1
 74
     0
 95
        8
 96
        4
 40
3.0
 40
3.0
 40
3.0
 40
3.0
 40
4.0
 40
4.0
 40
4.0
 40
4.0
 10
807.466296015878
 20
30.40104956183661
 42
1.0
 10
806.5693860768661
 20
30.40104956183661
 42
1.0
 10
806.0279410900225
 20
30.34703046462793
 42
1.0
 10
805.5208368149756
 20
30.29407245682864
 42
1.0
 97
        0
 72
     4
 94
        3
 73
     1
 74
     0
 95
        8
 96
        4
 40
4.0
 40
4.0
 40
4.0
 40
4.0
 40
5.0
 40
5.0
 40
5.0
 40
5.0
 10
805.5208368149756
 20
30.29407245682864
 42
1.0
 10
805.5291326049039
 20
30.38310750454946
 42
1.0
 10
805.5474605128854
 20
30.4709367688504
 42
1.0
 10
805.5474605128854
 20
30.56040589860233
 42
1.0
 97
        0
 72
     4
 94
        3
 73
     1
 74
     0
 95
        8
 96
        4
 40
5.0
 40
5.0
 40
5.0
 40
5.0
 40
6.0
 40
6.0
 40
6.0
 40
6.0
 10
805.5474605128854
 20
30.56040589860233
 42
1.0
 10
805.5474605128854
 20
30.64910332696559
 42
1.0
 10
805.5291326049039
 20
30.72897442069564
 42
1.0
 10
805.5208368149756
 20
30.82669110903925
 42
1.0
 97
        0
 72
     1
 10
805.5208368149756
 20
30.82669110903925
 11
810.1055147652182
 21
30.82669110903925
 72
     4
 94
        3
 73
     1
 74
     0
 95
        8
 96
        4
 40
7.0
 40
7.0
 40
7.0
 40
7.0
 40
8.0
 40
8.0
 40
8.0
 40
8.0
 10
810.1055147652182
 20
30.82669110903925
 42
1.0
 10
810.0956755725124
 20
30.72897442069564
 42
1.0
 10
810.0787946046346
 20
30.64910332696559
 42
1.0
 10
810.0787946046346
 20
30.56040589860233
 42
1.0
 97
        0
 72
     4
 94
        3
 73
     1
 74
     0
 95
        8
 96
        4
 40
8.0
 40
8.0
 40
8.0
 40
8.0
 40
9.0
 40
9.0
 40
9.0
 40
9.0
 10
810.0787946046346
 20
30.56040589860233
 42
1.0
 10
810.0787946046346
 20
30.4709367688504
 42
1.0
 10
810.0956755725124
 20
30.38310750454946
 42
1.0
 10
810.1055147652182
 20
30.29407245682864
 42
1.0
 97
        0
 97
        0
 75
     0
 76
     1
 98
        1
 10
434.9042564707825
 20
7.868239936922532
  0
HATCH
  5
4DF6
330
A
100
AcDbEntity
  8
997-図枠_文字
  6
Continuous
 62
     7
100
AcDbHatch
 10
0.0
 20
0.0
 30
0.0
210
0.0
220
0.0
230
1.0
  2
SOLID
 70
     1
 71
     0
 91
        1
 92
        0
 93
       20
 72
     4
 94
        3
 73
     1
 74
     0
 95
        8
 96
        4
 40
16.0
 40
16.0
 40
16.0
 40
16.0
 40
17.0
 40
17.0
 40
17.0
 40
17.0
 10
814.2272683449171
 20
30.29407245682864
 42
1.0
 10
813.961224291164
 20
30.34703046462793
 42
1.0
 10
813.6938297599809
 20
30.3737988565483
 42
1.0
 10
813.4280750942487
 20
30.39116213779398
 42
1.0
 97
        0
 72
     1
 10
813.4280750942487
 20
30.39116213779398
 11
812.5406184972483
 21
30.40881480706038
 72
     1
 10
812.5406184972483
 20
30.40881480706037
 11
811.8548653507182
 21
30.40881480706037
 72
     1
 10
811.8548653507182
 20
30.40881480706037
 11
811.8548653507182
 21
28.17951418912812
 72
     1
 10
811.8548653507182
 20
28.17951418912812
 11
813.2325452548878
 21
28.17951418912812
 72
     4
 94
        3
 73
     1
 74
     0
 95
        8
 96
        4
 40
1.0
 40
1.0
 40
1.0
 40
1.0
 40
2.0
 40
2.0
 40
2.0
 40
2.0
 10
813.232545254888
 20
28.17951418912812
 42
1.0
 10
813.4983963832938
 20
28.17951418912812
 42
1.0
 10
813.7565304978123
 20
28.21472306498736
 42
1.0
 10
814.0228639395862
 20
28.22374232496775
 42
1.0
 97
        0
 72
     4
 94
        3
 73
     1
 74
     0
 95
        8
 96
        4
 40
2.0
 40
2.0
 40
2.0
 40
2.0
 40
3.0
 40
3.0
 40
3.0
 40
3.0
 10
814.0228639395862
 20
28.22374232496775
 42
1.0
 10
814.0150504630255
 20
28.15260110319734
 42
1.0
 10
813.996722555044
 20
28.07311586016165
 42
1.0
 10
813.996722555044
 20
27.99338946044202
 42
1.0
 97
        0
 72
     4
 94
        3
 73
     1
 74
     0
 95
        8
 96
        4
 40
3.0
 40
3.0
 40
3.0
 40
3.0
 40
4.0
 40
4.0
 40
4.0
 40
4.0
 10
813.996722555044
 20
27.99338946044202
 42
1.0
 10
813.996722555044
 20
27.92123538059893
 42
1.0
 10
814.0150504630255
 20
27.84083374216421
 42
1.0
 10
814.0228639395862
 20
27.74393698654603
 42
1.0
 97
        0
 72
     4
 94
        3
 73
     1
 74
     0
 95
        8
 96
        4
 40
4.0
 40
4.0
 40
4.0
 40
4.0
 40
5.0
 40
5.0
 40
5.0
 40
5.0
 10
814.0228639395862
 20
27.74393698654603
 42
1.0
 10
813.7565304978123
 20
27.75411379860948
 42
1.0
 10
813.4983963832938
 20
27.78845451040643
 42
1.0
 10
813.232545254888
 20
27.78845451040643
 42
1.0
 97
        0
 72
     1
 10
813.232545254888
 20
27.78845451040643
 11
811.8548653507185
 21
27.78845451040643
 72
     1
 10
811.8548653507182
 20
27.78845451040643
 11
811.8548653507182
 21
25.19365682225305
 72
     4
 94
        3
 73
     1
 74
     0
 95
        8
 96
        4
 40
7.0
 40
7.0
 40
7.0
 40
7.0
 40
8.0
 40
8.0
 40
8.0
 40
8.0
 10
811.8548653507182
 20
25.19365682225305
 42
1.0
 10
812.3970820389509
 20
25.17561830229226
 42
1.0
 10
812.9297489224982
 20
25.21198473023457
 42
1.0
 10
813.4640556714967
 20
25.22944447415385
 42
1.0
 97
        0
 72
     4
 94
        3
 73
     1
 74
     0
 95
        8
 96
        4
 40
8.0
 40
8.0
 40
8.0
 40
8.0
 40
9.0
 40
9.0
 40
9.0
 40
9.0
 10
813.4640556714967
 20
25.22944447415385
 42
1.0
 10
813.7387813658725
 20
25.23860842814461
 42
1.0
 10
814.0058865090348
 20
25.26542505140178
 42
1.0
 10
814.280805128758
 20
25.30941203055745
 42
1.0
 97
        0
 72
     4
 94
        3
 73
     1
 74
     0
 95
        8
 96
        4
 40
9.0
 40
9.0
 40
9.0
 40
9.0
 40
10.0
 40
10.0
 40
10.0
 40
10.0
 10
814.280805128758
 20
25.30941203055745
 42
1.0
 10
814.2722199508087
 20
25.21198473023457
 42
1.0
 10
814.2547602068894
 20
25.13134193511586
 42
1.0
 10
814.2547602068894
 20
25.0422104247215
 42
1.0
 97
        0
 72
     4
 94
        3
 73
     1
 74
     0
 95
        8
 96
        4
 40
10.0
 40
10.0
 40
10.0
 40
10.0
 40
11.0
 40
11.0
 40
11.0
 40
11.0
 10
814.2547602068894
 20
25.0422104247215
 42
1.0
 10
814.2547602068894
 20
24.95423646641014
 42
1.0
 10
814.2722199508087
 20
24.86491203066859
 42
1.0
 10
814.280805128758
 20
24.77558759492701
 42
1.0
 97
        0
 72
     1
 10
814.280805128758
 20
24.77558759492701
 11
811.0736141573375
 21
24.77558759492701
 72
     1
 10
811.0736141573375
 20
24.77558759492701
 11
811.0736141573375
 21
30.82669110903925
 72
     1
 10
811.0736141573375
 20
30.82669110903925
 11
814.2272683449171
 21
30.82669110903925
 72
     4
 94
        3
 73
     1
 74
     0
 95
        8
 96
        4
 40
14.0
 40
14.0
 40
14.0
 40
14.0
 40
15.0
 40
15.0
 40
15.0
 40
15.0
 10
814.2272683449171
 20
30.82669110903925
 42
1.0
 10
814.2195513310301
 20
30.72897442069564
 42
1.0
 10
814.2009340350278
 20
30.64910332696559
 42
1.0
 10
814.2009340350278
 20
30.56040589860233
 42
1.0
 97
        0
 72
     4
 94
        3
 73
     1
 74
     0
 95
        8
 96
        4
 40
15.0
 40
15.0
 40
15.0
 40
15.0
 40
16.0
 40
16.0
 40
16.0
 40
16.0
 10
814.2009340350278
 20
30.56040589860233
 42
1.0
 10
814.2009340350278
 20
30.4709367688504
 42
1.0
 10
814.2195513310301
 20
30.38310750454946
 42
1.0
 10
814.2272683449171
 20
30.29407245682864
 42
1.0
 97
        0
 97
        0
 75
     0
 76
     1
 98
        1
 10
434.9042564707825
 20
7.868239936922532
  0
HATCH
  5
4DF7
330
A
100
AcDbEntity
  8
997-図枠_文字
  6
Continuous
 62
     7
100
AcDbHatch
 10
0.0
 20
0.0
 30
0.0
210
0.0
220
0.0
230
1.0
  2
SOLID
 70
     1
 71
     0
 91
        1
 92
        0
 93
       11
 72
     4
 94
        3
 73
     1
 74
     0
 95
        8
 96
        4
 40
9.0
 40
9.0
 40
9.0
 40
9.0
 40
10.0
 40
10.0
 40
10.0
 40
10.0
 10
818.3141988994507
 20
24.98954180494296
 42
1.0
 10
819.2740989643154
 20
24.98954180494296
 42
1.0
 10
820.020141281837
 20
25.55847865375907
 42
1.0
 10
820.1985007652994
 20
25.70934627524915
 42
1.0
 97
        0
 72
     1
 10
820.1985007652994
 20
25.70934627524915
 11
820.1538385474286
 21
25.14928399240303
 72
     4
 94
        3
 73
     1
 74
     0
 95
        8
 96
        4
 40
0.0
 40
0.0
 40
0.0
 40
0.0
 40
1.0
 40
1.0
 40
1.0
 40
1.0
 10
820.1538385474282
 20
25.14928399240304
 42
1.0
 10
819.5946444286448
 20
24.77558759492701
 42
1.0
 10
818.8659653923685
 20
24.64285495607134
 42
1.0
 10
818.1903408265653
 20
24.64285495607134
 42
1.0
 97
        0
 72
     4
 94
        3
 73
     1
 74
     0
 95
        8
 96
        4
 40
1.0
 40
1.0
 40
1.0
 40
1.0
 40
2.0
 40
2.0
 40
2.0
 40
2.0
 10
818.1903408265653
 20
24.64285495607134
 42
1.0
 10
816.2362964477134
 20
24.64285495607134
 42
1.0
 10
815.0626350981804
 20
25.87748071531126
 42
1.0
 10
815.0626350981804
 20
27.82409746829685
 42
1.0
 97
        0
 72
     4
 94
        3
 73
     1
 74
     0
 95
        8
 96
        4
 40
2.0
 40
2.0
 40
2.0
 40
2.0
 40
3.0
 40
3.0
 40
3.0
 40
3.0
 10
815.0626350981804
 20
27.82409746829685
 42
1.0
 10
815.0626350981804
 20
29.8227558336826
 42
1.0
 10
816.5373564519782
 20
30.95961667324214
 42
1.0
 10
818.4126872891832
 20
30.95961667324214
 42
1.0
 97
        0
 72
     4
 94
        3
 73
     1
 74
     0
 95
        8
 96
        4
 40
3.0
 40
3.0
 40
3.0
 40
3.0
 40
4.0
 40
4.0
 40
4.0
 40
4.0
 10
818.4126872891832
 20
30.95961667324214
 42
1.0
 10
819.0609164556877
 20
30.95961667324214
 42
1.0
 10
819.7276664555212
 20
30.80971367848795
 42
1.0
 10
820.3227446888793
 20
30.55182072065309
 42
1.0
 97
        0
 72
     4
 94
        3
 73
     1
 74
     0
 95
        8
 96
        4
 40
4.0
 40
4.0
 40
4.0
 40
4.0
 40
5.0
 40
5.0
 40
5.0
 40
5.0
 10
820.3227446888793
 20
30.55182072065309
 42
1.0
 10
820.2333237904642
 20
30.32947425803507
 42
1.0
 10
820.1809445587064
 20
30.09839792345743
 42
1.0
 10
820.1362823408356
 20
29.86654988749108
 42
1.0
 97
        0
 72
     1
 10
820.1362823408356
 20
29.86654988749108
 11
820.0736780656778
 21
29.85810940355222
 72
     4
 94
        3
 73
     1
 74
     0
 95
        8
 96
        4
 40
6.0
 40
6.0
 40
6.0
 40
6.0
 40
7.0
 40
7.0
 40
7.0
 40
7.0
 10
820.0736780656778
 20
29.85810940355221
 42
1.0
 10
819.9494341420975
 20
30.01867152373777
 42
1.0
 10
819.2917516335815
 20
30.62238316638198
 42
1.0
 10
818.3771890253031
 20
30.62238316638198
 42
1.0
 97
        0
 72
     4
 94
        3
 73
     1
 74
     0
 95
        8
 96
        4
 40
7.0
 40
7.0
 40
7.0
 40
7.0
 40
8.0
 40
8.0
 40
8.0
 40
8.0
 10
818.3771890253031
 20
30.62238316638198
 42
1.0
 10
816.742243170677
 20
30.62238316638198
 42
1.0
 10
815.9335001153236
 20
29.2981918147165
 42
1.0
 10
815.9335001153236
 20
27.78845451040643
 42
1.0
 97
        0
 72
     4
 94
        3
 73
     1
 74
     0
 95
        8
 96
        4
 40
8.0
 40
8.0
 40
8.0
 40
8.0
 40
9.0
 40
9.0
 40
9.0
 40
9.0
 10
815.9335001153236
 20
27.78845451040643
 42
1.0
 10
815.9335001153236
 20
26.08169219529493
 42
1.0
 10
816.9104740734128
 20
24.98954180494296
 42
1.0
 10
818.3141988994507
 20
24.98954180494296
 42
1.0
 97
        0
 97
        0
 75
     0
 76
     1
 98
        1
 10
434.9042564707825
 20
7.868239936922532
  0
HATCH
  5
4DF8
330
A
100
AcDbEntity
  8
997-図枠_文字
  6
Continuous
 62
     7
100
AcDbHatch
 10
0.0
 20
0.0
 30
0.0
210
0.0
220
0.0
230
1.0
  2
SOLID
 70
     1
 71
     0
 91
        1
 92
        0
 93
        8
 72
     1
 10
788.6376502957587
 20
22.53856996310779
 11
788.6376502957587
 21
22.26442304477355
 72
     1
 10
788.6376502957587
 20
22.26442304477355
 11
788.0598388809726
 21
22.26442304477355
 72
     1
 10
788.0598388809726
 20
22.26442304477355
 11
788.0598388809726
 21
20.72256367015904
 72
     1
 10
788.0598388809726
 20
20.72256367015903
 11
787.7417049834828
 21
20.72256367015903
 72
     1
 10
787.7417049834828
 20
20.72256367015903
 11
787.7417049834828
 21
22.26442304477354
 72
     1
 10
787.7417049834828
 20
22.26442304477355
 11
787.166594523557
 21
22.26442304477355
 72
     1
 10
787.1665945235573
 20
22.26442304477355
 11
787.1665945235573
 21
22.53856996310779
 72
     1
 10
787.1665945235573
 20
22.53856996310779
 11
788.6376502957589
 21
22.53856996310779
 97
        0
 75
     0
 76
     1
 98
        1
 10
434.9042564707825
 20
7.868239936922532
  0
HATCH
  5
4DF9
330
A
100
AcDbEntity
  8
997-図枠_文字
  6
Continuous
 62
     7
100
AcDbHatch
 10
0.0
 20
0.0
 30
0.0
210
0.0
220
0.0
230
1.0
  2
SOLID
 70
     1
 71
     0
 91
        2
 92
        0
 93
        8
 72
     1
 10
789.100237046945
 20
22.53856996310779
 11
788.4033424616158
 21
20.72256367015904
 72
     1
 10
788.4033424616159
 20
20.72256367015903
 11
788.7317978651798
 21
20.72256367015903
 72
     1
 10
788.7317978651799
 20
20.72256367015903
 11
788.9029226481232
 21
21.20275485927509
 72
     1
 10
788.902922648123
 20
21.20275485927509
 11
789.6274055580981
 21
21.20275485927509
 72
     1
 10
789.6274055580982
 20
21.20275485927509
 11
789.7980480276738
 21
20.72256367015903
 72
     1
 10
789.7980480276738
 20
20.72256367015903
 11
790.1393811981613
 21
20.72256367015903
 72
     1
 10
790.1393811981611
 20
20.72256367015903
 11
789.4392551132667
 21
22.53856996310778
 72
     1
 10
789.4392551132669
 20
22.53856996310779
 11
789.1002370469453
 21
22.53856996310779
 97
        0
 92
        0
 93
        4
 72
     1
 10
789.5438688827719
 20
21.44468324463128
 11
788.9885815022684
 21
21.44468324463128
 72
     1
 10
788.9885815022685
 20
21.44468324463128
 11
789.2639824353591
 21
22.22622382603309
 72
     1
 10
789.2639824353591
 20
22.2262238260331
 11
789.2710242105311
 21
22.2262238260331
 72
     1
 10
789.2710242105311
 20
22.2262238260331
 11
789.543868882772
 21
21.44468324463129
 97
        0
 75
     0
 76
     1
 98
        1
 10
434.9042564707825
 20
7.868239936922532
  0
HATCH
  5
4DFA
330
A
100
AcDbEntity
  8
997-図枠_文字
  6
Continuous
 62
     7
100
AcDbHatch
 10
0.0
 20
0.0
 30
0.0
210
0.0
220
0.0
230
1.0
  2
SOLID
 70
     1
 71
     0
 91
        1
 92
        0
 93
       12
 72
     1
 10
791.4392639560829
 20
22.53856996310779
 11
791.8309988735195
 21
22.53856996310779
 72
     1
 10
791.8309988735195
 20
22.53856996310779
 11
791.1058407248294
 21
21.81432820981664
 72
     1
 10
791.1058407248292
 20
21.81432820981663
 11
791.8815935458158
 21
20.72256367015903
 72
     1
 10
791.881593545816
 20
20.72256367015903
 11
791.4850354946998
 21
20.72256367015903
 72
     1
 10
791.4850354946996
 20
20.72256367015903
 11
790.8897161046575
 21
21.58995603105328
 72
     1
 10
790.8897161046575
 20
21.58995603105328
 11
790.6298938933509
 21
21.33201484188166
 72
     1
 10
790.629893893351
 20
21.33201484188167
 11
790.629893893351
 21
20.72256367015904
 72
     1
 10
790.629893893351
 20
20.72256367015903
 11
790.3119529212083
 21
20.72256367015903
 72
     1
 10
790.3119529212081
 20
20.72256367015903
 11
790.3119529212081
 21
22.53856996310778
 72
     1
 10
790.3119529212081
 20
22.53856996310779
 11
790.6298938933508
 21
22.53856996310779
 72
     1
 10
790.629893893351
 20
22.53856996310779
 11
790.629893893351
 21
21.7122707011616
 72
     1
 10
790.629893893351
 20
21.7122707011616
 11
791.4392639560829
 21
22.53856996310779
 97
        0
 75
     0
 76
     1
 98
        1
 10
434.9042564707825
 20
7.868239936922532
  0
HATCH
  5
4DFB
330
A
100
AcDbEntity
  8
997-図枠_文字
  6
Continuous
 62
     7
100
AcDbHatch
 10
0.0
 20
0.0
 30
0.0
210
0.0
220
0.0
230
1.0
  2
SOLID
 70
     1
 71
     0
 91
        2
 92
        0
 93
        8
 72
     1
 10
792.5410606137934
 20
22.53856996310779
 11
791.8440213344539
 21
20.72256367015904
 72
     1
 10
791.8440213344538
 20
20.72256367015903
 11
792.1719461933128
 21
20.72256367015903
 72
     1
 10
792.1719461933128
 20
20.72256367015903
 11
792.3422992748675
 21
21.20275485927509
 72
     1
 10
792.3422992748676
 20
21.20275485927509
 11
793.0671198042003
 21
21.20275485927509
 72
     1
 10
793.0671198042
 20
21.20275485927509
 11
793.237617579765
 21
20.72256367015903
 72
     1
 10
793.2376175797651
 20
20.72256367015903
 11
793.5791919069367
 21
20.72256367015903
 72
     1
 10
793.5791919069366
 20
20.72256367015903
 11
792.8789693593685
 21
22.53856996310778
 72
     1
 10
792.8789693593685
 20
22.53856996310779
 11
792.5410606137932
 21
22.53856996310779
 97
        0
 92
        0
 93
        4
 72
     1
 10
792.9832455095161
 20
21.44468324463128
 11
792.4283922110437
 21
21.44468324463128
 72
     1
 10
792.428392211044
 20
21.44468324463128
 11
792.7033590621036
 21
22.22622382603309
 72
     1
 10
792.7033590621036
 20
22.2262238260331
 11
792.7110278446538
 21
22.2262238260331
 72
     1
 10
792.7110278446537
 20
22.2262238260331
 11
792.9832455095161
 21
21.44468324463129
 97
        0
 75
     0
 76
     1
 98
        1
 10
434.9042564707825
 20
7.868239936922532
  0
HATCH
  5
4DFC
330
A
100
AcDbEntity
  8
997-図枠_文字
  6
Continuous
 62
     7
100
AcDbHatch
 10
0.0
 20
0.0
 30
0.0
210
0.0
220
0.0
230
1.0
  2
SOLID
 70
     1
 71
     0
 91
        1
 92
        0
 93
       16
 72
     4
 94
        3
 73
     1
 74
     0
 95
        8
 96
        4
 40
14.0
 40
14.0
 40
14.0
 40
14.0
 40
15.0
 40
15.0
 40
15.0
 40
15.0
 10
794.4007644978769
 20
20.67876961635054
 42
1.0
 10
793.9863608521475
 20
20.67876961635054
 42
1.0
 10
793.649899046676
 20
20.87728979859255
 42
1.0
 10
793.6426643461568
 20
21.32854218563252
 42
1.0
 97
        0
 72
     1
 10
793.6426643461568
 20
21.32854218563252
 11
793.9603641616156
 21
21.32854218563252
 72
     4
 94
        3
 73
     1
 74
     0
 95
        8
 96
        4
 40
0.0
 40
0.0
 40
0.0
 40
0.0
 40
1.0
 40
1.0
 40
1.0
 40
1.0
 10
793.9603641616154
 20
21.32854218563252
 42
1.0
 10
793.9603641616154
 20
21.04764288014717
 42
1.0
 10
794.1667942830918
 20
20.93825420829953
 42
1.0
 10
794.4211663533408
 20
20.93825420829953
 42
1.0
 97
        0
 72
     4
 94
        3
 73
     1
 74
     0
 95
        8
 96
        4
 40
1.0
 40
1.0
 40
1.0
 40
1.0
 40
2.0
 40
2.0
 40
2.0
 40
2.0
 10
794.4211663533408
 20
20.93825420829953
 42
1.0
 10
794.701390420111
 20
20.93825420829953
 42
1.0
 10
794.8048948688697
 20
21.07658168222331
 42
1.0
 10
794.8048948688697
 20
21.21375160406401
 42
1.0
 97
        0
 72
     4
 94
        3
 73
     1
 74
     0
 95
        8
 96
        4
 40
2.0
 40
2.0
 40
2.0
 40
2.0
 40
3.0
 40
3.0
 40
3.0
 40
3.0
 10
794.8048948688697
 20
21.21375160406401
 42
1.0
 10
794.8048948688697
 20
21.35342955541801
 42
1.0
 10
794.7288822820833
 20
21.41014960748712
 42
1.0
 10
794.6549436427788
 20
21.43754500678583
 42
1.0
 97
        0
 72
     4
 94
        3
 73
     1
 74
     0
 95
        8
 96
        4
 40
3.0
 40
3.0
 40
3.0
 40
3.0
 40
4.0
 40
4.0
 40
4.0
 40
4.0
 10
794.6549436427788
 20
21.43754500678583
 42
1.0
 10
794.527854070328
 20
21.48616219427367
 42
1.0
 10
794.3625170477999
 20
21.5179948765574
 42
1.0
 10
794.1129681112302
 20
21.58744800154003
 42
1.0
 97
        0
 72
     4
 94
        3
 73
     1
 74
     0
 95
        8
 96
        4
 40
4.0
 40
4.0
 40
4.0
 40
4.0
 40
5.0
 40
5.0
 40
5.0
 40
5.0
 10
794.1129681112302
 20
21.58744800154003
 42
1.0
 10
793.8030335409951
 20
21.67156345290787
 42
1.0
 10
793.7114422324244
 20
21.86043736779123
 42
1.0
 10
793.7114422324244
 20
22.04757495454998
 42
1.0
 97
        0
 72
     4
 94
        3
 73
     1
 74
     0
 95
        8
 96
        4
 40
5.0
 40
5.0
 40
5.0
 40
5.0
 40
6.0
 40
6.0
 40
6.0
 40
6.0
 10
793.7114422324244
 20
22.04757495454998
 42
1.0
 10
793.7114422324244
 20
22.4116250846673
 42
1.0
 10
794.0470841051704
 20
22.58294279295783
 42
1.0
 10
794.3752018893765
 20
22.58294279295783
 42
1.0
 97
        0
 72
     4
 94
        3
 73
     1
 74
     0
 95
        8
 96
        4
 40
6.0
 40
6.0
 40
6.0
 40
6.0
 40
7.0
 40
7.0
 40
7.0
 40
7.0
 10
794.3752018893765
 20
22.58294279295783
 42
1.0
 10
794.7542519652366
 20
22.58294279295783
 42
1.0
 10
795.0728681760945
 20
22.38094995446667
 42
1.0
 10
795.0728681760945
 20
22.00204457261693
 42
1.0
 97
        0
 72
     1
 10
795.0728681760945
 20
22.00204457261693
 11
794.7542519652367
 21
22.00204457261693
 72
     4
 94
        3
 73
     1
 74
     0
 95
        8
 96
        4
 40
8.0
 40
8.0
 40
8.0
 40
8.0
 40
9.0
 40
9.0
 40
9.0
 40
9.0
 10
794.7542519652366
 20
22.00204457261693
 42
1.0
 10
794.7388179374627
 20
22.23683472012765
 42
1.0
 10
794.581053234811
 20
22.32326527566163
 42
1.0
 10
794.3625170477999
 20
22.32326527566163
 42
1.0
 97
        0
 72
     4
 94
        3
 73
     1
 74
     0
 95
        8
 96
        4
 40
9.0
 40
9.0
 40
9.0
 40
9.0
 40
10.0
 40
10.0
 40
10.0
 40
10.0
 10
794.3625170477999
 20
22.32326527566163
 42
1.0
 10
794.2150256198854
 20
22.32326527566163
 42
1.0
 10
794.0292867418934
 20
22.26943910380007
 42
1.0
 10
794.0292867418934
 20
22.08635294933197
 42
1.0
 97
        0
 72
     4
 94
        3
 73
     1
 74
     0
 95
        8
 96
        4
 40
10.0
 40
10.0
 40
10.0
 40
10.0
 40
11.0
 40
11.0
 40
11.0
 40
11.0
 10
794.0292867418934
 20
22.08635294933197
 42
1.0
 10
794.0292867418934
 20
21.95902222019713
 42
1.0
 10
794.1158619914379
 20
21.8872539910484
 42
1.0
 10
794.245218436718
 20
21.85214157786272
 42
1.0
 97
        0
 72
     4
 94
        3
 73
     1
 74
     0
 95
        8
 96
        4
 40
11.0
 40
11.0
 40
11.0
 40
11.0
 40
12.0
 40
12.0
 40
12.0
 40
12.0
 10
794.245218436718
 20
21.85214157786272
 42
1.0
 10
794.2739643134469
 20
21.84423163862862
 42
1.0
 10
794.6753454982427
 20
21.74082365254335
 42
1.0
 10
794.769348373653
 20
21.7122707011616
 42
1.0
 97
        0
 72
     4
 94
        3
 73
     1
 74
     0
 95
        8
 96
        4
 40
12.0
 40
12.0
 40
12.0
 40
12.0
 40
13.0
 40
13.0
 40
13.0
 40
13.0
 10
794.769348373653
 20
21.7122707011616
 42
1.0
 10
795.0086240354856
 20
21.64088832270723
 42
1.0
 10
795.1228840723493
 20
21.43754500678583
 42
1.0
 10
795.1228840723493
 20
21.24886401724969
 42
1.0
 97
        0
 72
     4
 94
        3
 73
     1
 74
     0
 95
        8
 96
        4
 40
13.0
 40
13.0
 40
13.0
 40
13.0
 40
14.0
 40
14.0
 40
14.0
 40
14.0
 10
795.1228840723493
 20
21.24886401724969
 42
1.0
 10
795.1228840723493
 20
20.84198446005972
 42
1.0
 10
794.7618242851131
 20
20.67876961635054
 42
1.0
 10
794.4007644978769
 20
20.67876961635054
 42
1.0
 97
        0
 97
        0
 75
     0
 76
     1
 98
        1
 10
434.9042564707825
 20
7.868239936922532
  0
HATCH
  5
4DFD
330
A
100
AcDbEntity
  8
997-図枠_文字
  6
Continuous
 62
     7
100
AcDbHatch
 10
0.0
 20
0.0
 30
0.0
210
0.0
220
0.0
230
1.0
  2
SOLID
 70
     1
 71
     0
 91
        1
 92
        0
 93
       12
 72
     1
 10
795.392497245025
 20
20.72256367015903
 11
795.392497245025
 21
22.53856996310778
 72
     1
 10
795.392497245025
 20
22.53856996310779
 11
795.7115957692506
 21
22.53856996310779
 72
     1
 10
795.7115957692508
 20
22.53856996310779
 11
795.7115957692508
 21
21.81606453794121
 72
     1
 10
795.7115957692508
 20
21.8160645379412
 11
796.5382808818915
 21
21.8160645379412
 72
     1
 10
796.5382808818913
 20
21.8160645379412
 11
796.5382808818913
 21
22.53856996310778
 72
     1
 10
796.5382808818913
 20
22.53856996310779
 11
796.8557877720027
 21
22.53856996310779
 72
     1
 10
796.8557877720027
 20
22.53856996310779
 11
796.8557877720027
 21
20.72256367015904
 72
     1
 10
796.8557877720027
 20
20.72256367015903
 11
796.5382808818913
 21
20.72256367015903
 72
     1
 10
796.5382808818913
 20
20.72256367015903
 11
796.5382808818913
 21
21.54230347030131
 72
     1
 10
796.5382808818913
 20
21.54230347030132
 11
795.7115957692506
 21
21.54230347030132
 72
     1
 10
795.7115957692508
 20
21.54230347030132
 11
795.7115957692508
 21
20.72256367015904
 72
     1
 10
795.7115957692508
 20
20.72256367015903
 11
795.3924972450252
 21
20.72256367015903
 97
        0
 75
     0
 76
     1
 98
        1
 10
434.9042564707825
 20
7.868239936922532
  0
HATCH
  5
4DFE
330
A
100
AcDbEntity
  8
997-図枠_文字
  6
Continuous
 62
     7
100
AcDbHatch
 10
0.0
 20
0.0
 30
0.0
210
0.0
220
0.0
230
1.0
  2
SOLID
 70
     1
 71
     0
 91
        2
 92
        0
 93
        2
 72
     4
 94
        3
 73
     1
 74
     0
 95
       11
 96
        7
 40
0.0
 40
0.0
 40
0.0
 40
0.0
 40
1.0
 40
1.0
 40
1.0
 40
2.0
 40
2.0
 40
2.0
 40
2.0
 10
798.0110247508808
 20
22.58294279295783
 42
1.0
 10
797.4660106451142
 20
22.58294279295783
 42
1.0
 10
797.1410278977996
 20
22.14963246320501
 42
1.0
 10
797.1410278977996
 20
21.63027742861265
 42
1.0
 10
797.1410278977996
 20
21.1122728714505
 42
1.0
 10
797.4660106451142
 20
20.67876961635054
 42
1.0
 10
798.0110247508808
 20
20.67876961635054
 42
1.0
 97
        0
 72
     4
 94
        3
 73
     1
 74
     0
 95
       11
 96
        7
 40
2.0
 40
2.0
 40
2.0
 40
2.0
 40
3.0
 40
3.0
 40
3.0
 40
4.0
 40
4.0
 40
4.0
 40
4.0
 10
798.0110247508808
 20
20.67876961635054
 42
1.0
 10
798.5550742299115
 20
20.67876961635054
 42
1.0
 10
798.8809251412883
 20
21.1122728714505
 42
1.0
 10
798.8809251412883
 20
21.63027742861265
 42
1.0
 10
798.8809251412883
 20
22.14963246320501
 42
1.0
 10
798.5550742299115
 20
22.58294279295783
 42
1.0
 10
798.0110247508808
 20
22.58294279295783
 42
1.0
 97
        0
 97
        0
 92
        0
 93
        2
 72
     4
 94
        3
 73
     1
 74
     0
 95
       11
 96
        7
 40
2.0
 40
2.0
 40
2.0
 40
2.0
 40
3.0
 40
3.0
 40
3.0
 40
4.0
 40
4.0
 40
4.0
 40
4.0
 10
798.0110247508808
 20
20.93825420829953
 42
1.0
 10
797.620929698895
 20
20.93825420829953
 42
1.0
 10
797.4586794819215
 20
21.28262595300512
 42
1.0
 10
797.4586794819215
 20
21.63027742861265
 42
1.0
 10
797.4586794819215
 20
21.97908645630323
 42
1.0
 10
797.620929698895
 20
22.32326527566163
 42
1.0
 10
798.0110247508808
 20
22.32326527566163
 42
1.0
 97
        0
 72
     4
 94
        3
 73
     1
 74
     0
 95
       11
 96
        7
 40
0.0
 40
0.0
 40
0.0
 40
0.0
 40
1.0
 40
1.0
 40
1.0
 40
2.0
 40
2.0
 40
2.0
 40
2.0
 10
798.0110247508808
 20
22.32326527566163
 42
1.0
 10
798.4002516388043
 20
22.32326527566163
 42
1.0
 10
798.5625018557776
 20
21.97908645630323
 42
1.0
 10
798.5625018557776
 20
21.63027742861265
 42
1.0
 10
798.5625018557776
 20
21.28262595300512
 42
1.0
 10
798.4002516388043
 20
20.93825420829953
 42
1.0
 10
798.0110247508808
 20
20.93825420829953
 42
1.0
 97
        0
 97
        0
 75
     0
 76
     1
 98
        1
 10
434.9042564707825
 20
7.868239936922532
  0
HATCH
  5
4DFF
330
A
100
AcDbEntity
  8
997-図枠_文字
  6
Continuous
 62
     7
100
AcDbHatch
 10
0.0
 20
0.0
 30
0.0
210
0.0
220
0.0
230
1.0
  2
SOLID
 70
     1
 71
     0
 91
        2
 92
        0
 93
        5
 72
     4
 94
        3
 73
     1
 74
     0
 95
        8
 96
        4
 40
2.0
 40
2.0
 40
2.0
 40
2.0
 40
3.0
 40
3.0
 40
3.0
 40
3.0
 10
801.4329416337059
 20
21.63027742861265
 42
1.0
 10
801.4329416337059
 20
22.13207625661219
 42
1.0
 10
801.1911097110233
 20
22.53856996310779
 42
1.0
 10
800.6308545028301
 20
22.53856996310779
 42
1.0
 97
        0
 72
     1
 10
800.6308545028301
 20
22.53856996310779
 11
799.8781562608306
 21
22.53856996310779
 72
     1
 10
799.8781562608306
 20
22.53856996310779
 11
799.8781562608306
 21
20.72256367015904
 72
     1
 10
799.8781562608306
 20
20.72256367015903
 11
800.6308545028301
 21
20.72256367015903
 72
     4
 94
        3
 73
     1
 74
     0
 95
        8
 96
        4
 40
1.0
 40
1.0
 40
1.0
 40
1.0
 40
2.0
 40
2.0
 40
2.0
 40
2.0
 10
800.6308545028301
 20
20.72256367015903
 42
1.0
 10
801.1911097110233
 20
20.72256367015903
 42
1.0
 10
801.4329416337059
 20
21.12925030200179
 42
1.0
 10
801.4329416337059
 20
21.63027742861265
 42
1.0
 97
        0
 97
        0
 92
        0
 93
        5
 72
     4
 94
        3
 73
     1
 74
     0
 95
        8
 96
        4
 40
1.0
 40
1.0
 40
1.0
 40
1.0
 40
2.0
 40
2.0
 40
2.0
 40
2.0
 10
800.5095044594575
 20
22.27927829650594
 42
1.0
 10
801.0074447805137
 20
22.27927829650594
 42
1.0
 10
801.1148077362159
 20
21.99490633477147
 42
1.0
 10
801.1148077362159
 20
21.63027742861265
 42
1.0
 97
        0
 72
     4
 94
        3
 73
     1
 74
     0
 95
        8
 96
        4
 40
2.0
 40
2.0
 40
2.0
 40
2.0
 40
3.0
 40
3.0
 40
3.0
 40
3.0
 10
801.1148077362159
 20
21.63027742861265
 42
1.0
 10
801.1148077362159
 20
21.26757777592555
 42
1.0
 10
801.0074447805137
 20
20.9822411874552
 42
1.0
 10
800.5095044594575
 20
20.9822411874552
 42
1.0
 97
        0
 72
     1
 10
800.5095044594575
 20
20.9822411874552
 11
800.1962901583206
 21
20.9822411874552
 72
     1
 10
800.1962901583206
 20
20.9822411874552
 11
800.1962901583206
 21
22.27927829650593
 72
     1
 10
800.1962901583206
 20
22.27927829650594
 11
800.5095044594575
 21
22.27927829650594
 97
        0
 75
     0
 76
     1
 98
        1
 10
434.9042564707825
 20
7.868239936922532
  0
HATCH
  5
4E00
330
A
100
AcDbEntity
  8
997-図枠_文字
  6
Continuous
 62
     7
100
AcDbHatch
 10
0.0
 20
0.0
 30
0.0
210
0.0
220
0.0
230
1.0
  2
SOLID
 70
     1
 71
     0
 91
        1
 92
        0
 93
        4
 72
     1
 10
801.7153843419685
 20
20.72256367015903
 11
801.7153843419685
 21
22.53856996310778
 72
     1
 10
801.7153843419685
 20
22.53856996310779
 11
802.0335182394583
 21
22.53856996310779
 72
     1
 10
802.0335182394583
 20
22.53856996310779
 11
802.0335182394583
 21
20.72256367015904
 72
     1
 10
802.0335182394583
 20
20.72256367015903
 11
801.7153843419685
 21
20.72256367015903
 97
        0
 75
     0
 76
     1
 98
        1
 10
434.9042564707825
 20
7.868239936922532
  0
HATCH
  5
4E01
330
A
100
AcDbEntity
  8
997-図枠_文字
  6
Continuous
 62
     7
100
AcDbHatch
 10
0.0
 20
0.0
 30
0.0
210
0.0
220
0.0
230
1.0
  2
SOLID
 70
     1
 71
     0
 91
        1
 92
        0
 93
       15
 72
     4
 94
        3
 73
     1
 74
     0
 95
        8
 96
        4
 40
10.0
 40
10.0
 40
10.0
 40
10.0
 40
11.0
 40
11.0
 40
11.0
 40
11.0
 10
803.2087229917688
 20
20.93825420829953
 42
1.0
 10
803.5345739031459
 20
20.93439570135607
 42
1.0
 10
803.7123546105663
 20
21.12925030200179
 42
1.0
 10
803.7176600576138
 20
21.43754500678583
 42
1.0
 97
        0
 72
     1
 10
803.7176600576138
 20
21.43754500678583
 11
803.2335138988807
 21
21.43754500678583
 72
     1
 10
803.2335138988806
 20
21.43754500678583
 11
803.2335138988806
 21
21.67928046679485
 72
     1
 10
803.2335138988806
 20
21.67928046679485
 11
804.0080127051106
 21
21.67928046679485
 72
     1
 10
804.0080127051106
 20
21.67928046679485
 11
804.0080127051106
 21
20.72256367015903
 72
     1
 10
804.0080127051106
 20
20.72256367015903
 11
803.8038976878006
 21
20.72256367015903
 72
     1
 10
803.8038976878006
 20
20.72256367015903
 11
803.7557628136806
 21
20.93613202948064
 72
     4
 94
        3
 73
     1
 74
     0
 95
        8
 96
        4
 40
2.0
 40
2.0
 40
2.0
 40
2.0
 40
3.0
 40
3.0
 40
3.0
 40
3.0
 10
803.7557628136806
 20
20.93613202948065
 42
1.0
 10
803.5851203441055
 20
20.74301375695949
 42
1.0
 10
803.4290437382415
 20
20.67876961635054
 42
1.0
 10
803.2087229917688
 20
20.67876961635054
 42
1.0
 97
        0
 72
     4
 94
        3
 73
     1
 74
     0
 95
        8
 96
        4
 40
3.0
 40
3.0
 40
3.0
 40
3.0
 40
4.0
 40
4.0
 40
4.0
 40
4.0
 10
803.2087229917688
 20
20.67876961635054
 42
1.0
 10
802.6637088860023
 20
20.67876961635054
 42
1.0
 10
802.3382438253198
 20
21.1122728714505
 42
1.0
 10
802.3382438253198
 20
21.63027742861265
 42
1.0
 97
        0
 72
     4
 94
        3
 73
     1
 74
     0
 95
        8
 96
        4
 40
4.0
 40
4.0
 40
4.0
 40
4.0
 40
5.0
 40
5.0
 40
5.0
 40
5.0
 10
802.3382438253198
 20
21.63027742861265
 42
1.0
 10
802.3382438253198
 20
22.14963246320501
 42
1.0
 10
802.6637088860023
 20
22.58294279295783
 42
1.0
 10
803.2087229917688
 20
22.58294279295783
 42
1.0
 97
        0
 72
     4
 94
        3
 73
     1
 74
     0
 95
        8
 96
        4
 40
5.0
 40
5.0
 40
5.0
 40
5.0
 40
6.0
 40
6.0
 40
6.0
 40
6.0
 10
803.2087229917688
 20
22.58294279295783
 42
1.0
 10
803.6049916548643
 20
22.58294279295783
 42
1.0
 10
803.9390418934961
 20
22.37207538849666
 42
1.0
 10
803.9872732302895
 20
21.96153024971037
 42
1.0
 97
        0
 72
     1
 10
803.9872732302895
 20
21.96153024971037
 11
803.6764704959921
 21
21.96153024971037
 72
     4
 94
        3
 73
     1
 74
     0
 95
        8
 96
        4
 40
7.0
 40
7.0
 40
7.0
 40
7.0
 40
8.0
 40
8.0
 40
8.0
 40
8.0
 10
803.6764704959924
 20
21.96153024971037
 42
1.0
 10
803.6462776791593
 20
22.20114353090047
 42
1.0
 10
803.4372430654964
 20
22.32326527566163
 42
1.0
 10
803.2087229917688
 20
22.32326527566163
 42
1.0
 97
        0
 72
     4
 94
        3
 73
     1
 74
     0
 95
        8
 96
        4
 40
8.0
 40
8.0
 40
8.0
 40
8.0
 40
9.0
 40
9.0
 40
9.0
 40
9.0
 10
803.2087229917688
 20
22.32326527566163
 42
1.0
 10
802.8193031784981
 20
22.32326527566163
 42
1.0
 10
802.6563777228098
 20
21.97908645630323
 42
1.0
 10
802.6563777228098
 20
21.63027742861265
 42
1.0
 97
        0
 72
     4
 94
        3
 73
     1
 74
     0
 95
        8
 96
        4
 40
9.0
 40
9.0
 40
9.0
 40
9.0
 40
10.0
 40
10.0
 40
10.0
 40
10.0
 10
802.6563777228098
 20
21.63027742861265
 42
1.0
 10
802.6563777228098
 20
21.28262595300512
 42
1.0
 10
802.8193031784981
 20
20.93825420829953
 42
1.0
 10
803.2087229917688
 20
20.93825420829953
 42
1.0
 97
        0
 97
        0
 75
     0
 76
     1
 98
        1
 10
434.9042564707825
 20
7.868239936922532
  0
HATCH
  5
4E02
330
A
100
AcDbEntity
  8
997-図枠_文字
  6
Continuous
 62
     7
100
AcDbHatch
 10
0.0
 20
0.0
 30
0.0
210
0.0
220
0.0
230
1.0
  2
SOLID
 70
     1
 71
     0
 91
        1
 92
        0
 93
        4
 72
     1
 10
804.3536384645729
 20
20.72256367015903
 11
804.3536384645729
 21
22.53856996310778
 72
     1
 10
804.3536384645729
 20
22.53856996310779
 11
804.6712900486948
 21
22.53856996310779
 72
     1
 10
804.6712900486948
 20
22.53856996310779
 11
804.6712900486948
 21
20.72256367015904
 72
     1
 10
804.6712900486948
 20
20.72256367015903
 11
804.3536384645729
 21
20.72256367015903
 97
        0
 75
     0
 76
     1
 98
        1
 10
434.9042564707825
 20
7.868239936922532
  0
HATCH
  5
4E03
330
A
100
AcDbEntity
  8
997-図枠_文字
  6
Continuous
 62
     7
100
AcDbHatch
 10
0.0
 20
0.0
 30
0.0
210
0.0
220
0.0
230
1.0
  2
SOLID
 70
     1
 71
     0
 91
        1
 92
        0
 93
        8
 72
     1
 10
804.8877522882242
 20
22.26442304477355
 11
804.8877522882242
 21
22.53856996310779
 72
     1
 10
804.8877522882242
 20
22.53856996310779
 11
806.3586151350787
 21
22.53856996310779
 72
     1
 10
806.3586151350787
 20
22.53856996310779
 11
806.3586151350787
 21
22.26442304477355
 72
     1
 10
806.3586151350787
 20
22.26442304477355
 11
805.7808037202926
 21
22.26442304477355
 72
     1
 10
805.7808037202926
 20
22.26442304477355
 11
805.7808037202926
 21
20.72256367015904
 72
     1
 10
805.7808037202926
 20
20.72256367015903
 11
805.4631521361705
 21
20.72256367015903
 72
     1
 10
805.4631521361705
 20
20.72256367015903
 11
805.4631521361705
 21
22.26442304477354
 72
     1
 10
805.4631521361705
 20
22.26442304477355
 11
804.8877522882242
 21
22.26442304477355
 97
        0
 75
     0
 76
     1
 98
        1
 10
434.9042564707825
 20
7.868239936922532
  0
HATCH
  5
4E04
330
A
100
AcDbEntity
  8
997-図枠_文字
  6
Continuous
 62
     7
100
AcDbHatch
 10
0.0
 20
0.0
 30
0.0
210
0.0
220
0.0
230
1.0
  2
SOLID
 70
     1
 71
     0
 91
        1
 92
        0
 93
       12
 72
     1
 10
806.5693860768661
 20
20.72256367015903
 11
806.5693860768661
 21
22.53856996310778
 72
     1
 10
806.5693860768661
 20
22.53856996310779
 11
807.8770340800114
 21
22.53856996310779
 72
     1
 10
807.8770340800115
 20
22.53856996310779
 11
807.8770340800115
 21
22.26442304477355
 72
     1
 10
807.8770340800115
 20
22.26442304477355
 11
806.8879058250507
 21
22.26442304477355
 72
     1
 10
806.8879058250504
 20
22.26442304477355
 11
806.8879058250504
 21
21.78789743725381
 72
     1
 10
806.8879058250504
 20
21.78789743725381
 11
807.8031436720438
 21
21.78789743725381
 72
     1
 10
807.8031436720439
 20
21.78789743725381
 11
807.8031436720439
 21
21.52937747204064
 72
     1
 10
807.8031436720439
 20
21.52937747204064
 11
806.8879058250506
 21
21.52937747204064
 72
     1
 10
806.8879058250504
 20
21.52937747204064
 11
806.8879058250504
 21
20.99767521522915
 72
     1
 10
806.8879058250504
 20
20.99767521522914
 11
807.8942044359098
 21
20.99767521522914
 72
     1
 10
807.8942044359101
 20
20.99767521522914
 11
807.8942044359101
 21
20.72256367015903
 72
     1
 10
807.8942044359101
 20
20.72256367015903
 11
806.5693860768663
 21
20.72256367015903
 97
        0
 75
     0
 76
     1
 98
        1
 10
434.9042564707825
 20
7.868239936922532
  0
HATCH
  5
4E05
330
A
100
AcDbEntity
  8
997-図枠_文字
  6
Continuous
 62
     7
100
AcDbHatch
 10
0.0
 20
0.0
 30
0.0
210
0.0
220
0.0
230
1.0
  2
SOLID
 70
     1
 71
     0
 91
        1
 92
        0
 93
       10
 72
     4
 94
        3
 73
     1
 74
     0
 95
        8
 96
        4
 40
8.0
 40
8.0
 40
8.0
 40
8.0
 40
9.0
 40
9.0
 40
9.0
 40
9.0
 10
808.9460334287023
 20
22.58294279295783
 42
1.0
 10
809.356096254121
 20
22.58004891275024
 42
1.0
 10
809.6787638972694
 20
22.35394040586229
 42
1.0
 10
809.7174454293777
 20
21.96153024971037
 42
1.0
 97
        0
 72
     1
 10
809.7174454293777
 20
21.96153024971037
 11
809.3990221438673
 21
21.96153024971037
 72
     4
 94
        3
 73
     1
 74
     0
 95
        8
 96
        4
 40
0.0
 40
0.0
 40
0.0
 40
0.0
 40
1.0
 40
1.0
 40
1.0
 40
1.0
 10
809.3990221438671
 20
21.96153024971037
 42
1.0
 10
809.3454853600263
 20
22.17046840069984
 42
1.0
 10
809.2106305423517
 20
22.32326527566163
 42
1.0
 10
808.9460334287023
 20
22.32326527566163
 42
1.0
 97
        0
 72
     4
 94
        3
 73
     1
 74
     0
 95
        8
 96
        4
 40
1.0
 40
1.0
 40
1.0
 40
1.0
 40
2.0
 40
2.0
 40
2.0
 40
2.0
 10
808.9460334287023
 20
22.32326527566163
 42
1.0
 10
808.5571923914736
 20
22.32326527566163
 42
1.0
 10
808.3939775477643
 20
21.97908645630323
 42
1.0
 10
808.3939775477643
 20
21.63027742861265
 42
1.0
 97
        0
 72
     4
 94
        3
 73
     1
 74
     0
 95
        8
 96
        4
 40
2.0
 40
2.0
 40
2.0
 40
2.0
 40
3.0
 40
3.0
 40
3.0
 40
3.0
 10
808.3939775477643
 20
21.63027742861265
 42
1.0
 10
808.3939775477643
 20
21.28262595300512
 42
1.0
 10
808.5571923914736
 20
20.93825420829953
 42
1.0
 10
808.9460334287023
 20
20.93825420829953
 42
1.0
 97
        0
 72
     4
 94
        3
 73
     1
 74
     0
 95
        8
 96
        4
 40
3.0
 40
3.0
 40
3.0
 40
3.0
 40
4.0
 40
4.0
 40
4.0
 40
4.0
 10
808.9460334287023
 20
20.93825420829953
 42
1.0
 10
809.2283796742918
 20
20.93825420829953
 42
1.0
 10
809.382719952031
 20
21.15008623949659
 42
1.0
 10
809.4091507245939
 20
21.41458689047213
 42
1.0
 97
        0
 72
     1
 10
809.4091507245939
 20
21.41458689047213
 11
809.7191817575024
 21
21.41458689047213
 72
     4
 94
        3
 73
     1
 74
     0
 95
        8
 96
        4
 40
5.0
 40
5.0
 40
5.0
 40
5.0
 40
6.0
 40
6.0
 40
6.0
 40
6.0
 10
809.7191817575022
 20
21.41458689047213
 42
1.0
 10
809.6928474476131
 20
20.98011900863631
 42
1.0
 10
809.3862890709536
 20
20.67876961635054
 42
1.0
 10
808.9460334287023
 20
20.67876961635054
 42
1.0
 97
        0
 72
     4
 94
        3
 73
     1
 74
     0
 95
        8
 96
        4
 40
6.0
 40
6.0
 40
6.0
 40
6.0
 40
7.0
 40
7.0
 40
7.0
 40
7.0
 10
808.9460334287023
 20
20.67876961635054
 42
1.0
 10
808.4013087109568
 20
20.67876961635054
 42
1.0
 10
808.0754577995799
 20
21.1122728714505
 42
1.0
 10
808.0754577995799
 20
21.63027742861265
 42
1.0
 97
        0
 72
     4
 94
        3
 73
     1
 74
     0
 95
        8
 96
        4
 40
7.0
 40
7.0
 40
7.0
 40
7.0
 40
8.0
 40
8.0
 40
8.0
 40
8.0
 10
808.0754577995799
 20
21.63027742861265
 42
1.0
 10
808.0754577995799
 20
22.14963246320501
 42
1.0
 10
808.4013087109568
 20
22.58294279295783
 42
1.0
 10
808.9460334287023
 20
22.58294279295783
 42
1.0
 97
        0
 97
        0
 75
     0
 76
     1
 98
        1
 10
434.9042564707825
 20
7.868239936922532
  0
HATCH
  5
4E06
330
A
100
AcDbEntity
  8
997-図枠_文字
  6
Continuous
 62
     7
100
AcDbHatch
 10
0.0
 20
0.0
 30
0.0
210
0.0
220
0.0
230
1.0
  2
SOLID
 70
     1
 71
     0
 91
        1
 92
        0
 93
       10
 72
     4
 94
        3
 73
     1
 74
     0
 95
        8
 96
        4
 40
8.0
 40
8.0
 40
8.0
 40
8.0
 40
9.0
 40
9.0
 40
9.0
 40
9.0
 10
811.4899470565388
 20
22.58294279295783
 42
1.0
 10
811.9001063446308
 20
22.58004891275024
 42
1.0
 10
812.2224845997584
 20
22.35394040586229
 42
1.0
 10
812.260876743846
 20
21.96153024971037
 42
1.0
 97
        0
 72
     1
 10
812.260876743846
 20
21.96153024971037
 11
811.9423569956621
 21
21.96153024971037
 72
     4
 94
        3
 73
     1
 74
     0
 95
        8
 96
        4
 40
0.0
 40
0.0
 40
0.0
 40
0.0
 40
1.0
 40
1.0
 40
1.0
 40
1.0
 10
811.9423569956621
 20
21.96153024971037
 42
1.0
 10
811.8896883758835
 20
22.17046840069984
 42
1.0
 10
811.7549300208823
 20
22.32326527566163
 42
1.0
 10
811.4899470565388
 20
22.32326527566163
 42
1.0
 97
        0
 72
     4
 94
        3
 73
     1
 74
     0
 95
        8
 96
        4
 40
1.0
 40
1.0
 40
1.0
 40
1.0
 40
2.0
 40
2.0
 40
2.0
 40
2.0
 10
811.4899470565388
 20
22.32326527566163
 42
1.0
 10
811.1007201686155
 20
22.32326527566163
 42
1.0
 10
810.9377947129269
 20
21.97908645630323
 42
1.0
 10
810.9377947129269
 20
21.63027742861265
 42
1.0
 97
        0
 72
     4
 94
        3
 73
     1
 74
     0
 95
        8
 96
        4
 40
2.0
 40
2.0
 40
2.0
 40
2.0
 40
3.0
 40
3.0
 40
3.0
 40
3.0
 10
810.9377947129269
 20
21.63027742861265
 42
1.0
 10
810.9377947129269
 20
21.28262595300512
 42
1.0
 10
811.1007201686155
 20
20.93825420829953
 42
1.0
 10
811.4899470565388
 20
20.93825420829953
 42
1.0
 97
        0
 72
     4
 94
        3
 73
     1
 74
     0
 95
        8
 96
        4
 40
3.0
 40
3.0
 40
3.0
 40
3.0
 40
4.0
 40
4.0
 40
4.0
 40
4.0
 10
811.4899470565388
 20
20.93825420829953
 42
1.0
 10
811.7721003767808
 20
20.93825420829953
 42
1.0
 10
811.9275982066031
 20
21.15008623949659
 42
1.0
 10
811.9529678897566
 20
21.41458689047213
 42
1.0
 97
        0
 72
     1
 10
811.9529678897566
 20
21.41458689047213
 11
812.2640600120744
 21
21.41458689047213
 72
     4
 94
        3
 73
     1
 74
     0
 95
        8
 96
        4
 40
5.0
 40
5.0
 40
5.0
 40
5.0
 40
6.0
 40
6.0
 40
6.0
 40
6.0
 10
812.2640600120744
 20
21.41458689047213
 42
1.0
 10
812.2380150902061
 20
20.98011900863631
 42
1.0
 10
811.9302026987898
 20
20.67876961635054
 42
1.0
 10
811.4899470565388
 20
20.67876961635054
 42
1.0
 97
        0
 72
     4
 94
        3
 73
     1
 74
     0
 95
        8
 96
        4
 40
6.0
 40
6.0
 40
6.0
 40
6.0
 40
7.0
 40
7.0
 40
7.0
 40
7.0
 10
811.4899470565388
 20
20.67876961635054
 42
1.0
 10
810.945511726814
 20
20.67876961635054
 42
1.0
 10
810.6199502034578
 20
21.1122728714505
 42
1.0
 10
810.6199502034578
 20
21.63027742861265
 42
1.0
 97
        0
 72
     4
 94
        3
 73
     1
 74
     0
 95
        8
 96
        4
 40
7.0
 40
7.0
 40
7.0
 40
7.0
 40
8.0
 40
8.0
 40
8.0
 40
8.0
 10
810.6199502034578
 20
21.63027742861265
 42
1.0
 10
810.6199502034578
 20
22.14963246320501
 42
1.0
 10
810.945511726814
 20
22.58294279295783
 42
1.0
 10
811.4899470565388
 20
22.58294279295783
 42
1.0
 97
        0
 97
        0
 75
     0
 76
     1
 98
        1
 10
434.9042564707825
 20
7.868239936922532
  0
HATCH
  5
4E07
330
A
100
AcDbEntity
  8
997-図枠_文字
  6
Continuous
 62
     7
100
AcDbHatch
 10
0.0
 20
0.0
 30
0.0
210
0.0
220
0.0
230
1.0
  2
SOLID
 70
     1
 71
     0
 91
        2
 92
        0
 93
        2
 72
     4
 94
        3
 73
     1
 74
     0
 95
       11
 96
        7
 40
0.0
 40
0.0
 40
0.0
 40
0.0
 40
1.0
 40
1.0
 40
1.0
 40
2.0
 40
2.0
 40
2.0
 40
2.0
 10
813.3271751376767
 20
22.58294279295783
 42
1.0
 10
812.7821610319102
 20
22.58294279295783
 42
1.0
 10
812.4557313444918
 20
22.14963246320501
 42
1.0
 10
812.4557313444918
 20
21.63027742861265
 42
1.0
 10
812.4557313444918
 20
21.1122728714505
 42
1.0
 10
812.7821610319102
 20
20.67876961635054
 42
1.0
 10
813.3271751376767
 20
20.67876961635054
 42
1.0
 97
        0
 72
     4
 94
        3
 73
     1
 74
     0
 95
       11
 96
        7
 40
2.0
 40
2.0
 40
2.0
 40
2.0
 40
3.0
 40
3.0
 40
3.0
 40
4.0
 40
4.0
 40
4.0
 40
4.0
 10
813.3271751376767
 20
20.67876961635054
 42
1.0
 10
813.8715140047282
 20
20.67876961635054
 42
1.0
 10
814.1963038266956
 20
21.1122728714505
 42
1.0
 10
814.1963038266956
 20
21.63027742861265
 42
1.0
 10
814.1963038266956
 20
22.14963246320501
 42
1.0
 10
813.8715140047282
 20
22.58294279295783
 42
1.0
 10
813.3271751376767
 20
22.58294279295783
 42
1.0
 97
        0
 97
        0
 92
        0
 93
        2
 72
     4
 94
        3
 73
     1
 74
     0
 95
       11
 96
        7
 40
2.0
 40
2.0
 40
2.0
 40
2.0
 40
3.0
 40
3.0
 40
3.0
 40
4.0
 40
4.0
 40
4.0
 40
4.0
 10
813.3271751376767
 20
20.93825420829953
 42
1.0
 10
812.9376588617324
 20
20.93825420829953
 42
1.0
 10
812.7747334060441
 20
21.28262595300512
 42
1.0
 10
812.7747334060441
 20
21.63027742861265
 42
1.0
 10
812.7747334060441
 20
21.97908645630323
 42
1.0
 10
812.9376588617324
 20
22.32326527566163
 42
1.0
 10
813.3271751376767
 20
22.32326527566163
 42
1.0
 97
        0
 72
     4
 94
        3
 73
     1
 74
     0
 95
       11
 96
        7
 40
0.0
 40
0.0
 40
0.0
 40
0.0
 40
1.0
 40
1.0
 40
1.0
 40
2.0
 40
2.0
 40
2.0
 40
2.0
 10
813.3271751376767
 20
22.32326527566163
 42
1.0
 10
813.7160161749059
 20
22.32326527566163
 42
1.0
 10
813.8792310186152
 20
21.97908645630323
 42
1.0
 10
813.8792310186152
 20
21.63027742861265
 42
1.0
 10
813.8792310186152
 20
21.28262595300512
 42
1.0
 10
813.7160161749059
 20
20.93825420829953
 42
1.0
 10
813.3271751376767
 20
20.93825420829953
 42
1.0
 97
        0
 97
        0
 75
     0
 76
     1
 98
        1
 10
434.9042564707825
 20
7.868239936922532
  0
HATCH
  5
4E08
330
A
100
AcDbEntity
  8
997-図枠_文字
  6
Continuous
 62
     7
100
AcDbHatch
 10
0.0
 20
0.0
 30
0.0
210
0.0
220
0.0
230
1.0
  2
SOLID
 70
     1
 71
     0
 91
        1
 92
        0
 93
        4
 72
     1
 10
814.4693896556203
 20
20.72256367015903
 11
814.4693896556203
 21
21.06597078812872
 72
     1
 10
814.4693896556203
 20
21.06597078812872
 11
814.8234076676846
 21
21.06597078812872
 72
     1
 10
814.8234076676847
 20
21.06597078812872
 11
814.8234076676847
 21
20.72256367015903
 72
     1
 10
814.8234076676847
 20
20.72256367015903
 11
814.4693896556204
 21
20.72256367015903
 97
        0
 75
     0
 76
     1
 98
        1
 10
434.9042564707825
 20
7.868239936922532
  0
HATCH
  5
4E09
330
A
100
AcDbEntity
  8
997-図枠_文字
  6
Continuous
 62
     7
100
AcDbHatch
 10
0.0
 20
0.0
 30
0.0
210
0.0
220
0.0
230
1.0
  2
SOLID
 70
     1
 71
     0
 91
        1
 92
        0
 93
        7
 72
     4
 94
        3
 73
     1
 74
     0
 95
        8
 96
        4
 40
4.0
 40
4.0
 40
4.0
 40
4.0
 40
5.0
 40
5.0
 40
5.0
 40
5.0
 10
815.1868790217604
 20
20.47542630042911
 42
1.0
 10
815.2983898724269
 20
20.50359340111654
 42
1.0
 10
815.3547240738017
 20
20.61375377435289
 42
1.0
 10
815.3526983576564
 20
20.72256367015903
 42
1.0
 97
        0
 72
     1
 10
815.3526983576564
 20
20.72256367015903
 11
815.1762681276658
 21
20.72256367015903
 72
     1
 10
815.1762681276659
 20
20.72256367015903
 11
815.1762681276659
 21
21.06597078812872
 72
     1
 10
815.1762681276659
 20
21.06597078812872
 11
815.5303826024037
 21
21.06597078812872
 72
     1
 10
815.5303826024037
 20
21.06597078812872
 11
815.5303826024037
 21
20.72256367015903
 72
     4
 94
        3
 73
     1
 74
     0
 95
        8
 96
        4
 40
2.0
 40
2.0
 40
2.0
 40
2.0
 40
3.0
 40
3.0
 40
3.0
 40
3.0
 10
815.5303826024037
 20
20.72256367015903
 42
1.0
 10
815.5281639609111
 20
20.51381844451679
 42
1.0
 10
815.3881966215365
 20
20.36179327094364
 42
1.0
 10
815.1868790217604
 20
20.3207001719956
 42
1.0
 97
        0
 72
     1
 10
815.1868790217604
 20
20.3207001719956
 11
815.1868790217604
 21
20.4754263004291
 97
        0
 75
     0
 76
     1
 98
        1
 10
434.9042564707825
 20
7.868239936922532
  0
HATCH
  5
4E0A
330
A
100
AcDbEntity
  8
997-図枠_文字
  6
Continuous
 62
     7
100
AcDbHatch
 10
0.0
 20
0.0
 30
0.0
210
0.0
220
0.0
230
1.0
  2
SOLID
 70
     1
 71
     0
 91
        1
 92
        0
 93
        6
 72
     1
 10
815.9018603583872
 20
20.72256367015903
 11
815.9018603583872
 21
22.53856996310778
 72
     1
 10
815.9018603583872
 20
22.53856996310779
 11
816.2203801065716
 21
22.53856996310779
 72
     1
 10
816.2203801065716
 20
22.53856996310779
 11
816.2203801065716
 21
20.99767521522915
 72
     1
 10
816.2203801065716
 20
20.99767521522914
 11
817.1434314301255
 21
20.99767521522914
 72
     1
 10
817.1434314301255
 20
20.99767521522914
 11
817.1434314301255
 21
20.72256367015903
 72
     1
 10
817.1434314301255
 20
20.72256367015903
 11
815.9018603583872
 21
20.72256367015903
 97
        0
 75
     0
 76
     1
 98
        1
 10
434.9042564707825
 20
7.868239936922532
  0
HATCH
  5
4E0B
330
A
100
AcDbEntity
  8
997-図枠_文字
  6
Continuous
 62
     7
100
AcDbHatch
 10
0.0
 20
0.0
 30
0.0
210
0.0
220
0.0
230
1.0
  2
SOLID
 70
     1
 71
     0
 91
        1
 92
        0
 93
        8
 72
     1
 10
817.5300538258621
 20
22.26442304477355
 11
816.9551362912837
 21
22.26442304477355
 72
     1
 10
816.9551362912837
 20
22.26442304477355
 11
816.9551362912837
 21
22.53856996310779
 72
     1
 10
816.9551362912837
 20
22.53856996310779
 11
818.4257097501172
 21
22.53856996310779
 72
     1
 10
818.4257097501172
 20
22.53856996310779
 11
818.4257097501172
 21
22.26442304477355
 72
     1
 10
818.4257097501172
 20
22.26442304477355
 11
817.848862962067
 21
22.26442304477355
 72
     1
 10
817.848862962067
 20
22.26442304477355
 11
817.848862962067
 21
20.72256367015904
 72
     1
 10
817.848862962067
 20
20.72256367015903
 11
817.5300538258621
 21
20.72256367015903
 72
     1
 10
817.5300538258621
 20
20.72256367015903
 11
817.5300538258621
 21
22.26442304477354
 97
        0
 75
     0
 76
     1
 98
        1
 10
434.9042564707825
 20
7.868239936922532
  0
HATCH
  5
4E0C
330
A
100
AcDbEntity
  8
997-図枠_文字
  6
Continuous
 62
     7
100
AcDbHatch
 10
0.0
 20
0.0
 30
0.0
210
0.0
220
0.0
230
1.0
  2
SOLID
 70
     1
 71
     0
 91
        2
 92
        0
 93
        5
 72
     4
 94
        3
 73
     1
 74
     0
 95
        8
 96
        4
 40
2.0
 40
2.0
 40
2.0
 40
2.0
 40
3.0
 40
3.0
 40
3.0
 40
3.0
 10
820.1925200795368
 20
21.63027742861265
 42
1.0
 10
820.1925200795368
 20
22.13207625661219
 42
1.0
 10
819.9503987688336
 20
22.53856996310779
 42
1.0
 10
819.3902400233138
 20
22.53856996310779
 42
1.0
 97
        0
 72
     1
 10
819.3902400233138
 20
22.53856996310779
 11
818.6374453186407
 21
22.53856996310779
 72
     1
 10
818.6374453186409
 20
22.53856996310779
 11
818.6374453186409
 21
20.72256367015904
 72
     1
 10
818.6374453186409
 20
20.72256367015903
 11
819.3902400233139
 21
20.72256367015903
 72
     4
 94
        3
 73
     1
 74
     0
 95
        8
 96
        4
 40
1.0
 40
1.0
 40
1.0
 40
1.0
 40
2.0
 40
2.0
 40
2.0
 40
2.0
 10
819.3902400233138
 20
20.72256367015903
 42
1.0
 10
819.9503987688336
 20
20.72256367015903
 42
1.0
 10
820.1925200795368
 20
21.12925030200179
 42
1.0
 10
820.1925200795368
 20
21.63027742861265
 42
1.0
 97
        0
 97
        0
 92
        0
 93
        5
 72
     4
 94
        3
 73
     1
 74
     0
 95
        8
 96
        4
 40
1.0
 40
1.0
 40
1.0
 40
1.0
 40
2.0
 40
2.0
 40
2.0
 40
2.0
 10
819.2687935172676
 20
22.27927829650594
 42
1.0
 10
819.7667338383237
 20
22.27927829650594
 42
1.0
 10
819.872939241943
 20
21.99490633477147
 42
1.0
 10
819.872939241943
 20
21.63027742861265
 42
1.0
 97
        0
 72
     4
 94
        3
 73
     1
 74
     0
 95
        8
 96
        4
 40
2.0
 40
2.0
 40
2.0
 40
2.0
 40
3.0
 40
3.0
 40
3.0
 40
3.0
 10
819.872939241943
 20
21.63027742861265
 42
1.0
 10
819.872939241943
 20
21.26757777592555
 42
1.0
 10
819.7667338383237
 20
20.9822411874552
 42
1.0
 10
819.2687935172676
 20
20.9822411874552
 42
1.0
 97
        0
 72
     1
 10
819.2687935172676
 20
20.9822411874552
 11
818.9550004400892
 21
20.9822411874552
 72
     1
 10
818.9550004400892
 20
20.9822411874552
 11
818.9550004400892
 21
22.27927829650593
 72
     1
 10
818.9550004400892
 20
22.27927829650594
 11
819.2687935172676
 21
22.27927829650594
 97
        0
 75
     0
 76
     1
 98
        1
 10
434.9042564707825
 20
7.868239936922532
  0
HATCH
  5
4E0D
330
A
100
AcDbEntity
  8
997-図枠_文字
  6
Continuous
 62
     7
100
AcDbHatch
 10
0.0
 20
0.0
 30
0.0
210
0.0
220
0.0
230
1.0
  2
SOLID
 70
     1
 71
     0
 91
        1
 92
        0
 93
        4
 72
     1
 10
820.4560561037765
 20
20.26262648756313
 11
820.4560561037765
 21
20.60603360553283
 72
     1
 10
820.4560561037765
 20
20.60603360553283
 11
820.8093988771254
 21
20.60603360553283
 72
     1
 10
820.8093988771254
 20
20.60603360553283
 11
820.8093988771254
 21
20.26262648756313
 72
     1
 10
820.8093988771254
 20
20.26262648756313
 11
820.4560561037765
 21
20.26262648756313
 97
        0
 75
     0
 76
     1
 98
        1
 10
434.9042564707825
 20
7.868239936922532
  0
HATCH
  5
4E0E
330
A
100
AcDbEntity
  8
997-図枠_文字
  6
Continuous
 62
     7
100
AcDbHatch
 10
0.0
 20
0.0
 30
0.0
210
0.0
220
0.0
230
1.0
  2
ANSI31
 70
     0
 71
     0
 91
        1
 92
        0
 93
        3
 72
     4
 94
        3
 73
     1
 74
     0
 95
       14
 96
       10
 40
5.0
 40
5.0
 40
5.0
 40
5.0
 40
6.0
 40
6.0
 40
6.0
 40
7.0
 40
7.0
 40
7.0
 40
8.0
 40
8.0
 40
8.0
 40
8.0
 10
775.6651798777589
 20
21.53789482764569
 42
1.0
 10
776.7018642307985
 20
20.70368562646532
 42
1.0
 10
778.0183385685771
 20
20.20478067867339
 42
1.0
 10
779.4517738980799
 20
20.20478067867339
 42
1.0
 10
782.7882248521069
 20
20.20478067867339
 42
1.0
 10
785.4941475402325
 20
22.90940112070557
 42
1.0
 10
785.4941475402325
 20
26.24686493280524
 42
1.0
 10
785.4941475402325
 20
29.5828818048011
 42
1.0
 10
782.7882248521069
 20
32.28856333624272
 42
1.0
 10
779.4517738980799
 20
32.28856333624272
 42
1.0
 97
        0
 72
     4
 94
        3
 73
     1
 74
     0
 95
        8
 96
        4
 40
0.0
 40
0.0
 40
0.0
 40
0.0
 40
1.0
 40
1.0
 40
1.0
 40
1.0
 10
779.4517738980799
 20
32.28856333624272
 42
1.0
 10
778.0183385685771
 20
32.28856333624272
 42
1.0
 10
776.7018642307985
 20
31.78927253775644
 42
1.0
 10
775.6651798777589
 20
30.9552562619233
 42
1.0
 97
        0
 72
     4
 94
        3
 73
     1
 74
     0
 95
       17
 96
       13
 40
1.0
 40
1.0
 40
1.0
 40
1.0
 40
2.0
 40
2.0
 40
2.0
 40
3.0
 40
3.0
 40
3.0
 40
4.0
 40
4.0
 40
4.0
 40
5.0
 40
5.0
 40
5.0
 40
5.0
 10
775.6651798777589
 20
30.9552562619233
 42
1.0
 10
776.0909661189721
 20
31.07612399192781
 42
1.0
 10
776.5403857152139
 20
31.14123629659904
 42
1.0
 10
777.0043711751673
 20
31.14123629659904
 42
1.0
 10
779.7071588264014
 20
31.14123629659904
 42
1.0
 10
781.8987425389612
 20
28.94984550938644
 42
1.0
 10
781.8987425389612
 20
26.24686493280526
 42
1.0
 10
781.8987425389612
 20
23.54320911750893
 42
1.0
 10
779.7071588264014
 20
21.35268649435866
 42
1.0
 10
777.0043711751673
 20
21.35268649435866
 42
1.0
 10
776.5403857152139
 20
21.35268649435866
 42
1.0
 10
776.0909661189721
 20
21.41673770962041
 42
1.0
 10
775.6651798777589
 20
21.53789482764569
 42
1.0
 97
        0
 97
        0
 75
     0
 76
     1
 52
0.0
 41
0.001953125
 77
     0
 78
     1
 53
44.99999999999999
 43
434.9042564707825
 44
7.868239936922532
 45
-0.0043848906841158
 46
0.0043848906841158
 79
     0
 98
        1
 10
434.9042564707825
 20
7.868239936922532
  0
HATCH
  5
4E0F
330
A
100
AcDbEntity
  8
997-図枠_文字
  6
Continuous
 62
     7
100
AcDbHatch
 10
0.0
 20
0.0
 30
0.0
210
0.0
220
0.0
230
1.0
  2
ANSI31
 70
     0
 71
     0
 91
        1
 92
        0
 93
        3
 72
     4
 94
        3
 73
     1
 74
     0
 95
        8
 96
        4
 40
3.0
 40
3.0
 40
3.0
 40
3.0
 40
4.0
 40
4.0
 40
4.0
 40
4.0
 10
775.6651798777589
 20
21.53789482764569
 42
1.0
 10
774.2896703837453
 20
22.64490046973003
 42
1.0
 10
773.4092073305799
 20
24.3423059055036
 42
1.0
 10
773.4092073305799
 20
26.24686493280526
 42
1.0
 97
        0
 72
     4
 94
        3
 73
     1
 74
     0
 95
        8
 96
        4
 40
0.0
 40
0.0
 40
0.0
 40
0.0
 40
1.0
 40
1.0
 40
1.0
 40
1.0
 10
773.4092073305799
 20
26.24686493280526
 42
1.0
 10
773.4092073305799
 20
28.15103810941255
 42
1.0
 10
774.2896703837453
 20
29.84781653780779
 42
1.0
 10
775.6651798777589
 20
30.9552562619233
 42
1.0
 97
        0
 72
     4
 94
        3
 73
     1
 74
     0
 95
       11
 96
        7
 40
1.0
 40
1.0
 40
1.0
 40
1.0
 40
2.0
 40
2.0
 40
2.0
 40
3.0
 40
3.0
 40
3.0
 40
3.0
 10
775.6651798777589
 20
30.9552562619233
 42
1.0
 10
773.6136599672477
 20
30.37339341484655
 42
1.0
 10
772.1098551173632
 20
28.48605297478017
 42
1.0
 10
772.1098551173632
 20
26.24686493280526
 42
1.0
 10
772.1098551173632
 20
24.00738750280955
 42
1.0
 10
773.6136599672477
 20
22.11975767472244
 42
1.0
 10
775.6651798777589
 20
21.53789482764569
 42
1.0
 97
        0
 97
        0
 75
     0
 76
     1
 52
0.0
 41
0.001953125
 77
     0
 78
     1
 53
44.99999999999999
 43
434.9042564707825
 44
7.868239936922532
 45
-0.0043848906841158
 46
0.0043848906841158
 79
     0
 98
        1
 10
434.9042564707825
 20
7.868239936922532
  0
SPLINE
  5
4E10
330
A
100
AcDbEntity
  8
997-図枠_文字
  6
Continuous
 62
     7
100
AcDbSpline
210
0.0
220
0.0
230
1.0
 70
     8
 71
     3
 72
     8
 73
     4
 74
     0
 42
0.000000001
 43
0.00000001
 40
0.0
 40
0.0
 40
0.0
 40
0.0
 40
1.0
 40
1.0
 40
1.0
 40
1.0
 10
779.4517738980799
 20
32.28856333624272
 30
0.0
 10
778.0183385685771
 20
32.28856333624272
 30
0.0
 10
776.7018642307985
 20
31.78927253775644
 30
0.0
 10
775.6651798777589
 20
30.9552562619233
 30
0.0
  0
MTEXT
  5
4E11
330
A
100
AcDbEntity
  8
997-図枠_文字
  6
Continuous
 62
     7
100
AcDbMText
 10
678.2638883326238
 20
50.96240031173618
 30
0.0
 40
3.0
 41
31.48042338568862
 46
16.785
 71
     5
 72
     1
  1
{\pxqc;小林}
 73
     1
 44
1.0
  0
MTEXT
  5
4E12
330
A
100
AcDbEntity
  8
997-図枠_文字
  6
Continuous
 62
     7
100
AcDbMText
 10
678.2638883326238
 20
37.72965338153617
 30
0.0
 40
3.0
 41
31.4804233856886
 46
3.255705264474178
 71
     5
 72
     1
  1
{\pxqc;岩下}
 73
     1
 44
1.0
  0
LINE
  5
4F1D
102
{ACAD_REACTORS
330
4F2B
102
}
330
A
100
AcDbEntity
  8
0
 62
     0
370
    15
100
AcDbLine
 10
545.242307247802
 20
223.7581210163122
 30
0.0
 11
545.242307247802
 21
210.7581210163121
 31
0.0
  0
LINE
  5
4F1E
330
A
100
AcDbEntity
  8
0
 62
     0
370
    15
100
AcDbLine
 10
745.2431807720106
 20
210.4625678775975
 30
0.0
 11
745.2431807720106
 21
223.4625678775976
 31
0.0
  0
LINE
  5
4F1F
330
A
100
AcDbEntity
  8
0
 62
     0
370
    15
100
AcDbLine
 10
745.2431807720106
 20
146.2699134194411
 30
0.0
 11
745.2431807720106
 21
140.2699134194409
 31
0.0
  0
LINE
  5
4F20
102
{ACAD_REACTORS
330
4F2E
102
}
330
A
100
AcDbEntity
  8
0
 62
     0
370
    15
100
AcDbLine
 10
545.242307247802
 20
146.5654665581558
 30
0.0
 11
545.242307247802
 21
140.5654665581555
 31
0.0
  0
LINE
  5
4F21
330
A
100
AcDbEntity
  8
0
 62
     0
370
    15
100
AcDbLine
 10
745.2431807720106
 20
144.269913419441
 30
0.0
 11
745.2431807720106
 21
142.2699134194411
 31
0.0
  0
LINE
  5
4F22
330
A
100
AcDbEntity
  8
0
 62
     0
370
    15
100
AcDbLine
 10
545.242307247802
 20
144.5654665581557
 30
0.0
 11
545.242307247802
 21
142.5654665581558
 31
0.0
  0
LINE
  5
4F23
330
A
100
AcDbEntity
  8
0
 62
     0
370
    15
100
AcDbLine
 10
745.2431807720106
 20
216.9625678775975
 30
0.0
 11
745.2431807720106
 21
214.9625678775976
 31
0.0
  0
LINE
  5
4F24
102
{ACAD_REACTORS
330
5060
102
}
330
A
100
AcDbEntity
  8
0
 62
     0
370
    15
100
AcDbLine
 10
745.2431807720106
 20
218.9625678775973
 30
0.0
 11
745.2431807720106
 21
216.9625678775975
 31
0.0
  0
LINE
  5
4F25
330
A
100
AcDbEntity
  8
0
 62
     0
370
    15
100
AcDbLine
 10
545.242307247802
 20
217.2581210163121
 30
0.0
 11
545.242307247802
 21
215.2581210163122
 31
0.0
  0
LINE
  5
4F26
102
{ACAD_REACTORS
330
5060
102
}
330
A
100
AcDbEntity
  8
0
 62
     0
370
    15
100
AcDbLine
 10
545.242307247802
 20
219.258121016312
 30
0.0
 11
545.242307247802
 21
217.2581210163121
 31
0.0
  0
DIMENSION
  5
4F27
102
{ACAD_XDICTIONARY
360
4F28
102
}
330
A
100
AcDbEntity
  8
0
 62
     0
370
     9
100
AcDbDimension
280
     0
  2
*D177
 10
745.2431807720106
 20
245.7492110576777
 30
0.0
 11
645.2427440099063
 21
245.7492110576777
 31
0.0
 70
   160
  1
3000
 71
     5
 42
200.0008735242086
 73
     0
 74
     0
 75
     0
  3
ISO-25
100
AcDbAlignedDimension
 13
545.242307247802
 23
223.7581210163122
 33
0.0
 14
745.2431807720106
 24
223.4625678775976
 34
0.0
100
AcDbRotatedDimension
1001
ACAD
1000
DSTYLE
1002
{
1070
   146
1040
1.0
1070
    41
1040
2.5
1070
   140
1040
3.0
1070
   173
1070
     1
1070
   342
1005
0
1070
   344
1005
459
1070
   343
1005
459
1070
   144
1040
1.0
1002
}
  0
DIMENSION
  5
4F29
102
{ACAD_REACTORS
330
4F2B
102
}
102
{ACAD_XDICTIONARY
360
4F2A
102
}
330
A
100
AcDbEntity
  8
0
 62
     0
370
     9
100
AcDbDimension
280
     0
  2
*D178
 10
518.7727112030568
 20
210.7581210163121
 30
0.0
 11
518.7727112030568
 21
233.6064114449067
 31
0.0
 70
   160
 71
     5
 42
13.00000000000011
 73
     0
 74
     1
 75
     1
  3
ISO-25
100
AcDbAlignedDimension
 13
545.242307247802
 23
223.7581210163122
 33
0.0
 14
545.242307247802
 24
210.7581210163121
 34
0.0
 50
90.0
100
AcDbRotatedDimension
1001
ACAD
1000
DSTYLE
1002
{
1070
   146
1040
1.0
1070
    41
1040
2.5
1070
   140
1040
3.0
1070
   173
1070
     1
1070
   342
1005
0
1070
   344
1005
459
1070
   343
1005
459
1070
   144
1040
1.0
1002
}
  0
DIMENSION
  5
4F2C
102
{ACAD_REACTORS
330
4F2E
102
}
102
{ACAD_XDICTIONARY
360
4F2D
102
}
330
A
100
AcDbEntity
  8
0
 62
     0
370
     9
100
AcDbDimension
280
     0
  2
*D179
 10
518.7727112030568
 20
140.5654665581555
 30
0.0
 11
518.7727112030568
 21
153.981294904144
 31
0.0
 70
   160
 71
     5
 42
6.000000000000227
 73
     0
 74
     0
 75
     0
  3
ISO-25
100
AcDbAlignedDimension
 13
545.242307247802
 23
146.5654665581558
 33
0.0
 14
545.242307247802
 24
140.5654665581555
 34
0.0
 50
90.0
100
AcDbRotatedDimension
1001
ACAD
1000
DSTYLE
1002
{
1070
   146
1040
1.0
1070
    41
1040
2.5
1070
   140
1040
3.0
1070
   173
1070
     1
1070
   342
1005
0
1070
   344
1005
459
1070
   343
1005
459
1070
   144
1040
1.0
1002
}
  0
LINE
  5
4F2F
330
A
100
AcDbEntity
  8
0
 62
     0
370
    15
100
AcDbLine
 10
455.5617334317801
 20
144.5654665581557
 30
0.0
 11
455.5617334317801
 21
142.5654665581558
 31
0.0
  0
DIMENSION
  5
4F30
102
{ACAD_XDICTIONARY
360
4F31
102
}
330
A
100
AcDbEntity
  8
0
 62
     0
370
     9
100
AcDbDimension
280
     0
  2
*D180
 10
455.5617334317801
 20
112.9424268378569
 30
0.0
 11
500.4020203397911
 21
112.9424268378569
 31
0.0
 70
   160
  1
(300)
 71
     5
 42
89.68057381602199
 73
     0
 74
     0
 75
     0
  3
ISO-25
100
AcDbAlignedDimension
 13
545.242307247802
 23
140.5654665581555
 33
0.0
 14
455.5617334317801
 24
142.5654665581558
 34
0.0
100
AcDbRotatedDimension
1001
ACAD
1000
DSTYLE
1002
{
1070
   146
1040
1.0
1070
    41
1040
2.5
1070
   140
1040
3.0
1070
   173
1070
     1
1070
   342
1005
0
1070
   344
1005
459
1070
   343
1005
459
1070
   144
1040
1.0
1002
}
  0
CIRCLE
  5
4F32
330
A
100
AcDbEntity
  8
1
 62
     0
370
     9
100
AcDbCircle
 10
703.6016607325641
 20
187.7648403972664
 30
0.0
 40
5.0
  0
TEXT
  5
4F33
330
A
100
AcDbEntity
  8
1
 62
     0
370
     9
100
AcDbText
 10
702.510751641655
 20
186.291287815048
 30
0.0
 40
3.0
  1
1
  7
ＭＳ_Ｐゴシック
 72
     4
 11
703.6016607325641
 21
187.7648403972664
 31
0.0
100
AcDbText
  0
LEADER
  5
4F34
102
{ACAD_XDICTIONARY
360
4F35
102
}
330
A
100
AcDbEntity
  8
1
 62
     0
370
     9
100
AcDbLeader
  3
ISO-25
 76
     2
 10
679.1789960770082
 20
210.4625678775975
 30
0.0
 10
699.9381143440564
 20
191.1675492974299
 30
0.0
211
6.123233995736766E-17
221
1.0
231
0.0
1001
ACAD
1000
DSTYLE
1002
{
1070
    40
1040
1.0
1070
     5
1000
DOT
1070
   341
1005
459
1070
    41
1040
3.302
1070
    44
1040
1.0
1070
    42
1040
1.0
1070
   147
1040
1.524
1070
    73
1070
     1
1070
    74
1070
     1
1070
   140
1040
3.5
1070
   284
1070
     0
1070
    78
1070
     0
1002
}
  0
CIRCLE
  5
4F36
330
A
100
AcDbEntity
  8
1
 62
     0
370
     9
100
AcDbCircle
 10
828.4111511336112
 20
193.6064159609639
 30
0.0
 40
5.0
  0
TEXT
  5
4F37
330
A
100
AcDbEntity
  8
1
 62
     0
370
     9
100
AcDbText
 10
827.3202420427023
 20
192.1313628160345
 30
0.0
 40
3.0
  1
2
  7
ＭＳ_Ｐゴシック
 72
     4
 11
828.4111511336114
 21
193.6064159609639
 31
0.0
100
AcDbText
  0
LEADER
  5
4F38
102
{ACAD_XDICTIONARY
360
4F39
102
}
330
A
100
AcDbEntity
  8
1
 62
     0
370
     9
100
AcDbLeader
  3
ISO-25
 76
     2
 10
810.9979158827148
 20
214.9625678775976
 30
0.0
 10
825.2514859866194
 20
197.4815309475012
 30
0.0
211
6.123233995736766E-17
221
1.0
231
0.0
1001
ACAD
1000
DSTYLE
1002
{
1070
    40
1040
1.0
1070
     5
1000
DOT
1070
   341
1005
459
1070
    41
1040
3.302
1070
    44
1040
1.0
1070
    42
1040
1.0
1070
   147
1040
1.524
1070
    73
1070
     1
1070
    74
1070
     1
1070
   140
1040
3.5
1070
   284
1070
     0
1070
    78
1070
     0
1002
}
  0
ARC
  5
4F40
330
A
100
AcDbEntity
  8
0
 62
     0
370
     9
100
AcDbCircle
 10
505.5286231080445
 20
149.1538708519447
 30
0.0
 40
11.10610640582386
100
AcDbArc
 50
145.4396996883882
 51
210.2108120823932
  0
ARC
  5
4F41
330
A
100
AcDbEntity
  8
0
 62
     0
370
     9
100
AcDbCircle
 10
509.2908387861367
 20
149.1538708519447
 30
0.0
 40
11.10610640582386
100
AcDbArc
 50
145.4396996883882
 51
210.2108120823916
  0
ARC
  5
4F42
330
A
100
AcDbEntity
  8
0
 62
     0
370
     9
100
AcDbCircle
 10
486.7847419546111
 20
137.2652693091728
 30
0.0
 40
11.10610640582386
100
AcDbArc
 50
329.7891879176069
 51
34.56030031161177
  0
ARC
  5
4F43
330
A
100
AcDbEntity
  8
0
 62
     0
370
     9
100
AcDbCircle
 10
490.5469576327037
 20
137.2652693091728
 30
0.0
 40
11.10610640582386
100
AcDbArc
 50
329.7891879176069
 51
34.56030031161628
  0
LINE
  5
4F44
330
A
100
AcDbEntity
  8
0
 62
     0
370
    15
100
AcDbLine
 10
545.242307247802
 20
142.5654665581558
 30
0.0
 11
500.3067480310348
 21
142.5654665581558
 31
0.0
  0
LINE
  5
4F45
330
A
100
AcDbEntity
  8
0
 62
     0
370
    15
100
AcDbLine
 10
499.1768808302116
 20
144.5654665581557
 30
0.0
 11
545.242307247802
 21
144.5654665581557
 31
0.0
  0
LINE
  5
4F46
330
A
100
AcDbEntity
  8
0
 62
     0
370
    15
100
AcDbLine
 10
496.5445323529422
 20
142.5654665581558
 30
0.0
 11
455.5617334317801
 21
142.5654665581558
 31
0.0
  0
LINE
  5
4F47
330
A
100
AcDbEntity
  8
0
 62
     0
370
    15
100
AcDbLine
 10
455.5617334317801
 20
144.5654665581557
 30
0.0
 11
495.4146651521194
 21
144.5654665581557
 31
0.0
  0
LINE
  5
4F48
330
A
100
AcDbEntity
  8
0
 62
     0
370
    15
100
AcDbLine
 10
834.9237545880326
 20
144.269913419441
 30
0.0
 11
834.9237545880326
 21
142.2699134194411
 31
0.0
  0
DIMENSION
  5
4F49
102
{ACAD_XDICTIONARY
360
4F4A
102
}
330
A
100
AcDbEntity
  8
0
 62
     0
370
     9
100
AcDbDimension
280
     0
  2
*D181
 10
834.9237545880326
 20
111.692426837857
 30
0.0
 11
790.0834676800216
 21
111.692426837857
 31
0.0
 70
   160
  1
(300)
 71
     5
 42
89.68057381602193
 73
     0
 74
     0
 75
     0
 52
-89.99999999999999
  3
ISO-25
100
AcDbAlignedDimension
 13
745.2431807720106
 23
140.2699134194409
 33
0.0
 14
834.9237545880326
 24
142.2699134194411
 34
0.0
 50
180.0
100
AcDbRotatedDimension
1001
ACAD
1000
DSTYLE
1002
{
1070
   146
1040
1.0
1070
    41
1040
2.5
1070
   140
1040
3.0
1070
   173
1070
     1
1070
   342
1005
0
1070
   344
1005
459
1070
   343
1005
459
1070
   144
1040
1.0
1002
}
  0
ARC
  5
4F4B
330
A
100
AcDbEntity
  8
0
 62
     0
370
     9
100
AcDbCircle
 10
784.9568649117682
 20
148.8583177132301
 30
0.0
 40
11.10610640582386
100
AcDbArc
 50
329.7891879176072
 51
34.56030031161177
  0
ARC
  5
4F4C
330
A
100
AcDbEntity
  8
0
 62
     0
370
     9
100
AcDbCircle
 10
781.194649233676
 20
148.8583177132301
 30
0.0
 40
11.10610640582386
100
AcDbArc
 50
329.7891879176074
 51
34.56030031161177
  0
ARC
  5
4F4D
330
A
100
AcDbEntity
  8
0
 62
     0
370
     9
100
AcDbCircle
 10
803.7007460652017
 20
136.9697161704582
 30
0.0
 40
11.10610640582386
100
AcDbArc
 50
145.4396996883882
 51
210.2108120823928
  0
ARC
  5
4F4E
330
A
100
AcDbEntity
  8
0
 62
     0
370
     9
100
AcDbCircle
 10
799.938530387109
 20
136.9697161704582
 30
0.0
 40
11.10610640582386
100
AcDbArc
 50
145.4396996883841
 51
210.2108120823928
  0
LINE
  5
4F4F
330
A
100
AcDbEntity
  8
0
 62
     0
370
    15
100
AcDbLine
 10
745.2431807720106
 20
142.2699134194411
 30
0.0
 11
790.1787399887778
 21
142.2699134194411
 31
0.0
  0
LINE
  5
4F50
330
A
100
AcDbEntity
  8
0
 62
     0
370
    15
100
AcDbLine
 10
791.3086071896012
 20
144.269913419441
 30
0.0
 11
745.2431807720106
 21
144.269913419441
 31
0.0
  0
LINE
  5
4F51
330
A
100
AcDbEntity
  8
0
 62
     0
370
    15
100
AcDbLine
 10
793.9409556668704
 20
142.2699134194411
 30
0.0
 11
834.9237545880326
 21
142.2699134194411
 31
0.0
  0
LINE
  5
4F52
330
A
100
AcDbEntity
  8
0
 62
     0
370
    15
100
AcDbLine
 10
834.9237545880326
 20
144.269913419441
 30
0.0
 11
795.0708228676933
 21
144.269913419441
 31
0.0
  0
LINE
  5
4F53
330
A
100
AcDbEntity
  8
0
 62
     0
370
    15
100
AcDbLine
 10
455.5617334317801
 20
217.2581210163121
 30
0.0
 11
455.5617334317801
 21
215.2581210163122
 31
0.0
  0
ARC
  5
4F54
102
{ACAD_REACTORS
330
5060
102
}
330
A
100
AcDbEntity
  8
0
 62
     0
370
     9
100
AcDbCircle
 10
505.5286231080445
 20
221.8465253101011
 30
0.0
 40
11.10610640582386
100
AcDbArc
 50
145.4396996883882
 51
210.2108120823928
  0
ARC
  5
4F55
102
{ACAD_REACTORS
330
5060
102
}
330
A
100
AcDbEntity
  8
0
 62
     0
370
     9
100
AcDbCircle
 10
509.2908387861367
 20
221.8465253101011
 30
0.0
 40
11.10610640582386
100
AcDbArc
 50
145.4396996883882
 51
210.2108120823915
  0
ARC
  5
4F56
330
A
100
AcDbEntity
  8
0
 62
     0
370
     9
100
AcDbCircle
 10
486.7847419546111
 20
209.9579237673292
 30
0.0
 40
11.10610640582386
100
AcDbArc
 50
329.7891879176071
 51
34.56030031161177
  0
ARC
  5
4F57
330
A
100
AcDbEntity
  8
0
 62
     0
370
     9
100
AcDbCircle
 10
490.5469576327037
 20
209.9579237673292
 30
0.0
 40
11.10610640582386
100
AcDbArc
 50
329.7891879176071
 51
34.56030031161587
  0
ARC
  5
4F58
102
{ACAD_REACTORS
330
5060
102
}
330
A
100
AcDbEntity
  8
0
 62
     0
370
     9
100
AcDbCircle
 10
784.9568649117682
 20
221.5509721713865
 30
0.0
 40
11.10610640582386
100
AcDbArc
 50
329.7891879176072
 51
34.56030031161177
  0
ARC
  5
4F59
102
{ACAD_REACTORS
330
5060
102
}
330
A
100
AcDbEntity
  8
0
 62
     0
370
     9
100
AcDbCircle
 10
781.194649233676
 20
221.5509721713865
 30
0.0
 40
11.10610640582386
100
AcDbArc
 50
329.7891879176074
 51
34.56030031161177
  0
ARC
  5
4F5A
330
A
100
AcDbEntity
  8
0
 62
     0
370
     9
100
AcDbCircle
 10
803.7007460652017
 20
209.6623706286146
 30
0.0
 40
11.10610640582386
100
AcDbArc
 50
145.4396996883882
 51
210.2108120823928
  0
ARC
  5
4F5B
330
A
100
AcDbEntity
  8
0
 62
     0
370
     9
100
AcDbCircle
 10
799.938530387109
 20
209.6623706286146
 30
0.0
 40
11.10610640582386
100
AcDbArc
 50
145.4396996883841
 51
210.2108120823928
  0
LINE
  5
4F5C
330
A
100
AcDbEntity
  8
0
 62
     0
370
    15
100
AcDbLine
 10
834.9237545880326
 20
216.9625678775975
 30
0.0
 11
834.9237545880326
 21
214.9625678775976
 31
0.0
  0
LINE
  5
4F5D
102
{ACAD_REACTORS
330
5060
102
}
330
A
100
AcDbEntity
  8
0
 62
     0
370
    15
100
AcDbLine
 10
455.5617334317801
 20
219.258121016312
 30
0.0
 11
455.5617334317801
 21
217.2581210163121
 31
0.0
  0
LINE
  5
4F5E
102
{ACAD_REACTORS
330
5060
102
}
330
A
100
AcDbEntity
  8
0
 62
     0
370
    15
100
AcDbLine
 10
834.9237545880326
 20
218.9625678775973
 30
0.0
 11
834.9237545880326
 21
216.9625678775975
 31
0.0
  0
LINE
  5
4F5F
102
{ACAD_REACTORS
330
5060
102
}
330
A
100
AcDbEntity
  8
0
 62
     0
370
    15
100
AcDbLine
 10
791.3086071896012
 20
216.9625678775975
 30
0.0
 11
745.2431807720106
 21
216.9625678775975
 31
0.0
  0
LINE
  5
4F60
330
A
100
AcDbEntity
  8
0
 62
     0
370
    15
100
AcDbLine
 10
834.9237545880326
 20
216.9625678775975
 30
0.0
 11
795.0708228676933
 21
216.9625678775975
 31
0.0
  0
LINE
  5
4F61
102
{ACAD_REACTORS
330
5060
102
}
330
A
100
AcDbEntity
  8
0
 62
     0
370
    15
100
AcDbLine
 10
791.9949160224817
 20
218.9625678775973
 30
0.0
 11
745.2431807720106
 21
218.9625678775973
 31
0.0
  0
LINE
  5
4F62
102
{ACAD_REACTORS
330
5060
102
}
330
A
100
AcDbEntity
  8
0
 62
     0
370
    15
100
AcDbLine
 10
834.9237545880326
 20
218.9625678775973
 30
0.0
 11
795.7571317005738
 21
218.9625678775973
 31
0.0
  0
LINE
  5
4F63
102
{ACAD_REACTORS
330
5060
102
}
330
A
100
AcDbEntity
  8
0
 62
     0
370
    15
100
AcDbLine
 10
795.0708228676933
 20
216.9625678775975
 30
0.0
 11
834.9237545880326
 21
216.9625678775975
 31
0.0
  0
LINE
  5
4F64
330
A
100
AcDbEntity
  8
0
 62
     0
370
    15
100
AcDbLine
 10
745.2431807720106
 20
216.9625678775975
 30
0.0
 11
791.3086071896012
 21
216.9625678775975
 31
0.0
  0
LINE
  5
4F65
330
A
100
AcDbEntity
  8
0
 62
     0
370
    15
100
AcDbLine
 10
793.9409556668707
 20
214.9625678775976
 30
0.0
 11
834.9237545880326
 21
214.9625678775976
 31
0.0
  0
LINE
  5
4F66
330
A
100
AcDbEntity
  8
0
 62
     0
370
    15
100
AcDbLine
 10
745.2431807720106
 20
214.9625678775976
 30
0.0
 11
790.178739988778
 21
214.9625678775976
 31
0.0
  0
LINE
  5
4F67
102
{ACAD_REACTORS
330
5060
102
}
330
A
100
AcDbEntity
  8
0
 62
     0
370
    15
100
AcDbLine
 10
498.4905719973312
 20
219.258121016312
 30
0.0
 11
545.242307247802
 21
219.258121016312
 31
0.0
  0
LINE
  5
4F68
102
{ACAD_REACTORS
330
5060
102
}
330
A
100
AcDbEntity
  8
0
 62
     0
370
    15
100
AcDbLine
 10
455.5617334317801
 20
219.258121016312
 30
0.0
 11
494.728356319239
 21
219.258121016312
 31
0.0
  0
LINE
  5
4F69
102
{ACAD_REACTORS
330
5060
102
}
330
A
100
AcDbEntity
  8
0
 62
     0
370
    15
100
AcDbLine
 10
499.1768808302116
 20
217.2581210163121
 30
0.0
 11
545.242307247802
 21
217.2581210163121
 31
0.0
  0
LINE
  5
4F6A
102
{ACAD_REACTORS
330
5060
102
}
330
A
100
AcDbEntity
  8
0
 62
     0
370
    15
100
AcDbLine
 10
455.5617334317801
 20
217.2581210163121
 30
0.0
 11
495.4146651521194
 21
217.2581210163121
 31
0.0
  0
LINE
  5
4F6B
330
A
100
AcDbEntity
  8
0
 62
     0
370
    15
100
AcDbLine
 10
496.5445323529422
 20
215.2581210163122
 30
0.0
 11
455.5617334317801
 21
215.2581210163122
 31
0.0
  0
LINE
  5
4F6C
330
A
100
AcDbEntity
  8
0
 62
     0
370
    15
100
AcDbLine
 10
545.242307247802
 20
215.2581210163122
 30
0.0
 11
500.3067480310348
 21
215.2581210163122
 31
0.0
  0
LINE
  5
4F6D
330
A
100
AcDbEntity
  8
0
 62
     0
370
    15
100
AcDbLine
 10
495.4146651521194
 20
217.2581210163121
 30
0.0
 11
455.5617334317801
 21
217.2581210163121
 31
0.0
  0
LINE
  5
4F6E
330
A
100
AcDbEntity
  8
0
 62
     0
370
    15
100
AcDbLine
 10
545.242307247802
 20
217.2581210163121
 30
0.0
 11
499.1768808302116
 21
217.2581210163121
 31
0.0
  0
ARC
  5
4F6F
330
A
100
AcDbEntity
  8
0
 62
     0
370
     9
100
AcDbCircle
 10
652.9588729261584
 20
221.8465253101011
 30
0.0
 40
11.10610640582386
100
AcDbArc
 50
145.4396996883882
 51
210.2108120823928
  0
ARC
  5
4F70
330
A
100
AcDbEntity
  8
0
 62
     0
370
     9
100
AcDbCircle
 10
634.2149917727249
 20
209.9579237673292
 30
0.0
 40
11.10610640582386
100
AcDbArc
 50
329.7891879176072
 51
34.56030031161177
  0
ARC
  5
4F71
330
A
100
AcDbEntity
  8
0
 62
     0
370
     9
100
AcDbCircle
 10
652.9588729261584
 20
149.1538708519447
 30
0.0
 40
11.10610640582386
100
AcDbArc
 50
145.4396996883882
 51
210.2108120823931
  0
ARC
  5
4F72
330
A
100
AcDbEntity
  8
0
 62
     0
370
     9
100
AcDbCircle
 10
634.2149917727249
 20
137.2652693091728
 30
0.0
 40
11.10610640582386
100
AcDbArc
 50
329.7891879176071
 51
34.56030031161177
  0
ARC
  5
4F73
330
A
100
AcDbEntity
  8
0
 62
     0
370
     9
100
AcDbCircle
 10
637.9772074508176
 20
209.9579237673292
 30
0.0
 40
11.10610640582386
100
AcDbArc
 50
329.7891879176072
 51
34.56030031161587
  0
ARC
  5
4F74
330
A
100
AcDbEntity
  8
0
 62
     0
370
     9
100
AcDbCircle
 10
656.7210886042506
 20
221.8465253101011
 30
0.0
 40
11.10610640582386
100
AcDbArc
 50
145.4396996883882
 51
210.2108120823925
  0
ARC
  5
4F75
330
A
100
AcDbEntity
  8
0
 62
     0
370
     9
100
AcDbCircle
 10
637.9772074508176
 20
137.2652693091728
 30
0.0
 40
11.10610640582386
100
AcDbArc
 50
329.7891879176071
 51
34.56030031161587
  0
ARC
  5
4F76
330
A
100
AcDbEntity
  8
0
 62
     0
370
     9
100
AcDbCircle
 10
656.7210886042506
 20
149.1538708519447
 30
0.0
 40
11.10610640582386
100
AcDbArc
 50
145.4396996883882
 51
210.2108120823925
  0
LINE
  5
4F77
330
A
100
AcDbEntity
  8
0
 62
     0
370
    15
100
AcDbLine
 10
545.242307247802
 20
220.7581210163122
 30
0.0
 11
641.906227288541
 21
220.7581210163122
 31
0.0
  0
LINE
  5
4F78
330
A
100
AcDbEntity
  8
0
 62
     0
370
    15
100
AcDbLine
 10
645.2922334808488
 20
210.7581210163121
 30
0.0
 11
545.242307247802
 21
210.7581210163121
 31
0.0
  0
LINE
  5
4F79
330
A
100
AcDbEntity
  8
0
 62
     0
370
    15
100
AcDbLine
 10
545.242307247802
 20
223.7581210163122
 30
0.0
 11
642.0185163801643
 21
223.7581210163122
 31
0.0
  0
LINE
  5
4F7A
330
A
100
AcDbEntity
  8
0
 62
     0
370
    15
100
AcDbLine
 10
645.7331858963848
 20
223.4625678775976
 30
0.0
 11
745.2431807720106
 21
223.4625678775976
 31
0.0
  0
LINE
  5
4F7B
330
A
100
AcDbEntity
  8
0
 62
     0
370
    15
100
AcDbLine
 10
645.7015486264429
 20
220.4625678775976
 30
0.0
 11
745.2431807720106
 21
220.4625678775976
 31
0.0
  0
LINE
  5
4F7C
330
A
100
AcDbEntity
  8
0
 62
     0
370
    15
100
AcDbLine
 10
745.2431807720106
 20
210.4625678775975
 30
0.0
 11
649.0718428129849
 21
210.4625678775975
 31
0.0
  0
LINE
  5
4F7D
330
A
100
AcDbEntity
  8
0
 62
     0
370
    15
100
AcDbLine
 10
644.8194388405964
 20
140.5654665581555
 30
0.0
 11
545.242307247802
 21
140.5654665581555
 31
0.0
  0
LINE
  5
4F7E
330
A
100
AcDbEntity
  8
0
 62
     0
370
    15
100
AcDbLine
 10
545.242307247802
 20
146.5654665581558
 30
0.0
 11
642.1586061373528
 21
146.5654665581558
 31
0.0
  0
LINE
  5
4F7F
330
A
100
AcDbEntity
  8
0
 62
     0
370
    15
100
AcDbLine
 10
645.9959597460509
 20
146.2699134194411
 30
0.0
 11
745.2431807720106
 21
146.2699134194411
 31
0.0
  0
LINE
  5
4F80
330
A
100
AcDbEntity
  8
0
 62
     0
370
    15
100
AcDbLine
 10
745.2431807720106
 20
140.2699134194409
 30
0.0
 11
648.6691536379303
 21
140.2699134194409
 31
0.0
  0
MTEXT
  5
4FF1
330
A
100
AcDbEntity
  8
0
  6
Continuous
 62
     4
100
AcDbMText
 10
611.5495169901114
 20
236.1359905228788
 30
0.0
 40
3.0
 41
33.94871133844185
 46
3.324
 71
     1
 72
     5
  1
{{\C0;発光面}}
 73
     1
 44
1.0
  0
LEADER
  5
4FF2
102
{ACAD_REACTORS
330
4FF4
102
}
102
{ACAD_XDICTIONARY
360
4FF3
102
}
330
A
100
AcDbEntity
  8
0
  6
Continuous
 62
     0
370
     9
100
AcDbLeader
  3
ISO-2
 71
     0
 76
     3
 10
602.8782878877076
 20
222.3219381909628
 30
0.0
 10
611.0975231811385
 20
231.6174619666302
 30
0.0
 10
624.9191479226882
 20
231.6174619666302
 30
0.0
1001
ACAD
1000
DSTYLE
1002
{
1070
   371
1070
     9
1070
   279
1070
     2
1002
}
  0
LWPOLYLINE
  5
4FF5
102
{ACAD_REACTORS
330
4FF4
102
}
330
A
100
AcDbEntity
  8
0
  6
ByBlock
 62
     0
100
AcDbPolyline
 90
        2
 70
     1
 43
0.6604000000000001
 10
602.5782471145926
 20
222.1840702306945
 42
1.0
 10
603.1783286608227
 20
222.459806151231
 42
1.0
  0
HATCH
  5
5060
330
A
100
AcDbEntity
  8
0
  6
Continuous
 62
     0
440
 50331648
100
AcDbHatch
 10
0.0
 20
0.0
 30
0.0
210
0.0
220
0.0
230
1.0
  2
SOLID
 70
     1
 71
     1
 91
        4
 92
        7
 72
     1
 73
     1
 93
        4
 10
495.4146651521194
 20
217.2581210163121
 42
-0.0477055303056458
 10
494.728356319239
 20
219.258121016312
 42
0.0
 10
455.5617334317801
 20
219.258121016312
 42
0.0
 10
455.5617334317801
 20
217.2581210163121
 42
0.0
 97
        4
330
4F54
330
4F68
330
4F5D
330
4F6A
 92
        7
 72
     1
 73
     1
 93
        4
 10
545.242307247802
 20
217.2581210163121
 42
0.0
 10
545.242307247802
 20
219.258121016312
 42
0.0
 10
498.4905719973311
 20
219.258121016312
 42
0.047705530305595
 10
499.1768808302116
 20
217.2581210163121
 42
0.0
 97
        4
330
4F26
330
4F67
330
4F55
330
4F69
 92
        7
 72
     1
 73
     1
 93
        4
 10
791.308607189601
 20
216.9625678775975
 42
0.0477055303056837
 10
791.9949160224817
 20
218.9625678775973
 42
0.0
 10
745.2431807720106
 20
218.9625678775973
 42
0.0
 10
745.2431807720106
 20
216.9625678775975
 42
0.0
 97
        4
330
4F59
330
4F61
330
4F24
330
4F5F
 92
        7
 72
     1
 73
     1
 93
        4
 10
834.9237545880326
 20
216.9625678775975
 42
0.0
 10
834.9237545880326
 20
218.9625678775973
 42
0.0
 10
795.7571317005737
 20
218.9625678775973
 42
-0.0477055303056162
 10
795.0708228676932
 20
216.9625678775975
 42
0.0
 97
        4
330
4F5E
330
4F62
330
4F58
330
4F63
 75
     0
 76
     1
 47
0.0
 98
        4
 10
481.3656043030408
 20
218.5402485452234
 10
513.9594348425844
 20
218.2207011869926
 10
757.134974456238
 20
217.9011538287618
 10
801.5520572503218
 20
218.2207011869926
1001
ACAD
1010
0.0
1020
0.0
1030
0.0
  0
MTEXT
  5
50A7
330
A
100
AcDbEntity
  8
0
  6
Continuous
 62
     4
100
AcDbMText
 10
762.7935823154717
 20
232.7766202095133
 30
0.0
 40
3.0
 41
33.94871133844185
 46
3.408
 71
     1
 72
     5
  1
{{\C0;黒線}}
 73
     1
 44
1.0
  0
LEADER
  5
50A8
102
{ACAD_REACTORS
330
50AA
102
}
102
{ACAD_XDICTIONARY
360
50A9
102
}
330
A
100
AcDbEntity
  8
0
  6
Continuous
 62
     0
370
     9
100
AcDbLeader
  3
ISO-2
 76
     3
 10
754.2061206357439
 20
218.9625678775973
 30
0.0
 10
762.3415885064987
 20
228.2580916532648
 30
0.0
 10
771.4183473584319
 20
228.2580916532648
 30
0.0
1001
ACAD
1000
DSTYLE
1002
{
1070
   371
1070
     9
1070
   279
1070
     2
1002
}
  0
MTEXT
  5
50AB
330
A
100
AcDbEntity
  8
0
  6
Continuous
 62
     4
100
AcDbMText
 10
762.7935823154717
 20
206.1902800047095
 30
0.0
 40
3.0
 41
33.94871133844185
 46
3.408
 71
     1
 72
     5
  1
{{\C0;白線}}
 73
     1
 44
1.0
  0
LEADER
  5
50AC
102
{ACAD_REACTORS
330
50AE
102
}
102
{ACAD_XDICTIONARY
360
50AD
102
}
330
A
100
AcDbEntity
  8
0
  6
Continuous
 62
     0
370
     9
100
AcDbLeader
  3
ISO-2
 76
     3
 10
754.1413164314947
 20
214.9625678775976
 30
0.0
 10
762.0992215857204
 20
201.5350276498262
 30
0.0
 10
770.9844321089699
 20
201.5350276498262
 30
0.0
1001
ACAD
1000
DSTYLE
1002
{
1070
   371
1070
     9
1070
   279
1070
     2
1002
}
  0
CIRCLE
  5
50AF
330
A
100
AcDbEntity
  8
1
 62
     0
370
     9
100
AcDbCircle
 10
475.6735405082293
 20
194.5762777531243
 30
0.0
 40
3.5
  0
TEXT
  5
50B0
330
A
100
AcDbEntity
  8
1
 62
     0
370
     9
100
AcDbText
 10
474.5826314173203
 20
193.101224608195
 30
0.0
 40
3.0
  1
2
  7
ＭＳ_Ｐゴシック
 72
     4
 11
475.6735405082293
 21
194.5762777531243
 31
0.0
100
AcDbText
  0
LEADER
  5
50B1
102
{ACAD_XDICTIONARY
360
50B2
102
}
330
A
100
AcDbEntity
  8
1
 62
     0
370
     9
100
AcDbLeader
  3
ISO-25
 76
     2
 10
482.1806455056474
 20
215.2581210163122
 30
0.0
 10
476.7239762340068
 20
197.9149278974207
 30
0.0
211
-6.123233995736766E-17
221
1.0
231
0.0
1001
ACAD
1000
DSTYLE
1002
{
1070
    40
1040
1.0
1070
     5
1000
DOT
1070
   341
1005
459
1070
    41
1040
3.302
1070
    44
1040
1.0
1070
    42
1040
1.0
1070
   147
1040
1.524
1070
    73
1070
     1
1070
    74
1070
     1
1070
   140
1040
3.5
1070
   284
1070
     0
1070
    78
1070
     0
1002
}
  0
MTEXT
  5
50B4
330
A
100
AcDbEntity
  8
0
  6
Continuous
 62
     4
100
AcDbMText
 10
449.2377370514835
 20
206.1902800047095
 30
0.0
 40
3.0
 41
33.94871133844185
 46
3.408
 71
     1
 72
     5
  1
{{\C0;白線}}
 73
     1
 44
1.0
  0
LEADER
  5
50B5
102
{ACAD_XDICTIONARY
360
50B6
102
}
330
A
100
AcDbEntity
  8
0
  6
Continuous
 62
     0
370
     9
100
AcDbLeader
  3
ISO-2
 76
     3
 10
466.0877382166967
 20
214.9625678775976
 30
0.0
 10
458.1298330624711
 20
201.5350276498262
 30
0.0
 10
449.2446225392215
 20
201.5350276498262
 30
0.0
211
-1.0
221
0.0
231
0.0
1001
ACAD
1000
DSTYLE
1002
{
1070
   371
1070
     9
1070
   279
1070
     2
1002
}
  0
MTEXT
  5
50B8
330
A
100
AcDbEntity
  8
0
  6
Continuous
 62
     4
100
AcDbMText
 10
449.2377370514835
 20
232.7766202095133
 30
0.0
 40
3.0
 41
33.94871133844185
 46
3.408
 71
     1
 72
     5
  1
{{\C0;黒線}}
 73
     1
 44
1.0
  0
LEADER
  5
50B9
102
{ACAD_XDICTIONARY
360
50BA
102
}
330
A
100
AcDbEntity
  8
0
  6
Continuous
 62
     0
370
     9
100
AcDbLeader
  3
ISO-2
 76
     3
 10
466.0229340124475
 20
218.9625678775973
 30
0.0
 10
457.8874661416928
 20
228.2580916532648
 30
0.0
 10
448.8107072897595
 20
228.2580916532648
 30
0.0
211
-1.0
221
0.0
231
0.0
1001
ACAD
1000
DSTYLE
1002
{
1070
   371
1070
     9
1070
   279
1070
     2
1002
}
  0
CIRCLE
  5
50BE
330
A
100
AcDbEntity
  8
1
 62
     0
370
     9
100
AcDbCircle
 10
828.4111511336112
 20
240.9098260716603
 30
0.0
 40
5.0
  0
LEADER
  5
50C0
102
{ACAD_XDICTIONARY
360
50C1
102
}
330
A
100
AcDbEntity
  8
1
 62
     0
370
     9
100
AcDbLeader
  3
ISO-25
 76
     2
 10
810.9979158827148
 20
219.5536741550266
 30
0.0
 10
825.2514859866194
 20
237.034711085123
 30
0.0
211
6.123233995736766E-17
221
-1.0
231
0.0
1001
ACAD
1000
DSTYLE
1002
{
1070
    40
1040
1.0
1070
     5
1000
DOT
1070
   341
1005
459
1070
    41
1040
3.302
1070
    44
1040
1.0
1070
    42
1040
1.0
1070
   147
1040
1.524
1070
    73
1070
     1
1070
    74
1070
     1
1070
   140
1040
3.5
1070
   284
1070
     0
1070
    78
1070
     0
1002
}
  0
CIRCLE
  5
50C2
330
A
100
AcDbEntity
  8
1
 62
     0
370
     9
100
AcDbCircle
 10
475.6735405082293
 20
239.9399642794999
 30
0.0
 40
3.5
  0
LEADER
  5
50C4
102
{ACAD_XDICTIONARY
360
50C5
102
}
330
A
100
AcDbEntity
  8
1
 62
     0
370
     9
100
AcDbLeader
  3
ISO-25
 76
     2
 10
482.1806455056474
 20
219.258121016312
 30
0.0
 10
476.7239762340068
 20
236.6013141352035
 30
0.0
211
-6.123233995736766E-17
221
-1.0
231
0.0
1001
ACAD
1000
DSTYLE
1002
{
1070
    40
1040
1.0
1070
     5
1000
DOT
1070
   341
1005
459
1070
    41
1040
3.302
1070
    44
1040
1.0
1070
    42
1040
1.0
1070
   147
1040
1.524
1070
    73
1070
     1
1070
    74
1070
     1
1070
   140
1040
3.5
1070
   284
1070
     0
1070
    78
1070
     0
1002
}
  0
TEXT
  5
50C6
330
A
100
AcDbEntity
  8
1
 62
     0
370
     9
100
AcDbText
 10
827.3202420427023
 20
239.4182667369098
 30
0.0
 40
3.0
  1
3
  7
ＭＳ_Ｐゴシック
 72
     4
 11
828.4111511336114
 21
240.9098260716603
 31
0.0
100
AcDbText
  0
TEXT
  5
50C7
330
A
100
AcDbEntity
  8
1
 62
     0
370
     9
100
AcDbText
 10
474.5826314173203
 20
238.4484049447493
 30
0.0
 40
3.0
  1
3
  7
ＭＳ_Ｐゴシック
 72
     4
 11
475.6735405082293
 21
239.9399642794999
 31
0.0
100
AcDbText
  0
LINE
  5
50C8
330
A
100
AcDbEntity
  8
1
 62
     7
100
AcDbLine
 10
544.4250200184738
 20
254.0872072606362
 30
0.0
 11
444.4250200184738
 21
254.0872072606362
 31
0.0
  0
MTEXT
  5
50C9
330
A
100
AcDbEntity
  8
1
  6
Continuous
 62
     7
100
AcDbMText
 10
449.5998580032257
 20
260.4536297367245
 30
0.0
 40
3.5
 41
0.0
 46
3.5
 71
     2
 72
     1
  1
{3}
  7
ＭＳ_Ｐゴシック
 73
     1
 44
1.0
  0
MTEXT
  5
50CA
330
A
100
AcDbEntity
  8
1
  6
Continuous
 62
     7
100
AcDbMText
 10
500.1022232825781
 20
260.4536297367245
 30
0.0
 40
3.0
 41
0.0
 46
3.0
 71
     2
 72
     1
  1
{2}
  7
ＭＳ_Ｐゴシック
 73
     1
 44
1.0
  0
MTEXT
  5
50CB
330
A
100
AcDbEntity
  8
1
  6
Continuous
 62
     7
100
AcDbMText
 10
474.4250200184738
 20
259.0872072606362
 30
0.0
 40
3.0
 41
28.21410445348547
 46
17.04
 71
     5
 72
     1
  1
{配線}
  7
ＭＳ_Ｐゴシック
 73
     1
 44
1.0
  0
MTEXT
  5
50CC
330
A
100
AcDbEntity
  8
1
  6
Continuous
 62
     7
100
AcDbMText
 10
526.4344811358828
 20
259.0872072606362
 30
0.0
 40
3.0
 41
28.21410445348545
 46
3.409090909090909
 71
     5
 72
     1
  1
{PVC 黒}
  7
ＭＳ_Ｐゴシック
 73
     1
 44
1.0
  0
VIEWPORT
  5
50C
330
B
100
AcDbEntity
 67
     1
  8
0
100
AcDbViewport
 10
0.0
 20
0.0
 30
0.0
 40
87.52768277709984
 41
50.8248981504
 68
     1
 69
     1
 12
144.2757933275833
 22
138.4691507916286
 13
0.0
 23
0.0
 14
0.5
 24
0.5
 15
0.0
 25
0.0
 16
0.0
 26
0.0
 36
1.0
 17
0.0
 27
0.0
 37
0.0
 42
50.0
 43
0.0
 44
0.0
 45
50.8248981504
 50
0.0
 51
0.0
 72
   100
 90
   557168
  1

281
     0
 71
     1
 74
     0
110
0.0
120
0.0
130
0.0
111
1.0
121
0.0
131
0.0
112
0.0
122
1.0
132
0.0
 79
     0
146
0.0
170
     0
 61
     5
348
D27
292
     1
282
     1
141
0.0
142
0.0
 63
   256
361
E27
  0
VIEWPORT
  5
50D
102
{ACAD_XDICTIONARY
360
50E
102
}
330
B
100
AcDbEntity
 67
     1
  8
0
100
AcDbViewport
 10
202.5
 20
128.5
 30
0.0
 40
324.0
 41
205.6
 68
     2
 69
     2
 12
644.4250200184739
 22
155.5872072606362
 13
0.0
 23
0.0
 14
0.5
 24
0.5
 15
0.0
 25
0.0
 16
0.0
 26
0.0
 36
1.0
 17
0.0
 27
0.0
 37
0.0
 42
50.0
 43
0.0
 44
0.0
 45
302.94
 50
0.0
 51
0.0
 72
   100
 90
   557152
  1

281
     0
 71
     1
 74
     0
110
0.0
120
0.0
130
0.0
111
1.0
121
0.0
131
0.0
112
0.0
122
1.0
132
0.0
 79
     0
146
0.0
170
     0
 61
     5
348
D27
292
     1
282
     1
141
0.0
142
0.0
 63
   256
  0
ENDSEC
  0
SECTION
  2
OBJECTS
  0
DICTIONARY
  5
19
330
0
100
AcDbDictionary
281
     1
  3
ACAD_COLOR
350
323D
  3
ACAD_DETAILVIEWSTYLE
350
1CF
  3
ACAD_GROUP
350
1A
  3
ACAD_IMAGE_VARS
350
1C6
  3
ACAD_LAYOUT
350
D60
  3
ACAD_MATERIAL
350
D63
  3
ACAD_MLEADERSTYLE
350
D69
  3
ACAD_MLINESTYLE
350
1B
  3
ACAD_PLOTSETTINGS
350
D3B
  3
ACAD_PLOTSTYLENAME
350
D3C
  3
ACAD_SCALELIST
350
D3E
  3
ACAD_SECTIONVIEWSTYLE
350
1D0
  3
ACAD_TABLESTYLE
350
D67
  3
ACAD_VISUALSTYLE
350
D22
  3
ACAD_WIPEOUT_VARS
350
23
  3
AcadDim
350
4780
  3
ACDB_RECOMPOSE_DATA
350
50CF
  3
ACDBVARIABLEDICTIONARY
350
1C7
  3
ACSTSTANDARD
350
3CDD
  3
APPDATA
350
1C4
  3
CENTERLINE
350
347
  3
DIMOFFSETDICTIONARY
350
342
  0
SUN
  5
D6B
330
15
100
AcDbSun
 90
        1
290
     0
 63
     7
421
 16777215
 40
1.0
291
     1
 91
  2455826
 92
 54000000
292
     0
 70
     2
 71
   256
280
     1
  0
DICTIONARY
  5
29A
330
2
100
AcDbDictionary
280
     1
281
     1
  3
ACAD_LAYERSTATES
360
29B
  0
DICTIONARY
  5
4F28
330
4F27
100
AcDbDictionary
280
     1
281
     1
  0
DICTIONARY
  5
4F2A
330
4F29
100
AcDbDictionary
280
     1
281
     1
  3
ACAD_DIMASSOC
360
4F2B
  0
DICTIONARY
  5
4F2D
330
4F2C
100
AcDbDictionary
280
     1
281
     1
  3
ACAD_DIMASSOC
360
4F2E
  0
DICTIONARY
  5
4F31
330
4F30
100
AcDbDictionary
280
     1
281
     1
  0
DICTIONARY
  5
4F35
330
4F34
100
AcDbDictionary
280
     1
281
     1
  0
DICTIONARY
  5
4F39
330
4F38
100
AcDbDictionary
280
     1
281
     1
  0
DICTIONARY
  5
4F4A
330
4F49
100
AcDbDictionary
280
     1
281
     1
  0
DICTIONARY
  5
4FF3
330
4FF2
100
AcDbDictionary
280
     1
281
     1
  3
ACAD_DIMASSOC
360
4FF4
  0
DICTIONARY
  5
50A9
330
50A8
100
AcDbDictionary
280
     1
281
     1
  3
ACAD_DIMASSOC
360
50AA
  0
DICTIONARY
  5
50AD
330
50AC
100
AcDbDictionary
280
     1
281
     1
  3
ACAD_DIMASSOC
360
50AE
  0
DICTIONARY
  5
50B2
330
50B1
100
AcDbDictionary
280
     1
281
     1
  0
DICTIONARY
  5
50B6
330
50B5
100
AcDbDictionary
280
     1
281
     1
  3
ACAD_DIMASSOC
360
50B7
  0
DICTIONARY
  5
50BA
330
50B9
100
AcDbDictionary
280
     1
281
     1
  3
ACAD_DIMASSOC
360
50BB
  0
DICTIONARY
  5
50C1
330
50C0
100
AcDbDictionary
280
     1
281
     1
  0
DICTIONARY
  5
50C5
330
50C4
100
AcDbDictionary
280
     1
281
     1
  0
SUN
  5
E27
330
50C
100
AcDbSun
 90
        1
290
     0
 63
     7
421
 16777215
 40
1.0
291
     1
 91
  2455826
 92
 54000000
292
     0
 70
     2
 71
   256
280
     1
  0
DICTIONARY
  5
50E
330
50D
100
AcDbDictionary
280
     1
281
     1
  3
ASDK_XREC_ANNOTATION_SCALE_INFO
360
50F
  0
DICTIONARY
  5
323D
102
{ACAD_REACTORS
330
19
102
}
330
19
100
AcDbDictionary
281
     1
  0
DICTIONARY
  5
1CF
102
{ACAD_REACTORS
330
19
102
}
330
19
100
AcDbDictionary
281
     1
  0
DICTIONARY
  5
1A
102
{ACAD_REACTORS
330
19
102
}
330
19
100
AcDbDictionary
281
     1
  0
RASTERVARIABLES
  5
1C6
102
{ACAD_REACTORS
330
19
102
}
330
19
100
AcDbRasterVariables
 90
        0
 70
     1
 71
     1
 72
     0
  0
DICTIONARY
  5
D60
102
{ACAD_REACTORS
330
19
102
}
330
19
100
AcDbDictionary
281
     1
  3
Model
350
D61
  3
シート 1
350
D62
  0
DICTIONARY
  5
D63
102
{ACAD_REACTORS
330
19
102
}
330
19
100
AcDbDictionary
281
     1
  3
ByBlock
350
D65
  3
ByLayer
350
D64
  3
Global
350
D66
  0
DICTIONARY
  5
D69
102
{ACAD_REACTORS
330
19
102
}
330
19
100
AcDbDictionary
281
     1
  3
Standard
350
D6A
  0
DICTIONARY
  5
1B
102
{ACAD_REACTORS
330
19
102
}
330
19
100
AcDbDictionary
281
     1
  3
STANDARD
350
1C
  0
DICTIONARY
  5
D3B
102
{ACAD_REACTORS
330
19
102
}
330
19
100
AcDbDictionary
281
     1
  0
ACDBDICTIONARYWDFLT
  5
D3C
102
{ACAD_REACTORS
330
19
102
}
330
19
100
AcDbDictionary
281
     1
  3
Normal
350
D3D
100
AcDbDictionaryWithDefault
340
D3D
  0
DICTIONARY
  5
D3E
102
{ACAD_REACTORS
330
19
102
}
330
19
100
AcDbDictionary
281
     1
  3
A0
350
D3F
  3
A1
350
D40
  3
A2
350
D41
  3
A3
350
D42
  3
A4
350
D43
  3
A5
350
D44
  3
A6
350
D45
  3
A7
350
D46
  3
A8
350
D47
  3
A9
350
D48
  3
B0
350
D49
  3
B1
350
D4A
  3
B2
350
D4B
  3
B3
350
D4C
  3
B4
350
D4D
  3
B5
350
D4E
  3
B6
350
D4F
  3
B7
350
D50
  3
B8
350
D51
  3
B9
350
D52
  3
C0
350
D53
  3
C1
350
D54
  3
C2
350
D55
  3
C3
350
D56
  3
C4
350
D57
  3
C5
350
D58
  3
C6
350
D59
  3
C7
350
D5A
  3
C8
350
D5B
  3
C9
350
D5C
  3
D0
350
D5D
  3
D1
350
D5E
  3
D2
350
D5F
  0
DICTIONARY
  5
1D0
102
{ACAD_REACTORS
330
19
102
}
330
19
100
AcDbDictionary
281
     1
  0
DICTIONARY
  5
D67
102
{ACAD_REACTORS
330
19
102
}
330
19
100
AcDbDictionary
281
     1
  3
Standard
350
D68
  0
DICTIONARY
  5
D22
102
{ACAD_REACTORS
330
19
102
}
330
19
100
AcDbDictionary
281
     1
  3
2dWireframe
350
D27
  3
Basic
350
D2A
  3
Brighten
350
D2E
  3
ColorChange
350
D32
  3
Conceptual
350
D2C
  3
Dim
350
D2D
  3
EdgeColorOff
350
D35
  3
Facepattern
350
D31
  3
Flat
350
D23
  3
FlatWithEdges
350
D24
  3
Gouraud
350
D25
  3
GouraudWithEdges
350
D26
  3
Hidden
350
D29
  3
JitterOff
350
D33
  3
Linepattern
350
D30
  3
OverhangOff
350
D34
  3
Realistic
350
D2B
  3
Shaded
350
D3A
  3
Shaded with edges
350
D39
  3
Shades of Gray
350
D36
  3
Sketchy
350
D37
  3
Thicken
350
D2F
  3
Wireframe
350
D28
  3
X-Ray
350
D38
  0
WIPEOUTVARIABLES
  5
23
330
19
100
AcDbWipeoutVariables
 70
     1
  0
XRECORD
  5
4780
102
{ACAD_REACTORS
330
19
102
}
330
19
100
AcDbXrecord
280
     1
340
0
 72
     0
 71
     0
 70
     0
 69
     0
 68
     1
 67
     3
 66
     0
 65
     0
 64
     0
 63
     3
 62
     1
 61
     0
 60
     0
 40
0.0
  0
XRECORD
  5
50CF
102
{ACAD_REACTORS
330
19
102
}
330
19
100
AcDbXrecord
280
     1
 90
        1
330
D68
  0
DICTIONARY
  5
1C7
102
{ACAD_REACTORS
330
19
102
}
330
19
100
AcDbDictionary
281
     1
  3
CANNOSCALE
350
E23
  3
CMLEADERSTYLE
350
E25
  3
CTABLESTYLE
350
E24
  3
HPTRANSPARENCY
350
DCD
  3
MSLTSCALE
350
E26
  0
DICTIONARY
  5
3CDD
102
{ACAD_REACTORS
330
19
102
}
330
19
100
AcDbDictionary
281
     1
  0
DICTIONARY
  5
1C4
102
{ACAD_REACTORS
330
19
102
}
330
19
100
AcDbDictionary
281
     1
  0
DICTIONARY
  5
347
102
{ACAD_REACTORS
330
19
102
}
330
19
100
AcDbDictionary
281
     1
  3
CLEXTENSION
350
3CE2
  0
DICTIONARY
  5
342
102
{ACAD_REACTORS
330
19
102
}
330
19
100
AcDbDictionary
281
     1
  3
DIMRAILANGLE
350
3CE0
  3
DIMRAILFIRSTOFFSET
350
3CDE
  3
DIMRAILOFFSET
350
3CDF
  3
DIMRAILSENABLED
350
3CE1
  0
DICTIONARY
  5
29B
102
{ACAD_REACTORS
330
29A
102
}
330
29A
100
AcDbDictionary
281
     1
  0
DIMASSOC
  5
4F2B
102
{ACAD_REACTORS
330
4F2A
102
}
330
4F2A
100
AcDbDimAssoc
330
4F29
 90
        2
 70
     0
 71
     1
  1
AcDbOsnapPointRef
 72
     1
331
4F1D
 73
     0
 91
        0
 40
0.0
 10
0.0
 20
0.0
 30
0.0
 75
     0
  0
DIMASSOC
  5
4F2E
102
{ACAD_REACTORS
330
4F2D
102
}
330
4F2D
100
AcDbDimAssoc
330
4F2C
 90
        2
 70
     0
 71
     1
  1
AcDbOsnapPointRef
 72
     1
331
4F20
 73
     0
 91
        0
 40
0.0
 10
0.0
 20
0.0
 30
0.0
 75
     0
  0
DIMASSOC
  5
4FF4
102
{ACAD_REACTORS
330
4FF3
102
}
330
4FF3
100
AcDbDimAssoc
330
4FF2
 90
        0
 70
     0
 71
     1
  0
DIMASSOC
  5
50AA
102
{ACAD_REACTORS
330
50A9
102
}
330
50A9
100
AcDbDimAssoc
330
50A8
 90
        0
 70
     0
 71
     1
  0
DIMASSOC
  5
50AE
102
{ACAD_REACTORS
330
50AD
102
}
330
50AD
100
AcDbDimAssoc
330
50AC
 90
        0
 70
     0
 71
     1
  0
DIMASSOC
  5
50B7
102
{ACAD_REACTORS
330
50B6
102
}
330
50B6
100
AcDbDimAssoc
330
50B5
 90
        0
 70
     0
 71
     1
  0
DIMASSOC
  5
50BB
102
{ACAD_REACTORS
330
50BA
102
}
330
50BA
100
AcDbDimAssoc
330
50B9
 90
        0
 70
     0
 71
     1
  0
XRECORD
  5
50F
102
{ACAD_REACTORS
330
50E
102
}
330
50E
100
AcDbXrecord
280
     1
 90
        1
340
0
  0
LAYOUT
  5
D61
102
{ACAD_REACTORS
330
D60
102
}
330
D60
100
AcDbPlotSettings
  1

  2
none_device
  4
Letter_(8.50_x_11.00_Inches)
  6

 40
6.35
 41
6.35
 42
6.35
 43
6.35
 44
215.9
 45
279.4
 46
0.0
 47
0.0
 48
0.0
 49
0.0
140
0.0
141
0.0
142
1.0
143
94.20939657471693
 70
  1712
 72
     0
 73
     0
 74
     0
  7

 75
     0
 76
     0
 77
     2
 78
   300
147
0.010614652427021
148
-8120.521216095871
149
435.1168314980068
100
AcDbLayout
  1
Model
 70
     1
 71
     0
 10
14.6844
 20
10.7156
 11
404.6802
 21
287.7344
 12
0.0
 22
0.0
 32
0.0
 14
434.4250200184738
 24
7.087207260636177
 34
0.0
 15
854.4250200184738
 25
304.0872072606362
 35
0.0
146
0.0
 13
0.0
 23
0.0
 33
0.0
 16
1.0
 26
0.0
 36
0.0
 17
0.0
 27
1.0
 37
0.0
 76
     0
330
A
331
15
  0
LAYOUT
  5
D62
102
{ACAD_REACTORS
330
D60
102
}
330
D60
100
AcDbPlotSettings
  1

  2
none_device
  4
ISO_A3_(420.00_x_297.00_MM)
  6

 40
7.5
 41
20.0
 42
7.5
 43
20.0
 44
420.0
 45
297.0
 46
0.0
 47
0.0
 48
0.0
 49
0.0
140
0.0
141
0.0
142
1.0
143
0.8
 70
   688
 72
     1
 73
     0
 74
     1
  7

 75
     0
 76
     0
 77
     2
 78
   300
147
1.25
148
-40.5
149
-25.69999999999999
100
AcDbLayout
  1
シート 1
 70
     0
 71
     1
 10
0.0
 20
0.0
 11
0.0
 21
0.0
 12
0.0
 22
0.0
 32
0.0
 14
40.5
 24
25.69999999999999
 34
0.0
 15
364.5
 25
231.3
 35
0.0
146
0.0
 13
0.0
 23
0.0
 33
0.0
 16
1.0
 26
0.0
 36
0.0
 17
0.0
 27
1.0
 37
0.0
 76
     0
330
B
331
50C
  0
MATERIAL
  5
D65
102
{ACAD_REACTORS
330
D63
102
}
330
D63
100
AcDbMaterial
  1
ByBlock
 72
     1
 94
      127
  0
MATERIAL
  5
D64
102
{ACAD_REACTORS
330
D63
102
}
330
D63
100
AcDbMaterial
  1
ByLayer
 72
     1
 94
      127
  0
MATERIAL
  5
D66
102
{ACAD_REACTORS
330
D63
102
}
330
D63
100
AcDbMaterial
  1
Global
 72
     1
 94
      127
  0
MLEADERSTYLE
  5
D6A
102
{ACAD_REACTORS
330
D69
102
}
330
D69
100
AcDbMLeaderStyle
179
     2
170
     2
171
     1
172
     0
 90
        2
 40
0.0
 41
0.0
173
     1
 91
-1056964608
340
11
 92
       -2
290
     1
 42
2.0
291
     1
 43
8.0
  3
Standard
341
0
 44
4.0
300

342
17
174
     1
178
     1
175
     1
176
     0
 93
-1056964608
 45
4.0
292
     0
297
     0
 46
4.0
343
0
 94
-1056964608
 47
1.0
 49
1.0
140
1.0
293
     1
141
0.0
294
     1
177
     0
142
1.0
295
     0
296
     0
143
3.75
271
     0
272
     9
273
     9
298
     0
  0
MLINESTYLE
  5
1C
102
{ACAD_REACTORS
330
1B
102
}
330
1B
100
AcDbMlineStyle
  2
Standard
 70
     0
  3

 62
     0
 51
90.0
 52
90.0
 71
     2
 49
0.5
 62
   256
  6
BYLAYER
 49
-0.5
 62
   256
  6
BYLAYER
  0
ACDBPLACEHOLDER
  5
D3D
102
{ACAD_REACTORS
330
D3C
102
}
330
D3C
  0
SCALE
  5
D3F
102
{ACAD_REACTORS
330
D3E
102
}
330
D3E
100
AcDbScale
 70
     0
300
1:1
140
1.0
141
1.0
290
     1
  0
SCALE
  5
D40
102
{ACAD_REACTORS
330
D3E
102
}
330
D3E
100
AcDbScale
 70
     0
300
1:2
140
1.0
141
2.0
290
     0
  0
SCALE
  5
D41
102
{ACAD_REACTORS
330
D3E
102
}
330
D3E
100
AcDbScale
 70
     0
300
1:4
140
1.0
141
4.0
290
     0
  0
SCALE
  5
D42
102
{ACAD_REACTORS
330
D3E
102
}
330
D3E
100
AcDbScale
 70
     0
300
1:5
140
1.0
141
5.0
290
     0
  0
SCALE
  5
D43
102
{ACAD_REACTORS
330
D3E
102
}
330
D3E
100
AcDbScale
 70
     0
300
1:8
140
1.0
141
8.0
290
     0
  0
SCALE
  5
D44
102
{ACAD_REACTORS
330
D3E
102
}
330
D3E
100
AcDbScale
 70
     0
300
1:10
140
1.0
141
10.0
290
     0
  0
SCALE
  5
D45
102
{ACAD_REACTORS
330
D3E
102
}
330
D3E
100
AcDbScale
 70
     0
300
1:16
140
1.0
141
16.0
290
     0
  0
SCALE
  5
D46
102
{ACAD_REACTORS
330
D3E
102
}
330
D3E
100
AcDbScale
 70
     0
300
1:20
140
1.0
141
20.0
290
     0
  0
SCALE
  5
D47
102
{ACAD_REACTORS
330
D3E
102
}
330
D3E
100
AcDbScale
 70
     0
300
1:30
140
1.0
141
30.0
290
     0
  0
SCALE
  5
D48
102
{ACAD_REACTORS
330
D3E
102
}
330
D3E
100
AcDbScale
 70
     0
300
1:40
140
1.0
141
40.0
290
     0
  0
SCALE
  5
D49
102
{ACAD_REACTORS
330
D3E
102
}
330
D3E
100
AcDbScale
 70
     0
300
1:50
140
1.0
141
50.0
290
     0
  0
SCALE
  5
D4A
102
{ACAD_REACTORS
330
D3E
102
}
330
D3E
100
AcDbScale
 70
     0
300
1:100
140
1.0
141
100.0
290
     0
  0
SCALE
  5
D4B
102
{ACAD_REACTORS
330
D3E
102
}
330
D3E
100
AcDbScale
 70
     0
300
2:1
140
2.0
141
1.0
290
     0
  0
SCALE
  5
D4C
102
{ACAD_REACTORS
330
D3E
102
}
330
D3E
100
AcDbScale
 70
     0
300
4:1
140
4.0
141
1.0
290
     0
  0
SCALE
  5
D4D
102
{ACAD_REACTORS
330
D3E
102
}
330
D3E
100
AcDbScale
 70
     0
300
8:1
140
8.0
141
1.0
290
     0
  0
SCALE
  5
D4E
102
{ACAD_REACTORS
330
D3E
102
}
330
D3E
100
AcDbScale
 70
     0
300
10:1
140
10.0
141
1.0
290
     0
  0
SCALE
  5
D4F
102
{ACAD_REACTORS
330
D3E
102
}
330
D3E
100
AcDbScale
 70
     0
300
100:1
140
100.0
141
1.0
290
     0
  0
SCALE
  5
D50
102
{ACAD_REACTORS
330
D3E
102
}
330
D3E
100
AcDbScale
 70
     0
300
1/128" = 1'-0"
140
0.0078125
141
12.0
290
     0
  0
SCALE
  5
D51
102
{ACAD_REACTORS
330
D3E
102
}
330
D3E
100
AcDbScale
 70
     0
300
1/64" = 1'-0"
140
0.015625
141
12.0
290
     0
  0
SCALE
  5
D52
102
{ACAD_REACTORS
330
D3E
102
}
330
D3E
100
AcDbScale
 70
     0
300
1/32" = 1'-0"
140
0.03125
141
12.0
290
     0
  0
SCALE
  5
D53
102
{ACAD_REACTORS
330
D3E
102
}
330
D3E
100
AcDbScale
 70
     0
300
1/16" = 1'-0"
140
0.0625
141
12.0
290
     0
  0
SCALE
  5
D54
102
{ACAD_REACTORS
330
D3E
102
}
330
D3E
100
AcDbScale
 70
     0
300
3/32" = 1'-0"
140
0.09375
141
12.0
290
     0
  0
SCALE
  5
D55
102
{ACAD_REACTORS
330
D3E
102
}
330
D3E
100
AcDbScale
 70
     0
300
1/8" = 1'-0"
140
0.125
141
12.0
290
     0
  0
SCALE
  5
D56
102
{ACAD_REACTORS
330
D3E
102
}
330
D3E
100
AcDbScale
 70
     0
300
3/16" = 1'-0"
140
0.1875
141
12.0
290
     0
  0
SCALE
  5
D57
102
{ACAD_REACTORS
330
D3E
102
}
330
D3E
100
AcDbScale
 70
     0
300
1/4" = 1'-0"
140
0.25
141
12.0
290
     0
  0
SCALE
  5
D58
102
{ACAD_REACTORS
330
D3E
102
}
330
D3E
100
AcDbScale
 70
     0
300
3/8" = 1'-0"
140
0.375
141
12.0
290
     0
  0
SCALE
  5
D59
102
{ACAD_REACTORS
330
D3E
102
}
330
D3E
100
AcDbScale
 70
     0
300
1/2" = 1'-0"
140
0.5
141
12.0
290
     0
  0
SCALE
  5
D5A
102
{ACAD_REACTORS
330
D3E
102
}
330
D3E
100
AcDbScale
 70
     0
300
3/4" = 1'-0"
140
0.75
141
12.0
290
     0
  0
SCALE
  5
D5B
102
{ACAD_REACTORS
330
D3E
102
}
330
D3E
100
AcDbScale
 70
     0
300
1" = 1'-0"
140
1.0
141
12.0
290
     0
  0
SCALE
  5
D5C
102
{ACAD_REACTORS
330
D3E
102
}
330
D3E
100
AcDbScale
 70
     0
300
1-1/2" = 1'-0"
140
1.5
141
12.0
290
     0
  0
SCALE
  5
D5D
102
{ACAD_REACTORS
330
D3E
102
}
330
D3E
100
AcDbScale
 70
     0
300
3" = 1'-0"
140
3.0
141
12.0
290
     0
  0
SCALE
  5
D5E
102
{ACAD_REACTORS
330
D3E
102
}
330
D3E
100
AcDbScale
 70
     0
300
6" = 1'-0"
140
6.0
141
12.0
290
     0
  0
SCALE
  5
D5F
102
{ACAD_REACTORS
330
D3E
102
}
330
D3E
100
AcDbScale
 70
     0
300
1'-0" = 1'-0"
140
12.0
141
12.0
290
     0
  0
TABLESTYLE
  5
D68
102
{ACAD_REACTORS
330
D67
102
}
102
{ACAD_XDICTIONARY
360
50CD
102
}
330
D67
100
AcDbTableStyle
  3
Standard
 70
     0
 71
     0
 40
1.5
 41
1.5
280
     0
281
     0
  7
STANDARD
140
4.5
170
     2
 62
     0
 63
   257
283
     0
 90
        4
 91
        0
  1

274
    -2
284
     1
 64
     0
275
    -2
285
     1
 65
     0
276
    -2
286
     1
 66
     0
277
    -2
287
     1
 67
     0
278
    -2
288
     1
 68
     0
279
    -2
289
     1
 69
     0
  7
STANDARD
140
6.0
170
     5
 62
     0
 63
   257
283
     0
 90
        4
 91
        0
  1

274
    -2
284
     1
 64
     0
275
    -2
285
     1
 65
     0
276
    -2
286
     1
 66
     0
277
    -2
287
     1
 67
     0
278
    -2
288
     1
 68
     0
279
    -2
289
     1
 69
     0
  7
STANDARD
140
4.5
170
     5
 62
     0
 63
   257
283
     0
 90
        4
 91
        0
  1

274
    -2
284
     1
 64
     0
275
    -2
285
     1
 65
     0
276
    -2
286
     1
 66
     0
277
    -2
287
     1
 67
     0
278
    -2
288
     1
 68
     0
279
    -2
289
     1
 69
     0
  0
VISUALSTYLE
  5
D27
102
{ACAD_REACTORS
330
D22
102
}
330
D22
100
AcDbVisualStyle
  2
2dWireframe
 70
     4
177
     3
291
     0
 70
    58
 90
        0
176
     1
 90
        2
176
     1
 90
        0
176
     1
 90
        0
176
     1
 40
0.6
176
     1
 40
30.0
176
     1
 62
     7
420
 16777215
176
     1
 90
        1
176
     1
 90
        4
176
     1
 62
     7
176
     1
 62
   257
176
     1
 90
        1
176
     1
 90
        1
176
     1
 40
1.0
176
     1
 90
        0
176
     1
 62
   257
176
     1
 40
1.0
176
     1
 90
        1
176
     1
 90
        6
176
     1
 90
        2
176
     1
 62
     7
176
     1
 90
        5
176
     1
 90
        0
176
     1
 90
        0
176
     1
290
     0
176
     1
 90
        1
176
     1
 40
0.0
176
     1
 90
        0
176
     1
290
     1
176
     1
290
     1
176
     1
290
     0
176
     1
290
     0
176
     1
290
     0
176
     1
290
     0
176
     1
290
     0
176
     1
290
     0
176
     1
290
     0
176
     1
 90
       50
176
     1
 40
0.0
176
     1
 40
1.0
176
     1
 90
        0
176
     1
 62
    18
420
        0
176
     1
 90
       50
176
     1
 90
        3
176
     1
 62
     5
420
      255
176
     1
290
     0
176
     1
 90
       50
176
     1
 90
       50
176
     1
 90
       50
176
     1
290
     0
176
     1
 90
       50
176
     1
 62
   256
176
     0
 40
1.0
176
     0
 90
        2
176
     1
  1
strokes_ogs.tif
176
     1
290
     0
176
     1
 40
1.0
176
     1
 40
1.0
176
     1
  0
VISUALSTYLE
  5
D2A
102
{ACAD_REACTORS
330
D22
102
}
330
D22
100
AcDbVisualStyle
  2
Basic
 70
     7
177
     3
291
     1
 70
    58
 90
        1
176
     1
 90
        0
176
     1
 90
        1
176
     1
 90
        0
176
     1
 40
0.6
176
     1
 40
30.0
176
     1
 62
     7
420
 16777215
176
     1
 90
        0
176
     1
 90
        4
176
     1
 62
     7
176
     1
 62
   257
176
     1
 90
        1
176
     1
 90
        1
176
     1
 40
1.0
176
     1
 90
        8
176
     1
 62
     7
176
     1
 40
1.0
176
     1
 90
        1
176
     1
 90
        6
176
     1
 90
        2
176
     1
 62
     7
176
     1
 90
        5
176
     1
 90
        0
176
     1
 90
        0
176
     1
290
     0
176
     1
 90
        1
176
     1
 40
0.0
176
     1
 90
        0
176
     1
290
     0
176
     1
290
     1
176
     1
290
     1
176
     1
290
     0
176
     1
290
     0
176
     1
290
     0
176
     1
290
     0
176
     1
290
     0
176
     1
290
     0
176
     1
 90
       50
176
     1
 40
0.0
176
     1
 40
1.0
176
     1
 90
        0
176
     1
 62
    18
420
        0
176
     1
 90
       50
176
     1
 90
        3
176
     1
 62
     5
420
      255
176
     1
290
     0
176
     1
 90
       50
176
     1
 90
       50
176
     1
 90
       50
176
     1
290
     0
176
     1
 90
       50
176
     1
 62
   256
176
     0
 40
1.0
176
     0
 90
        2
176
     1
  1
strokes_ogs.tif
176
     1
290
     0
176
     1
 40
1.0
176
     1
 40
1.0
176
     1
  0
VISUALSTYLE
  5
D2E
102
{ACAD_REACTORS
330
D22
102
}
330
D22
100
AcDbVisualStyle
  2
Brighten
 70
    12
177
     3
291
     1
 70
    58
 90
        2
176
     1
 90
        2
176
     1
 90
        0
176
     1
 90
        0
176
     1
 40
0.6
176
     1
 40
30.0
176
     1
 62
     7
420
 16777215
176
     1
 90
        1
176
     1
 90
        4
176
     1
 62
     7
176
     1
 62
   257
176
     1
 90
        1
176
     1
 90
        1
176
     1
 40
1.0
176
     1
 90
        8
176
     1
 62
     7
176
     1
 40
1.0
176
     1
 90
        1
176
     1
 90
        6
176
     1
 90
        2
176
     1
 62
     7
176
     1
 90
        5
176
     1
 90
        0
176
     1
 90
        0
176
     1
290
     0
176
     1
 90
        1
176
     1
 40
50.0
176
     1
 90
        0
176
     1
290
     0
176
     1
290
     1
176
     1
290
     1
176
     1
290
     0
176
     1
290
     0
176
     1
290
     0
176
     1
290
     0
176
     1
290
     0
176
     1
290
     0
176
     1
 90
       50
176
     1
 40
0.0
176
     1
 40
1.0
176
     1
 90
        0
176
     1
 62
    18
420
        0
176
     1
 90
       50
176
     1
 90
        3
176
     1
 62
     5
420
      255
176
     1
290
     0
176
     1
 90
       50
176
     1
 90
       50
176
     1
 90
       50
176
     1
290
     0
176
     1
 90
       50
176
     1
 62
   256
176
     0
 40
1.0
176
     0
 90
        2
176
     1
  1
strokes_ogs.tif
176
     1
290
     0
176
     1
 40
1.0
176
     1
 40
1.0
176
     1
  0
VISUALSTYLE
  5
D32
102
{ACAD_REACTORS
330
D22
102
}
330
D22
100
AcDbVisualStyle
  2
ColorChange
 70
    16
177
     3
291
     1
 70
    58
 90
        2
176
     1
 90
        2
176
     1
 90
        3
176
     1
 90
        0
176
     1
 40
0.6
176
     1
 40
30.0
176
     1
 62
     8
420
  8421504
176
     1
 90
        1
176
     1
 90
        4
176
     1
 62
     7
176
     1
 62
   257
176
     1
 90
        1
176
     1
 90
        1
176
     1
 40
1.0
176
     1
 90
        8
176
     1
 62
     8
420
  8421504
176
     1
 40
1.0
176
     1
 90
        1
176
     1
 90
        6
176
     1
 90
        2
176
     1
 62
     7
176
     1
 90
        5
176
     1
 90
        0
176
     1
 90
        0
176
     1
290
     0
176
     1
 90
        1
176
     1
 40
0.0
176
     1
 90
        0
176
     1
290
     0
176
     1
290
     1
176
     1
290
     1
176
     1
290
     0
176
     1
290
     0
176
     1
290
     0
176
     1
290
     0
176
     1
290
     0
176
     1
290
     0
176
     1
 90
       50
176
     1
 40
0.0
176
     1
 40
1.0
176
     1
 90
        0
176
     1
 62
    18
420
        0
176
     1
 90
       50
176
     1
 90
        3
176
     1
 62
     5
420
      255
176
     1
290
     0
176
     1
 90
       50
176
     1
 90
       50
176
     1
 90
       50
176
     1
290
     0
176
     1
 90
       50
176
     1
 62
   256
176
     0
 40
1.0
176
     0
 90
        2
176
     1
  1
strokes_ogs.tif
176
     1
290
     0
176
     1
 40
1.0
176
     1
 40
1.0
176
     1
  0
VISUALSTYLE
  5
D2C
102
{ACAD_REACTORS
330
D22
102
}
330
D22
100
AcDbVisualStyle
  2
Conceptual
 70
     9
177
     3
291
     0
 70
    58
 90
        3
176
     1
 90
        2
176
     1
 90
        0
176
     1
 90
        0
176
     1
 40
0.6
176
     1
 40
30.0
176
     1
 62
     7
420
 16777215
176
     1
 90
        2
176
     1
 90
        2
176
     1
 62
     7
176
     1
 62
   257
176
     1
 90
        1
176
     1
 90
        1
176
     1
 40
179.0
176
     1
 90
        8
176
     1
 62
     7
176
     1
 40
1.0
176
     1
 90
        1
176
     1
 90
        6
176
     1
 90
        2
176
     1
 62
     7
176
     1
 90
        3
176
     1
 90
        0
176
     1
 90
        0
176
     1
290
     0
176
     1
 90
        1
176
     1
 40
0.0
176
     1
 90
        0
176
     1
290
     0
176
     1
290
     1
176
     1
290
     1
176
     1
290
     0
176
     1
290
     0
176
     1
290
     0
176
     1
290
     0
176
     1
290
     0
176
     1
290
     0
176
     1
 90
       50
176
     1
 40
0.0
176
     1
 40
1.0
176
     1
 90
        0
176
     1
 62
    18
420
        0
176
     1
 90
       50
176
     1
 90
        3
176
     1
 62
     5
420
      255
176
     1
290
     0
176
     1
 90
       50
176
     1
 90
       50
176
     1
 90
       50
176
     1
290
     0
176
     1
 90
       50
176
     1
 62
   256
176
     0
 40
1.0
176
     0
 90
        2
176
     1
  1
strokes_ogs.tif
176
     1
290
     0
176
     1
 40
1.0
176
     1
 40
1.0
176
     1
  0
VISUALSTYLE
  5
D2D
102
{ACAD_REACTORS
330
D22
102
}
330
D22
100
AcDbVisualStyle
  2
Dim
 70
    11
177
     3
291
     1
 70
    58
 90
        2
176
     1
 90
        2
176
     1
 90
        0
176
     1
 90
        0
176
     1
 40
0.6
176
     1
 40
30.0
176
     1
 62
     7
420
 16777215
176
     1
 90
        1
176
     1
 90
        4
176
     1
 62
     7
176
     1
 62
   257
176
     1
 90
        1
176
     1
 90
        1
176
     1
 40
1.0
176
     1
 90
        8
176
     1
 62
     7
176
     1
 40
1.0
176
     1
 90
        1
176
     1
 90
        6
176
     1
 90
        2
176
     1
 62
     7
176
     1
 90
        5
176
     1
 90
        0
176
     1
 90
        0
176
     1
290
     0
176
     1
 90
        1
176
     1
 40
-50.0
176
     1
 90
        0
176
     1
290
     0
176
     1
290
     1
176
     1
290
     1
176
     1
290
     0
176
     1
290
     0
176
     1
290
     0
176
     1
290
     0
176
     1
290
     0
176
     1
290
     0
176
     1
 90
       50
176
     1
 40
0.0
176
     1
 40
1.0
176
     1
 90
        0
176
     1
 62
    18
420
        0
176
     1
 90
       50
176
     1
 90
        3
176
     1
 62
     5
420
      255
176
     1
290
     0
176
     1
 90
       50
176
     1
 90
       50
176
     1
 90
       50
176
     1
290
     0
176
     1
 90
       50
176
     1
 62
   256
176
     0
 40
1.0
176
     0
 90
        2
176
     1
  1
strokes_ogs.tif
176
     1
290
     0
176
     1
 40
1.0
176
     1
 40
1.0
176
     1
  0
VISUALSTYLE
  5
D35
102
{ACAD_REACTORS
330
D22
102
}
330
D22
100
AcDbVisualStyle
  2
EdgeColorOff
 70
    22
177
     3
291
     1
 70
    58
 90
        2
176
     0
 90
        2
176
     0
 90
        0
176
     0
 90
        0
176
     0
 40
0.6
176
     0
 40
30.0
176
     0
 62
     7
420
 16777215
176
     0
 90
        1
176
     0
 90
        4
176
     0
 62
     7
176
     0
 62
   257
176
     0
 90
        1
176
     0
 90
        1
176
     0
 40
1.0
176
     0
 90
        8
176
     2
 62
     7
176
     0
 40
1.0
176
     0
 90
        1
176
     0
 90
        6
176
     0
 90
        2
176
     0
 62
     7
176
     0
 90
        5
176
     0
 90
        0
176
     0
 90
        0
176
     0
290
     0
176
     0
 90
        1
176
     0
 40
0.0
176
     0
 90
        0
176
     0
290
     0
176
     0
290
     1
176
     0
290
     1
176
     0
290
     0
176
     0
290
     0
176
     0
290
     0
176
     0
290
     0
176
     0
290
     0
176
     0
290
     0
176
     0
 90
       50
176
     0
 40
0.0
176
     0
 40
1.0
176
     0
 90
        0
176
     0
 62
    18
420
        0
176
     0
 90
       50
176
     0
 90
        3
176
     0
 62
     5
420
      255
176
     0
290
     0
176
     0
 90
       50
176
     0
 90
       50
176
     0
 90
       50
176
     0
290
     0
176
     0
 90
       50
176
     0
 62
   256
176
     0
 40
1.0
176
     0
 90
        2
176
     0
  1
strokes_ogs.tif
176
     0
290
     0
176
     0
 40
1.0
176
     0
 40
1.0
176
     0
  0
VISUALSTYLE
  5
D31
102
{ACAD_REACTORS
330
D22
102
}
330
D22
100
AcDbVisualStyle
  2
Facepattern
 70
    15
177
     3
291
     1
 70
    58
 90
        2
176
     1
 90
        2
176
     1
 90
        0
176
     1
 90
        0
176
     1
 40
0.6
176
     1
 40
30.0
176
     1
 62
     7
420
 16777215
176
     1
 90
        1
176
     1
 90
        4
176
     1
 62
     7
176
     1
 62
   257
176
     1
 90
        1
176
     1
 90
        1
176
     1
 40
1.0
176
     1
 90
        8
176
     1
 62
     7
176
     1
 40
1.0
176
     1
 90
        1
176
     1
 90
        6
176
     1
 90
        2
176
     1
 62
     7
176
     1
 90
        5
176
     1
 90
        0
176
     1
 90
        0
176
     1
290
     0
176
     1
 90
        1
176
     1
 40
0.0
176
     1
 90
        0
176
     1
290
     0
176
     1
290
     1
176
     1
290
     1
176
     1
290
     0
176
     1
290
     0
176
     1
290
     0
176
     1
290
     0
176
     1
290
     0
176
     1
290
     0
176
     1
 90
       50
176
     1
 40
0.0
176
     1
 40
1.0
176
     1
 90
        0
176
     1
 62
    18
420
        0
176
     1
 90
       50
176
     1
 90
        3
176
     1
 62
     5
420
      255
176
     1
290
     0
176
     1
 90
       50
176
     1
 90
       50
176
     1
 90
       50
176
     1
290
     0
176
     1
 90
       50
176
     1
 62
   256
176
     0
 40
1.0
176
     0
 90
        2
176
     1
  1
strokes_ogs.tif
176
     1
290
     0
176
     1
 40
1.0
176
     1
 40
1.0
176
     1
  0
VISUALSTYLE
  5
D23
102
{ACAD_REACTORS
330
D22
102
}
330
D22
100
AcDbVisualStyle
  2
Flat
 70
     0
177
     3
291
     1
 70
    58
 90
        2
176
     1
 90
        1
176
     1
 90
        1
176
     1
 90
        2
176
     1
 40
0.6
176
     1
 40
30.0
176
     1
 62
     7
420
 16777215
176
     1
 90
        0
176
     1
 90
        0
176
     1
 62
     7
176
     1
 62
   257
176
     1
 90
        1
176
     1
 90
        1
176
     1
 40
1.0
176
     1
 90
        8
176
     1
 62
     7
176
     1
 40
1.0
176
     1
 90
        1
176
     1
 90
        6
176
     1
 90
        2
176
     1
 62
     7
176
     1
 90
        5
176
     1
 90
        0
176
     1
 90
        0
176
     1
290
     0
176
     1
 90
       13
176
     1
 40
0.0
176
     1
 90
        0
176
     1
290
     0
176
     1
290
     1
176
     1
290
     1
176
     1
290
     0
176
     1
290
     0
176
     1
290
     0
176
     1
290
     0
176
     1
290
     0
176
     1
290
     0
176
     1
 90
       50
176
     1
 40
0.0
176
     1
 40
1.0
176
     1
 90
        0
176
     1
 62
    18
420
        0
176
     1
 90
       50
176
     1
 90
        3
176
     1
 62
     5
420
      255
176
     1
290
     0
176
     1
 90
       50
176
     1
 90
       50
176
     1
 90
       50
176
     1
290
     0
176
     1
 90
       50
176
     1
 62
   256
176
     0
 40
1.0
176
     0
 90
        2
176
     1
  1
strokes_ogs.tif
176
     1
290
     0
176
     1
 40
1.0
176
     1
 40
1.0
176
     1
  0
VISUALSTYLE
  5
D24
102
{ACAD_REACTORS
330
D22
102
}
330
D22
100
AcDbVisualStyle
  2
FlatWithEdges
 70
     1
177
     3
291
     1
 70
    58
 90
        2
176
     1
 90
        1
176
     1
 90
        1
176
     1
 90
        2
176
     1
 40
0.6
176
     1
 40
30.0
176
     1
 62
     7
420
 16777215
176
     1
 90
        1
176
     1
 90
        0
176
     1
 62
     7
176
     1
 62
   257
176
     1
 90
        1
176
     1
 90
        1
176
     1
 40
1.0
176
     1
 90
        0
176
     1
 62
   257
176
     1
 40
1.0
176
     1
 90
        1
176
     1
 90
        6
176
     1
 90
        2
176
     1
 62
     7
176
     1
 90
        5
176
     1
 90
        0
176
     1
 90
        0
176
     1
290
     0
176
     1
 90
       13
176
     1
 40
0.0
176
     1
 90
        0
176
     1
290
     0
176
     1
290
     1
176
     1
290
     1
176
     1
290
     0
176
     1
290
     0
176
     1
290
     0
176
     1
290
     0
176
     1
290
     0
176
     1
290
     0
176
     1
 90
       50
176
     1
 40
0.0
176
     1
 40
1.0
176
     1
 90
        0
176
     1
 62
    18
420
        0
176
     1
 90
       50
176
     1
 90
        3
176
     1
 62
     5
420
      255
176
     1
290
     0
176
     1
 90
       50
176
     1
 90
       50
176
     1
 90
       50
176
     1
290
     0
176
     1
 90
       50
176
     1
 62
   256
176
     0
 40
1.0
176
     0
 90
        2
176
     1
  1
strokes_ogs.tif
176
     1
290
     0
176
     1
 40
1.0
176
     1
 40
1.0
176
     1
  0
VISUALSTYLE
  5
D25
102
{ACAD_REACTORS
330
D22
102
}
330
D22
100
AcDbVisualStyle
  2
Gouraud
 70
     2
177
     3
291
     1
 70
    58
 90
        2
176
     1
 90
        2
176
     1
 90
        1
176
     1
 90
        2
176
     1
 40
0.6
176
     1
 40
30.0
176
     1
 62
     7
420
 16777215
176
     1
 90
        0
176
     1
 90
        0
176
     1
 62
     7
176
     1
 62
   257
176
     1
 90
        1
176
     1
 90
        1
176
     1
 40
1.0
176
     1
 90
        0
176
     1
 62
     7
176
     1
 40
1.0
176
     1
 90
        1
176
     1
 90
        6
176
     1
 90
        2
176
     1
 62
     7
176
     1
 90
        5
176
     1
 90
        0
176
     1
 90
        0
176
     1
290
     0
176
     1
 90
       13
176
     1
 40
0.0
176
     1
 90
        0
176
     1
290
     0
176
     1
290
     1
176
     1
290
     1
176
     1
290
     0
176
     1
290
     0
176
     1
290
     0
176
     1
290
     0
176
     1
290
     0
176
     1
290
     0
176
     1
 90
       50
176
     1
 40
0.0
176
     1
 40
1.0
176
     1
 90
        0
176
     1
 62
    18
420
        0
176
     1
 90
       50
176
     1
 90
        3
176
     1
 62
     5
420
      255
176
     1
290
     0
176
     1
 90
       50
176
     1
 90
       50
176
     1
 90
       50
176
     1
290
     0
176
     1
 90
       50
176
     1
 62
   256
176
     0
 40
1.0
176
     0
 90
        2
176
     1
  1
strokes_ogs.tif
176
     1
290
     0
176
     1
 40
1.0
176
     1
 40
1.0
176
     1
  0
VISUALSTYLE
  5
D26
102
{ACAD_REACTORS
330
D22
102
}
330
D22
100
AcDbVisualStyle
  2
GouraudWithEdges
 70
     3
177
     3
291
     1
 70
    58
 90
        2
176
     1
 90
        2
176
     1
 90
        1
176
     1
 90
        2
176
     1
 40
0.6
176
     1
 40
30.0
176
     1
 62
     7
420
 16777215
176
     1
 90
        1
176
     1
 90
        0
176
     1
 62
     7
176
     1
 62
   257
176
     1
 90
        1
176
     1
 90
        1
176
     1
 40
1.0
176
     1
 90
        0
176
     1
 62
   257
176
     1
 40
1.0
176
     1
 90
        1
176
     1
 90
        6
176
     1
 90
        2
176
     1
 62
     7
176
     1
 90
        5
176
     1
 90
        0
176
     1
 90
        0
176
     1
290
     0
176
     1
 90
       13
176
     1
 40
0.0
176
     1
 90
        0
176
     1
290
     0
176
     1
290
     1
176
     1
290
     1
176
     1
290
     0
176
     1
290
     0
176
     1
290
     0
176
     1
290
     0
176
     1
290
     0
176
     1
290
     0
176
     1
 90
       50
176
     1
 40
0.0
176
     1
 40
1.0
176
     1
 90
        0
176
     1
 62
    18
420
        0
176
     1
 90
       50
176
     1
 90
        3
176
     1
 62
     5
420
      255
176
     1
290
     0
176
     1
 90
       50
176
     1
 90
       50
176
     1
 90
       50
176
     1
290
     0
176
     1
 90
       50
176
     1
 62
   256
176
     0
 40
1.0
176
     0
 90
        2
176
     1
  1
strokes_ogs.tif
176
     1
290
     0
176
     1
 40
1.0
176
     1
 40
1.0
176
     1
  0
VISUALSTYLE
  5
D29
102
{ACAD_REACTORS
330
D22
102
}
330
D22
100
AcDbVisualStyle
  2
Hidden
 70
     6
177
     3
291
     0
 70
    58
 90
        1
176
     1
 90
        2
176
     1
 90
        2
176
     1
 90
        0
176
     1
 40
0.6
176
     1
 40
30.0
176
     1
 62
     7
420
 16777215
176
     1
 90
        2
176
     1
 90
        2
176
     1
 62
     7
176
     1
 62
   257
176
     1
 90
        2
176
     1
 90
        1
176
     1
 40
40.0
176
     1
 90
        0
176
     1
 62
   257
176
     1
 40
1.0
176
     1
 90
        1
176
     1
 90
        6
176
     1
 90
        2
176
     1
 62
     7
176
     1
 90
        3
176
     1
 90
        0
176
     1
 90
        0
176
     1
290
     0
176
     1
 90
        1
176
     1
 40
0.0
176
     1
 90
        0
176
     1
290
     0
176
     1
290
     1
176
     1
290
     1
176
     1
290
     0
176
     1
290
     0
176
     1
290
     0
176
     1
290
     0
176
     1
290
     0
176
     1
290
     0
176
     1
 90
       50
176
     1
 40
0.0
176
     1
 40
1.0
176
     1
 90
        0
176
     1
 62
    18
420
        0
176
     1
 90
       50
176
     1
 90
        3
176
     1
 62
     5
420
      255
176
     1
290
     0
176
     1
 90
       50
176
     1
 90
       50
176
     1
 90
       50
176
     1
290
     0
176
     1
 90
       50
176
     1
 62
   256
176
     0
 40
1.0
176
     0
 90
        2
176
     1
  1
strokes_ogs.tif
176
     1
290
     0
176
     1
 40
1.0
176
     1
 40
1.0
176
     1
  0
VISUALSTYLE
  5
D33
102
{ACAD_REACTORS
330
D22
102
}
330
D22
100
AcDbVisualStyle
  2
JitterOff
 70
    20
177
     3
291
     1
 70
    58
 90
        2
176
     0
 90
        2
176
     0
 90
        0
176
     0
 90
        0
176
     0
 40
0.6
176
     0
 40
30.0
176
     0
 62
     7
420
 16777215
176
     0
 90
        1
176
     0
 90
        4
176
     0
 62
     7
176
     0
 62
   257
176
     0
 90
        1
176
     0
 90
        1
176
     0
 40
1.0
176
     0
 90
       10
176
     2
 62
     7
176
     0
 40
1.0
176
     0
 90
        1
176
     0
 90
        6
176
     0
 90
        2
176
     0
 62
     7
176
     0
 90
        5
176
     0
 90
        0
176
     0
 90
        0
176
     0
290
     0
176
     0
 90
        1
176
     0
 40
0.0
176
     0
 90
        0
176
     0
290
     0
176
     0
290
     1
176
     0
290
     1
176
     0
290
     0
176
     0
290
     0
176
     0
290
     0
176
     0
290
     0
176
     0
290
     0
176
     0
290
     0
176
     0
 90
       50
176
     0
 40
0.0
176
     0
 40
1.0
176
     0
 90
        0
176
     0
 62
    18
420
        0
176
     0
 90
       50
176
     0
 90
        3
176
     0
 62
     5
420
      255
176
     0
290
     0
176
     0
 90
       50
176
     0
 90
       50
176
     0
 90
       50
176
     0
290
     0
176
     0
 90
       50
176
     0
 62
   256
176
     0
 40
1.0
176
     0
 90
        2
176
     0
  1
strokes_ogs.tif
176
     0
290
     0
176
     0
 40
1.0
176
     0
 40
1.0
176
     0
  0
VISUALSTYLE
  5
D30
102
{ACAD_REACTORS
330
D22
102
}
330
D22
100
AcDbVisualStyle
  2
Linepattern
 70
    14
177
     3
291
     1
 70
    58
 90
        2
176
     1
 90
        2
176
     1
 90
        0
176
     1
 90
        0
176
     1
 40
0.6
176
     1
 40
30.0
176
     1
 62
     7
420
 16777215
176
     1
 90
        1
176
     1
 90
        4
176
     1
 62
     7
176
     1
 62
   257
176
     1
 90
        7
176
     1
 90
        7
176
     1
 40
1.0
176
     1
 90
        8
176
     1
 62
     7
176
     1
 40
1.0
176
     1
 90
        1
176
     1
 90
        6
176
     1
 90
        2
176
     1
 62
     7
176
     1
 90
        5
176
     1
 90
        0
176
     1
 90
        0
176
     1
290
     0
176
     1
 90
        1
176
     1
 40
0.0
176
     1
 90
        0
176
     1
290
     0
176
     1
290
     1
176
     1
290
     1
176
     1
290
     0
176
     1
290
     0
176
     1
290
     0
176
     1
290
     0
176
     1
290
     0
176
     1
290
     0
176
     1
 90
       50
176
     1
 40
0.0
176
     1
 40
1.0
176
     1
 90
        0
176
     1
 62
    18
420
        0
176
     1
 90
       50
176
     1
 90
        3
176
     1
 62
     5
420
      255
176
     1
290
     0
176
     1
 90
       50
176
     1
 90
       50
176
     1
 90
       50
176
     1
290
     0
176
     1
 90
       50
176
     1
 62
   256
176
     0
 40
1.0
176
     0
 90
        2
176
     1
  1
strokes_ogs.tif
176
     1
290
     0
176
     1
 40
1.0
176
     1
 40
1.0
176
     1
  0
VISUALSTYLE
  5
D34
102
{ACAD_REACTORS
330
D22
102
}
330
D22
100
AcDbVisualStyle
  2
OverhangOff
 70
    21
177
     3
291
     1
 70
    58
 90
        2
176
     0
 90
        2
176
     0
 90
        0
176
     0
 90
        0
176
     0
 40
0.6
176
     0
 40
30.0
176
     0
 62
     7
420
 16777215
176
     0
 90
        1
176
     0
 90
        4
176
     0
 62
     7
176
     0
 62
   257
176
     0
 90
        1
176
     0
 90
        1
176
     0
 40
1.0
176
     0
 90
        9
176
     2
 62
     7
176
     0
 40
1.0
176
     0
 90
        1
176
     0
 90
        6
176
     0
 90
        2
176
     0
 62
     7
176
     0
 90
        5
176
     0
 90
        0
176
     0
 90
        0
176
     0
290
     0
176
     0
 90
        1
176
     0
 40
0.0
176
     0
 90
        0
176
     0
290
     0
176
     0
290
     1
176
     0
290
     1
176
     0
290
     0
176
     0
290
     0
176
     0
290
     0
176
     0
290
     0
176
     0
290
     0
176
     0
290
     0
176
     0
 90
       50
176
     0
 40
0.0
176
     0
 40
1.0
176
     0
 90
        0
176
     0
 62
    18
420
        0
176
     0
 90
       50
176
     0
 90
        3
176
     0
 62
     5
420
      255
176
     0
290
     0
176
     0
 90
       50
176
     0
 90
       50
176
     0
 90
       50
176
     0
290
     0
176
     0
 90
       50
176
     0
 62
   256
176
     0
 40
1.0
176
     0
 90
        2
176
     0
  1
strokes_ogs.tif
176
     0
290
     0
176
     0
 40
1.0
176
     0
 40
1.0
176
     0
  0
VISUALSTYLE
  5
D2B
102
{ACAD_REACTORS
330
D22
102
}
330
D22
100
AcDbVisualStyle
  2
Realistic
 70
     8
177
     3
291
     0
 70
    58
 90
        2
176
     1
 90
        3
176
     1
 90
        0
176
     1
 90
        2
176
     1
 40
0.6
176
     1
 40
30.0
176
     1
 62
     7
420
 16777215
176
     1
 90
        0
176
     1
 90
        0
176
     1
 62
     7
176
     1
 62
   257
176
     1
 90
        1
176
     1
 90
        1
176
     1
 40
1.0
176
     1
 90
        8
176
     1
 62
   257
176
     1
 40
1.0
176
     1
 90
        1
176
     1
 90
        6
176
     1
 90
        2
176
     1
 62
     7
176
     1
 90
        3
176
     1
 90
        0
176
     1
 90
        0
176
     1
290
     0
176
     1
 90
       13
176
     1
 40
0.0
176
     1
 90
        0
176
     1
290
     0
176
     1
290
     1
176
     1
290
     1
176
     1
290
     0
176
     1
290
     0
176
     1
290
     0
176
     1
290
     0
176
     1
290
     0
176
     1
290
     0
176
     1
 90
       50
176
     1
 40
0.0
176
     1
 40
1.0
176
     1
 90
        0
176
     1
 62
    18
420
        0
176
     1
 90
       50
176
     1
 90
        3
176
     1
 62
     5
420
      255
176
     1
290
     0
176
     1
 90
       50
176
     1
 90
       50
176
     1
 90
       50
176
     1
290
     0
176
     1
 90
       50
176
     1
 62
   256
176
     0
 40
1.0
176
     0
 90
        2
176
     1
  1
strokes_ogs.tif
176
     1
290
     0
176
     1
 40
1.0
176
     1
 40
1.0
176
     1
  0
VISUALSTYLE
  5
D3A
102
{ACAD_REACTORS
330
D22
102
}
330
D22
100
AcDbVisualStyle
  2
Shaded
 70
    27
177
     3
291
     0
 70
    58
 90
        2
176
     1
 90
        2
176
     1
 90
        1
176
     1
 90
        2
176
     1
 40
0.6
176
     1
 40
30.0
176
     1
 62
     7
420
 16777215
176
     1
 90
        0
176
     1
 90
        4
176
     1
 62
     7
176
     1
 62
   257
176
     1
 90
        1
176
     1
 90
        1
176
     1
 40
1.0
176
     1
 90
        8
176
     1
 62
   257
176
     1
 40
1.0
176
     1
 90
        1
176
     1
 90
        6
176
     1
 90
        2
176
     1
 62
     8
420
  7895160
176
     1
 90
        3
176
     1
 90
        0
176
     1
 90
        0
176
     1
290
     0
176
     1
 90
        5
176
     1
 40
0.0
176
     1
 90
        0
176
     1
290
     0
176
     1
290
     1
176
     1
290
     1
176
     1
290
     0
176
     1
290
     0
176
     1
290
     0
176
     1
290
     0
176
     1
290
     0
176
     1
290
     0
176
     1
 90
       50
176
     1
 40
0.0
176
     1
 40
1.0
176
     1
 90
        0
176
     1
 62
    18
420
        0
176
     1
 90
       50
176
     1
 90
        3
176
     1
 62
     5
420
      255
176
     1
290
     0
176
     1
 90
       50
176
     1
 90
       50
176
     1
 90
       50
176
     1
290
     0
176
     1
 90
       50
176
     1
 62
   256
176
     0
 40
1.0
176
     0
 90
        2
176
     1
  1
strokes_ogs.tif
176
     1
290
     0
176
     1
 40
1.0
176
     1
 40
1.0
176
     1
  0
VISUALSTYLE
  5
D39
102
{ACAD_REACTORS
330
D22
102
}
330
D22
100
AcDbVisualStyle
  2
Shaded with edges
 70
    26
177
     3
291
     0
 70
    58
 90
        2
176
     1
 90
        2
176
     1
 90
        1
176
     1
 90
        2
176
     1
 40
0.6
176
     1
 40
30.0
176
     1
 62
     7
420
 16777215
176
     1
 90
        1
176
     1
 90
       10
176
     1
 62
     7
176
     1
 62
   257
176
     1
 90
        2
176
     1
 90
        1
176
     1
 40
1.0
176
     1
 90
        8
176
     1
 62
   257
176
     1
 40
1.0
176
     1
 90
        1
176
     1
 90
        6
176
     1
 90
        2
176
     1
 62
     7
176
     1
 90
        3
176
     1
 90
        0
176
     1
 90
        0
176
     1
290
     0
176
     1
 90
        5
176
     1
 40
0.0
176
     1
 90
        0
176
     1
290
     0
176
     1
290
     1
176
     1
290
     1
176
     1
290
     0
176
     1
290
     0
176
     1
290
     0
176
     1
290
     0
176
     1
290
     0
176
     1
290
     0
176
     1
 90
       50
176
     1
 40
0.0
176
     1
 40
1.0
176
     1
 90
        0
176
     1
 62
    18
420
        0
176
     1
 90
       50
176
     1
 90
        3
176
     1
 62
     5
420
      255
176
     1
290
     0
176
     1
 90
       50
176
     1
 90
       50
176
     1
 90
       50
176
     1
290
     0
176
     1
 90
       50
176
     1
 62
   256
176
     0
 40
1.0
176
     0
 90
        2
176
     1
  1
strokes_ogs.tif
176
     1
290
     0
176
     1
 40
1.0
176
     1
 40
1.0
176
     1
  0
VISUALSTYLE
  5
D36
102
{ACAD_REACTORS
330
D22
102
}
330
D22
100
AcDbVisualStyle
  2
Shades of Gray
 70
    23
177
     3
291
     0
 70
    58
 90
        2
176
     1
 90
        2
176
     1
 90
        3
176
     1
 90
        0
176
     1
 40
0.6
176
     1
 40
30.0
176
     1
 62
     7
420
 16777215
176
     1
 90
        2
176
     1
 90
        2
176
     1
 62
     7
176
     1
 62
     7
176
     1
 90
        1
176
     1
 90
        1
176
     1
 40
40.0
176
     1
 90
        8
176
     1
 62
     7
176
     1
 40
1.0
176
     1
 90
        1
176
     1
 90
        6
176
     1
 90
        2
176
     1
 62
     7
176
     1
 90
        3
176
     1
 90
        0
176
     1
 90
        0
176
     1
290
     0
176
     1
 90
        1
176
     1
 40
0.0
176
     1
 90
        0
176
     1
290
     0
176
     1
290
     1
176
     1
290
     1
176
     1
290
     0
176
     1
290
     0
176
     1
290
     0
176
     1
290
     0
176
     1
290
     0
176
     1
290
     0
176
     1
 90
       50
176
     1
 40
0.0
176
     1
 40
1.0
176
     1
 90
        0
176
     1
 62
    18
420
        0
176
     1
 90
       50
176
     1
 90
        3
176
     1
 62
     5
420
      255
176
     1
290
     0
176
     1
 90
       50
176
     1
 90
       50
176
     1
 90
       50
176
     1
290
     0
176
     1
 90
       50
176
     1
 62
   256
176
     0
 40
1.0
176
     0
 90
        2
176
     1
  1
strokes_ogs.tif
176
     1
290
     0
176
     1
 40
1.0
176
     1
 40
1.0
176
     1
  0
VISUALSTYLE
  5
D37
102
{ACAD_REACTORS
330
D22
102
}
330
D22
100
AcDbVisualStyle
  2
Sketchy
 70
    24
177
     3
291
     0
 70
    58
 90
        1
176
     1
 90
        2
176
     1
 90
        2
176
     1
 90
        0
176
     1
 40
0.6
176
     1
 40
30.0
176
     1
 62
     7
420
 16777215
176
     1
 90
        2
176
     1
 90
        2
176
     1
 62
     7
176
     1
 62
     7
176
     1
 90
        1
176
     1
 90
        1
176
     1
 40
40.0
176
     1
 90
       11
176
     1
 62
     7
176
     1
 40
1.0
176
     1
 90
        1
176
     1
 90
        6
176
     1
 90
        2
176
     1
 62
     7
176
     1
 90
        6
176
     1
 90
        0
176
     1
 90
        0
176
     1
290
     0
176
     1
 90
        1
176
     1
 40
0.0
176
     1
 90
        0
176
     1
290
     0
176
     1
290
     1
176
     1
290
     1
176
     1
290
     0
176
     1
290
     0
176
     1
290
     0
176
     1
290
     0
176
     1
290
     0
176
     1
290
     0
176
     1
 90
       50
176
     1
 40
0.0
176
     1
 40
1.0
176
     1
 90
        0
176
     1
 62
    18
420
        0
176
     1
 90
       50
176
     1
 90
        3
176
     1
 62
     5
420
      255
176
     1
290
     0
176
     1
 90
       50
176
     1
 90
       50
176
     1
 90
       50
176
     1
290
     0
176
     1
 90
       50
176
     1
 62
   256
176
     0
 40
1.0
176
     0
 90
        2
176
     1
  1
strokes_ogs.tif
176
     1
290
     0
176
     1
 40
1.0
176
     1
 40
1.0
176
     1
  0
VISUALSTYLE
  5
D2F
102
{ACAD_REACTORS
330
D22
102
}
330
D22
100
AcDbVisualStyle
  2
Thicken
 70
    13
177
     3
291
     1
 70
    58
 90
        2
176
     1
 90
        2
176
     1
 90
        0
176
     1
 90
        0
176
     1
 40
0.6
176
     1
 40
30.0
176
     1
 62
     7
420
 16777215
176
     1
 90
        1
176
     1
 90
        4
176
     1
 62
     7
176
     1
 62
   257
176
     1
 90
        1
176
     1
 90
        1
176
     1
 40
1.0
176
     1
 90
       12
176
     1
 62
     7
176
     1
 40
1.0
176
     1
 90
        1
176
     1
 90
        6
176
     1
 90
        2
176
     1
 62
     7
176
     1
 90
        5
176
     1
 90
        0
176
     1
 90
        0
176
     1
290
     0
176
     1
 90
        1
176
     1
 40
0.0
176
     1
 90
        0
176
     1
290
     0
176
     1
290
     1
176
     1
290
     1
176
     1
290
     0
176
     1
290
     0
176
     1
290
     0
176
     1
290
     0
176
     1
290
     0
176
     1
290
     0
176
     1
 90
       50
176
     1
 40
0.0
176
     1
 40
1.0
176
     1
 90
        0
176
     1
 62
    18
420
        0
176
     1
 90
       50
176
     1
 90
        3
176
     1
 62
     5
420
      255
176
     1
290
     0
176
     1
 90
       50
176
     1
 90
       50
176
     1
 90
       50
176
     1
290
     0
176
     1
 90
       50
176
     1
 62
   256
176
     0
 40
1.0
176
     0
 90
        2
176
     1
  1
strokes_ogs.tif
176
     1
290
     0
176
     1
 40
1.0
176
     1
 40
1.0
176
     1
  0
VISUALSTYLE
  5
D28
102
{ACAD_REACTORS
330
D22
102
}
330
D22
100
AcDbVisualStyle
  2
Wireframe
 70
     5
177
     3
291
     0
 70
    58
 90
        0
176
     1
 90
        2
176
     1
 90
        0
176
     1
 90
        0
176
     1
 40
0.6
176
     1
 40
30.0
176
     1
 62
     7
420
 16777215
176
     1
 90
        1
176
     1
 90
        4
176
     1
 62
     7
176
     1
 62
   257
176
     1
 90
        1
176
     1
 90
        1
176
     1
 40
1.0
176
     1
 90
        0
176
     1
 62
   257
176
     1
 40
1.0
176
     1
 90
        1
176
     1
 90
        6
176
     1
 90
        2
176
     1
 62
     7
176
     1
 90
        3
176
     1
 90
        0
176
     1
 90
        0
176
     1
290
     0
176
     1
 90
        1
176
     1
 40
0.0
176
     1
 90
        0
176
     1
290
     0
176
     1
290
     1
176
     1
290
     1
176
     1
290
     0
176
     1
290
     0
176
     1
290
     0
176
     1
290
     0
176
     1
290
     0
176
     1
290
     0
176
     1
 90
       50
176
     1
 40
0.0
176
     1
 40
1.0
176
     1
 90
        0
176
     1
 62
    18
420
        0
176
     1
 90
       50
176
     1
 90
        3
176
     1
 62
     5
420
      255
176
     1
290
     0
176
     1
 90
       50
176
     1
 90
       50
176
     1
 90
       50
176
     1
290
     0
176
     1
 90
       50
176
     1
 62
   256
176
     0
 40
1.0
176
     0
 90
        2
176
     1
  1
strokes_ogs.tif
176
     1
290
     0
176
     1
 40
1.0
176
     1
 40
1.0
176
     1
  0
VISUALSTYLE
  5
D38
102
{ACAD_REACTORS
330
D22
102
}
330
D22
100
AcDbVisualStyle
  2
X-Ray
 70
    25
177
     3
291
     0
 70
    58
 90
        2
176
     1
 90
        2
176
     1
 90
        1
176
     1
 90
        1
176
     1
 40
0.5
176
     1
 40
30.0
176
     1
 62
     7
420
 16777215
176
     1
 90
        1
176
     1
 90
        0
176
     1
 62
     7
176
     1
 62
   257
176
     1
 90
        1
176
     1
 90
        1
176
     1
 40
1.0
176
     1
 90
        8
176
     1
 62
     7
176
     1
 40
1.0
176
     1
 90
        1
176
     1
 90
        6
176
     1
 90
        2
176
     1
 62
     7
176
     1
 90
        3
176
     1
 90
        0
176
     1
 90
        0
176
     1
290
     0
176
     1
 90
       13
176
     1
 40
0.0
176
     1
 90
        0
176
     1
290
     0
176
     1
290
     1
176
     1
290
     1
176
     1
290
     0
176
     1
290
     0
176
     1
290
     0
176
     1
290
     0
176
     1
290
     0
176
     1
290
     0
176
     1
 90
       50
176
     1
 40
0.0
176
     1
 40
1.0
176
     1
 90
        0
176
     1
 62
    18
420
        0
176
     1
 90
       50
176
     1
 90
        3
176
     1
 62
     5
420
      255
176
     1
290
     0
176
     1
 90
       50
176
     1
 90
       50
176
     1
 90
       50
176
     1
290
     0
176
     1
 90
       50
176
     1
 62
   256
176
     0
 40
1.0
176
     0
 90
        2
176
     1
  1
strokes_ogs.tif
176
     1
290
     0
176
     1
 40
1.0
176
     1
 40
1.0
176
     1
  0
DICTIONARYVAR
  5
E23
102
{ACAD_REACTORS
330
1C7
102
}
330
1C7
100
DictionaryVariables
280
     0
  1
1:1
  0
DICTIONARYVAR
  5
E25
102
{ACAD_REACTORS
330
1C7
102
}
330
1C7
100
DictionaryVariables
280
     0
  1
Standard
  0
DICTIONARYVAR
  5
E24
102
{ACAD_REACTORS
330
1C7
102
}
330
1C7
100
DictionaryVariables
280
     0
  1
Standard
  0
DICTIONARYVAR
  5
DCD
102
{ACAD_REACTORS
330
1C7
102
}
330
1C7
100
DictionaryVariables
280
     0
  1
.
  0
DICTIONARYVAR
  5
E26
102
{ACAD_REACTORS
330
1C7
102
}
330
1C7
100
DictionaryVariables
280
     0
  1
0
  0
DICTIONARYVAR
  5
3CE2
102
{ACAD_REACTORS
330
347
102
}
330
347
100
DictionaryVariables
280
     0
  1
0.250000
  0
DICTIONARYVAR
  5
3CE0
102
{ACAD_REACTORS
330
342
102
}
330
342
100
DictionaryVariables
280
     0
  1
0.261799
  0
DICTIONARYVAR
  5
3CDE
102
{ACAD_REACTORS
330
342
102
}
330
342
100
DictionaryVariables
280
     0
  1
0.400000
  0
DICTIONARYVAR
  5
3CDF
102
{ACAD_REACTORS
330
342
102
}
330
342
100
DictionaryVariables
280
     0
  1
0.250000
  0
DICTIONARYVAR
  5
3CE1
102
{ACAD_REACTORS
330
342
102
}
330
342
100
DictionaryVariables
280
     0
  1
0
  0
DICTIONARY
  5
50CD
330
D68
100
AcDbDictionary
280
     1
281
     1
  3
ACAD_ROUNDTRIP_2008_TABLESTYLE_CELLSTYLEMAP
360
50CE
  0
CELLSTYLEMAP
  5
50CE
102
{ACAD_REACTORS
330
50CD
102
}
330
50CD
100
AcDbCellStyleMap
 90
        3
300
CELLSTYLE
  1
TABLEFORMAT_BEGIN
 90
        5
170
     1
 91
        0
 92
    32768
 62
   257
 93
        1
300
CONTENTFORMAT
  1
CONTENTFORMAT_BEGIN
 90
        0
 91
        0
 92
        4
 93
        0
300

 40
0.0
140
1.0
 94
        5
 62
     0
340
17
144
6.0
309
CONTENTFORMAT_END
171
     1
301
MARGIN
  1
CELLMARGIN_BEGIN
 40
1.5
 40
1.5
 40
1.5
 40
1.5
 40
1.5
 40
1.5
309
CELLMARGIN_END
 94
        6
 95
        1
302
GRIDFORMAT
  1
GRIDFORMAT_BEGIN
 90
        0
 91
        1
 62
     0
 92
       -2
340
11
 93
        0
 40
0.045
309
GRIDFORMAT_END
 95
        2
302
GRIDFORMAT
  1
GRIDFORMAT_BEGIN
 90
        0
 91
        1
 62
     0
 92
       -2
340
11
 93
        0
 40
0.045
309
GRIDFORMAT_END
 95
        4
302
GRIDFORMAT
  1
GRIDFORMAT_BEGIN
 90
        0
 91
        1
 62
     0
 92
       -2
340
11
 93
        0
 40
0.045
309
GRIDFORMAT_END
 95
        8
302
GRIDFORMAT
  1
GRIDFORMAT_BEGIN
 90
        0
 91
        1
 62
     0
 92
       -2
340
11
 93
        0
 40
0.045
309
GRIDFORMAT_END
 95
       16
302
GRIDFORMAT
  1
GRIDFORMAT_BEGIN
 90
        0
 91
        1
 62
     0
 92
       -2
340
11
 93
        0
 40
0.045
309
GRIDFORMAT_END
 95
       32
302
GRIDFORMAT
  1
GRIDFORMAT_BEGIN
 90
        0
 91
        1
 62
     0
 92
       -2
340
11
 93
        0
 40
0.045
309
GRIDFORMAT_END
309
TABLEFORMAT_END
  1
CELLSTYLE_BEGIN
 90
        1
 91
        1
300
_TITLE
309
CELLSTYLE_END
300
CELLSTYLE
  1
TABLEFORMAT_BEGIN
 90
        5
170
     1
 91
        0
 92
        0
 62
   257
 93
        1
300
CONTENTFORMAT
  1
CONTENTFORMAT_BEGIN
 90
        0
 91
        0
 92
        4
 93
        0
300

 40
0.0
140
1.0
 94
        5
 62
     0
340
17
144
4.5
309
CONTENTFORMAT_END
171
     1
301
MARGIN
  1
CELLMARGIN_BEGIN
 40
1.5
 40
1.5
 40
1.5
 40
1.5
 40
1.5
 40
1.5
309
CELLMARGIN_END
 94
        6
 95
        1
302
GRIDFORMAT
  1
GRIDFORMAT_BEGIN
 90
        0
 91
        1
 62
     0
 92
       -2
340
11
 93
        0
 40
0.045
309
GRIDFORMAT_END
 95
        2
302
GRIDFORMAT
  1
GRIDFORMAT_BEGIN
 90
        0
 91
        1
 62
     0
 92
       -2
340
11
 93
        0
 40
0.045
309
GRIDFORMAT_END
 95
        4
302
GRIDFORMAT
  1
GRIDFORMAT_BEGIN
 90
        0
 91
        1
 62
     0
 92
       -2
340
11
 93
        0
 40
0.045
309
GRIDFORMAT_END
 95
        8
302
GRIDFORMAT
  1
GRIDFORMAT_BEGIN
 90
        0
 91
        1
 62
     0
 92
       -2
340
11
 93
        0
 40
0.045
309
GRIDFORMAT_END
 95
       16
302
GRIDFORMAT
  1
GRIDFORMAT_BEGIN
 90
        0
 91
        1
 62
     0
 92
       -2
340
11
 93
        0
 40
0.045
309
GRIDFORMAT_END
 95
       32
302
GRIDFORMAT
  1
GRIDFORMAT_BEGIN
 90
        0
 91
        1
 62
     0
 92
       -2
340
11
 93
        0
 40
0.045
309
GRIDFORMAT_END
309
TABLEFORMAT_END
  1
CELLSTYLE_BEGIN
 90
        2
 91
        1
300
_HEADER
309
CELLSTYLE_END
300
CELLSTYLE
  1
TABLEFORMAT_BEGIN
 90
        5
170
     1
 91
        0
 92
        0
 62
   257
 93
        1
300
CONTENTFORMAT
  1
CONTENTFORMAT_BEGIN
 90
        0
 91
        0
 92
        4
 93
        0
300

 40
0.0
140
1.0
 94
        2
 62
     0
340
17
144
4.5
309
CONTENTFORMAT_END
171
     1
301
MARGIN
  1
CELLMARGIN_BEGIN
 40
1.5
 40
1.5
 40
1.5
 40
1.5
 40
1.5
 40
1.5
309
CELLMARGIN_END
 94
        6
 95
        1
302
GRIDFORMAT
  1
GRIDFORMAT_BEGIN
 90
        0
 91
        1
 62
     0
 92
       -2
340
11
 93
        0
 40
0.045
309
GRIDFORMAT_END
 95
        2
302
GRIDFORMAT
  1
GRIDFORMAT_BEGIN
 90
        0
 91
        1
 62
     0
 92
       -2
340
11
 93
        0
 40
0.045
309
GRIDFORMAT_END
 95
        4
302
GRIDFORMAT
  1
GRIDFORMAT_BEGIN
 90
        0
 91
        1
 62
     0
 92
       -2
340
11
 93
        0
 40
0.045
309
GRIDFORMAT_END
 95
        8
302
GRIDFORMAT
  1
GRIDFORMAT_BEGIN
 90
        0
 91
        1
 62
     0
 92
       -2
340
11
 93
        0
 40
0.045
309
GRIDFORMAT_END
 95
       16
302
GRIDFORMAT
  1
GRIDFORMAT_BEGIN
 90
        0
 91
        1
 62
     0
 92
       -2
340
11
 93
        0
 40
0.045
309
GRIDFORMAT_END
 95
       32
302
GRIDFORMAT
  1
GRIDFORMAT_BEGIN
 90
        0
 91
        1
 62
     0
 92
       -2
340
11
 93
        0
 40
0.045
309
GRIDFORMAT_END
309
TABLEFORMAT_END
  1
CELLSTYLE_BEGIN
 90
        3
 91
        2
300
_DATA
309
CELLSTYLE_END
  0
ENDSEC
  0
SECTION
  2
ACDSDATA
 70
     2
 71
     2
  0
ACDSSCHEMA
 90
        0
  1
AcDb_Thumbnail_Schema
  2
AcDbDs::ID
280
    10
 91
        8
  2
Thumbnail_Data
280
    15
 91
        0
101
ACDSRECORD
 95
        0
 90
        2
  2
AcDbDs::TreatedAsObjectData
280
     1
291
     1
101
ACDSRECORD
 95
        0
 90
        3
  2
AcDbDs::Legacy
280
     1
291
     1
101
ACDSRECORD
  1
AcDbDs::ID
 90
        4
  2
AcDs:Indexable
280
     1
291
     1
101
ACDSRECORD
  1
AcDbDs::ID
 90
        5
  2
AcDbDs::HandleAttribute
280
     7
282
     1
  0
ACDSSCHEMA
 90
        1
  1
AcDb3DSolid_ASM_Data
  2
AcDbDs::ID
280
    10
 91
        8
  2
ASM_Data
280
    15
 91
        0
101
ACDSRECORD
 95
        1
 90
        2
  2
AcDbDs::TreatedAsObjectData
280
     1
291
     1
101
ACDSRECORD
 95
        1
 90
        3
  2
AcDbDs::Legacy
280
     1
291
     1
101
ACDSRECORD
  1
AcDbDs::ID
 90
        4
  2
AcDs:Indexable
280
     1
291
     1
101
ACDSRECORD
  1
AcDbDs::ID
 90
        5
  2
AcDbDs::HandleAttribute
280
     7
282
     1
  0
ACDSSCHEMA
 90
        2
  1
AcDbDs::TreatedAsObjectDataSchema
  2
AcDbDs::TreatedAsObjectData
280
     1
 91
        0
  0
ACDSSCHEMA
 90
        3
  1
AcDbDs::LegacySchema
  2
AcDbDs::Legacy
280
     1
 91
        0
  0
ACDSSCHEMA
 90
        4
  1
AcDbDs::IndexedPropertySchema
  2
AcDs:Indexable
280
     1
 91
        0
  0
ACDSSCHEMA
 90
        5
  1
AcDbDs::HandleAttributeSchema
  2
AcDbDs::HandleAttribute
280
     7
 91
        1
284
     1
  0
ACDSRECORD
 90
        0
  2
AcDbDs::ID
280
    10
320
D61
  2
Thumbnail_Data
280
    15
 94
     7236
310
89504E470D0A1A0A0000000D4948445200000100000000940802000000F39060D0000000097048597300000EC400000EC401952B0E1B00001BF649444154789CED9D6B4C5BD71DC07DFDC43606636C03C680B18D6D0CC6EF0B843C5853B2746D2155DB64D5D234E9A66D4D952953D7666A2BA16D593F745DD7699B52B5EBD4
310
97A669DDD6B552B7455BDB2DDBA4089A42202181040209497887770C18DF7D38DDEDAD6DCCF1F57DD8707E9FE072EE39C7F83CFF4F91000287C361369B0B0B0B43A15028148279051EA954FAA52F7DA9B4B474686888D99AD745A552B95CAE9191118EDB8D8B46A3B1D96CA3A3A37C7704B10642A1D06AB5E2388EE3787171
310
31B3956BB5DAE6E6E66DDBB6894422666B4E8C50280C04023939395C36BA1652A9D4ED76F3DD8BCD0546EFB5E2E26230076666667A7B7B99EA4D5E5E5E5D5D5D7F7F7F5F5F1F5375C260B7DB575656060606B86C342E52A9B4B2B2F2ECD9B37C77040187C160C071DCE3F130B872ABD5EA3BEEB8A3A6A686A90A61D06AB55E
310
AF57229170D9685CB2B3B383C120DFBD4024834422F1FBFD388E171515315567595959737333E367AD04482412AFD79B9B9BCB598B6B919797575151C1772F10C9535252022E0942A190910AED763B8EE362B19891DA60B0D96C5CCEBAB54073801B68DE01D62510080885C2E1E1E11B376EA45EDBF6EDDB575757FFFBDFFF
310
A65E150C068341A5523178B7A147494949381CBE79F326BFDD40D0C76834E2386EB3D952AF4AA3D13CF8E0830E8723F5AA60C8C9C9F1F97C18C6D6020189C3E148130915823EB9B9B9388EFB7CBED4AB2A2F2FDFB163874AA54ABDAA75118BC58140402E9773D05602D01CD820884422202F4AFD7A100C06ABABAB19E9D5BA
310
B85CAEBCBC3C6EDA5A0B9FCFC7E52D08C122405EE476BB53FC46753ADD3DF7DC535050C054C712505151A1D3E93868682D300CF37ABD1CAB08112C2293C97C3E9FDFEF4FB19EEAEA6A6E44E6E5E5E5E5E5E51C3494001CC7F9ED0082618442218EE329AE6D2A950AC7F1D2D252063B16179D4EE772B9D86E25015959591C2B
310
07115C2091487C3E5F8AE21DB7DBBD7DFB76B60F0972B9BCA6A686C7A3884C2643736063A252A982C1602A0BB95AADBEEFBEFB341A0D83BD8A45A1506CDBB68D29351F0DF2F3F32D160B5FAD23D8A5B0B010C7F1FCFC7CDA35F8FD7E0EC607BF62199BCD960EF61A08B6B0582C353535B447587E7E7E535313ABF27BDEC532
310
7EBF9FC75D08C13A404C64B7DBE9BD2E9148B66EDD6A329918ED54343E9F8FAF3900DC1878691AC11D40856C341AE9BDEE72B9D81E253C5A502B148AAAAA2A5E9A46708AC160080402F4D6DA9C9C9CC6C646994CC678AF00E02CC4D77D40AFD7B3BDCB21D202A150E8F7FBE9391B0885C25DBB76B16A5AECF3F9D46A357BF5
310
27A0BCBC5CABD5F2D234826B4A4A4A3C1E0FBD77038100AB6A2C9BCDC6D71C70B95CBC5BEC2138422A95E2384ECF32C76432B17A25E0710E040201DE2DB711DC417B2803BB09A954CA7897007C2DC60A858233F358445A00EC88E86D055EAF9741DFE5283C1E0F7B132C01454545252525DCB78BE01393C944EF646FB7DBD9
310
33AAF1783CBCC8466B6A6AD8937721D294ACAC2C1CC769F84C555555B16743CA97E9323299DEA4D8ED7683C190EC5B4545452C5D8BA552296D81552A28954AA41DDBA4141717D3F0BECFCECE6E696961C3AE06441962BCDA75413EC49B97DCDC5C1AA11C7272721E7EF86136FAC3576C1F109386FB7611FC23168B83C1200D
310
836A96EC2B799903C8776CB363369BCBCACA927A452814B264E16C341A69DC4F52044945373B7ABD3ED9EBA05028BCFBEEBBB3B3B319EF0C2F73A0AAAA4AA95472DC28228D5028147EBF3FD945DDE974B23107EC763BC76E5C1886A128D39B1D0CC3FC7E7FB291E482C1201BC1E7B877A4D46AB566B399CB1611E948656565
310
B2039AC62BEBC28B1B17F73B0F221DA9ACAC4CD6FEC7E3F1301E638217A110520F2760B344DB9B9898C8CBCB532A95F3F3F330E5D56AF5A38F3E3A3232323F3FBFBCBCCC543742A1904AA5CACACA5A585860AACE75999F9F37994C9393939CB58848538C4623CC02EC70388E1C3902F4CA7BF7EE65FC08C1D23D3B0128BC2E
310
E233D46A758239004CEB1A1B1B1B1A1AC8876C8C1EEE95B5E82084F80CB55A1DD74A071857BBDDEE868606AA3D051B9EEFDC5F884B4B4B0B0B0BB96C1191BE80C041E4AF1886E138AED7EBDD6EB7DD6ED7EBF551E5310CDBB16307B37A62EEE39AA04D00F13962B118EC03A451B4C7E3292E2E5E4B709E959575E79D7732DB
310
07B3D9CC655C13E43989F80262B178EFDEBDA5A5A5128904C771994C965875CA869119C76EC46CE8371019497E7E3E8EE30A85A2B6B6166C0530975D36E600C727137410A2B259F40051389D4EB1587CEEDC390CC38A8B8B43A1904C269B9D9D9D9D9D4DFC62381C0E87C3168B656C6C8CA9CE2C2E2E9694944C4D4D315561
310
5A3587482F944A258EE3400C2F954ADD6EB74020D0E974FBF6ED83AFC46C36339B9EACA2A282CB547C7CB9ED2378C662B1908217AADB2E70AB4F2A18358EE3CC1A1BA383108275140A05F841269381B55F4089E49393939354A6A6C6C6460695591CFBD15BAD56B6B3E920D214EAE82F2A2AA2865F4F6A0E6018C6AC32CB68
310
34B217B12B16B4096C46A8A35F2C16C7E6AF4F6A0E301E86844B1389828282641D4711994D941073AD253029875ABD5E5F5959C940E7FE0F970B33DA043611513946F57A7D0233CFA4C43256AB9541975FAD56CB594262B4096C16F2F3F39355602515E6B6B1B191BC61A74E75753583B525066D021B1FDAAEB1F083432412
310
EDDAB58B46137161FC7A9D00144D7183938A637852E10DD56A758AF9EEA9141616B217BB370AE42EB361493D2C4262079A28AAABAB634DA969C3D9E1442412F9FD7E6EDA42708756AB2D2F2F4FBD9EA4C25AD5D7D7339520834BEB6514456BA3A1D3E91819FD00BBDD0E1972592A95C6EA1638683775D06D78E3C0ECE807C0
310
E7C4A617A87D2D388BEEE67038B8D44323D8828DD10F805F23190CD2CF652821B409643C3A9D8E3D2743954A052FE7617030D188704A0F14462EB3D1EBF56CBBD8969595417A0230E83BC6650889CDB6096C9C3C2266B359A1500C0E0EB2DACAD0D0504949098CBD5A28149A9D9D65442A1A89444C261337BAE170388C7402
310
9987D96CD66AB5DCB49554D8F1D4AD3B4D26138EE36AB59A46F6271AA0A0EA990797A31FA056AB21E53C72B9BCBEBE9E5E2B72B9BCA5A585B4B0108BC5CC5A1CAD85DBED46F9863306EE473FC062B1406622A3E1EF8B6198CFE773B95C4AA572EBD6AD5429506363635255D120AE9B04221D811F856C100C0621CF2449DD2C
310
2B2B2B03810029F6F1FBFD5BB66C21FF9AACDF263D36DB553823E177F40B925929737373613CEE351A0D8EE35181ABC462F1B66DDBA8069B1CC4D2A2FACD6D6C32550A64B158A6A7A7F98D791F0E87474646A82EC56B313333A35028122892E572792010D068346D6D6D73737351AD4C4E4E52E3DA767777B3ED31B3B4B424
310
914850B2E13485F7B59F0AA48984542AA586E3251189443535352E972BF168ABAFAFA7EE362525256C9B2D68341AABD5CA6A13083AA4613C0FC813B3C9648AB2CDAEA8A8F0F97C595959EBBEEB743A1B1A1AA8253938A6A39B40DA9186A35F90CC7A4CAA058A8B8B711CDFBE7D3B7C2B388E5347A45C2E67FB20B41936814C
310
3AE4793C9EA9A9A9340C6A79EDDA35C828123D3D3D3E9FCFEFF72B95CAB6B6B64B972EC1879F181919512A95E415F9F6EDDB3939394CF91EC4656A6A2A0D979B8D404E4E4EB2EA46B7DBCDEA979D2230EBB1502874B95C5411A74020A8ABAB836F256A13E0C0930B8553671EB55A7DFAF4E9919111F81D3CA9000D7C913894
310
83D56A0D0402B1C7FD8282027843378D46B36BD72EAAC11FBA096418797979A74F9F2608626565E5C0810330AF645028E3B86305242248A00C7EE8A187E04F1A519B001BF90AA20804021CD8206D0A727373DBDADA0882585D5D3D74E810CC2B1934FA05313EF8229128180CAEEB952F9148BEFDED6F4336A1D168EEBDF75E
310
EAB1045E214D8FFCFC7C8BC5C25EFD9B85BCBC3C30FAC3E1F0C18307615EC988934F14A42599CBE582B7DFDCBE7D3BFC42CEFD26804E41A902749CE0E4F3C8238FC0BC92959595416B3F8948246A6969C1711C46BA4F8261D8638F3D06A9792D2929B9F3CE3BA9A9B6D91EA0DC67F6DE50E4E5E5B5B7B7130471EBD6AD871F
310
7E98FAA7AAAAAA5FFCE217EFBCF3CEB163C73680C819A49FA1A7A50E0683F012A1BABA3AAA184DA3D1B07A4A414E0229B17FFF7E82200882387DFA3429279148246FBEF92641617979F937BFF94D520B67FA00249229C6183C72E408644987C31195B395ED4D009D8252E289279E00A3FC9D77DE011B3D39FAAF5DBB363A3A
310
4A4E8393274F7216179629AAAAAAFC7E7FEAA6631E8F27AEBD505C6A6B6BA9AB32DB89E0B3B3B3998D02BFB9108944AFBFFE3A18E24F3FFDB4D7EB5D5D5D1D1F1FAFADAD150804595959CF3CF3CCF2F23228F0DA6BAF658ADCADB4B494C1646118861D3E7C18F2B33B1C8EC6C646EA35096D02698D4824FAE0830F8014E82F
310
7FF90B41103FFBD9CFA8051E7CF0C1A5A52530071E7DF451BEFA090938EE33BEE8FA7CBE868606C8C23B77EEA4AECA6C9B8822AD70AAE4E4E4002D18E0DE7BEF8D2A70FFFDF78339C076708754108BC56EB79BBD90E2870F1F863C4DB9DDEE6DDBB6519FB0BA48A3AB3003582C96EBD7AFAF35010402C1ABAFBE4A10442412
310
F9F297BFCC7DF712836198C3E1F07ABDAC6A27EAEBEB212D7C4422D18E1D3BA853916D8B29740A6280AAAAAADBB76FB7B7B7C7D5FF9BCD66701978ECB1C7B8EF5B024A4B4B83C12007A16A93520C4729C5D80E286DB3D9D46A357BF5730F0FE6D0E7CF9FDFBD7B775353535CC3E6F1F1F17038CC7DAF12909D9D8DE3F8F2F2
310
727B7BFBECEC2CDBCDADACAC0C0E0E42C603EDEFEF37180CA48BF0E2E222AB32B4FEFE7E6416C13065656554B9C7AE5DBBC011E88E3BEEE0B15700A150E876BBB917FFC9E5F2AF7FFDEB9085A3360193C9C460928EB8CDB15779A672CF3DF7BCF7DE7BDDDDDDDDDDDDAFBFFE3A4C0404C0B66DDBE6E6E6DE7EFB6D1067AAAE
310
AEEEDAB56B0441747474B0D95F28EC76BBDFEFE72B44D4FDF7DF0F29D2713A9D3B77EEA43E61758C2259D017C030ECC5175F8C4422549D6E381C8689DFA4D56AA7A6A6C8576EDFBE0DEA999999811705B281D168C4719CDF38C93A9DEEAB5FFD2A64E1A6A6266AB020B6A349A34DE0737EF8C31F02F3E68F3FFEF8B9E79EFB
310
D7BFFEB5BABA0A06318C5233180C9E397306BC024E3E030303F0DA50C6118BC5388E3398F43715BEF9CD6F42EE3FC16010A814012A958AD5631B9A009F515656B6B8B80894BBE4C3969616F0F0DFFFFE37643D8D8D8D870E1D3A74E810BFA24F8FC7039F139203AC56EBEEDDBB614A6A349ABBEEBA8BEA73C3EA184569043E
310
032CFF044144C99E9F7AEA298220969696F8EA58B2008B8634F43D78EEB9E7204BD6D7D7535D2BD90E9DB461368194C4A0E46528CA7CE5C48913A15068757535F1EB797979E960F3E3743A979696DADADA969797F9EE4B341D1D1D9062C7D9D9D9ECEC6C52858CE49590A43401060606C00F511E5E8585852291E8C68D1B1F
310
7EF8E1B973E7BABBBB9F7CF2C928D1414141C1A953A74E9C38C1EF1CC0717C686868747494C73E24E0DD77DFA546C64D406F6FAF582C4E3129323CB76EDD4A36E4F50644AD564F4E4E1204B1B8B878D75D7781871886BDFDF6DB440C3D3D3D54D5EFDFFFFE77F0FCF0E1C33C753F3392E3468938D722272767DFBE7D5FFBDA
310
D7C827901179E9C165D6A67441A552C59E92BFF18D6F00194E28147AEBADB75A5B5B81EBE3C2C2426B6B6B4B4BCB238F3CD2D1D101C6FA279F7C429A12D8EDF6AB57AFFEF4A73FE54BD05E5454041F948A476A6A6A122877452291DBEDC671BCB9B9592C1647A59464F5A4BE61AE01506467679F3A75EADD77DF8D9D03DFFA
310
D6B7A2F4000441901B8240205028141F7EF821784E5570F21B752C53BE3F994CB667CF9ED8E7207592DFEF07DF48414141595999E08B9F2BF5044D09C8C49005F4F9DBDFFE0646F0FBEFBF1FFBB12D16CB77BEF39D279E78E297BFFC2541101F7CF04154019BCD06EC9CE165A3ACC2EAF18071A8631A4419C2713CD6DE01D8
310
2AE7E4E4901F8DD5E09E9BCB3AFAE4C993E4EAFEDE7BEFAD756E397EFC384110BFFEF5AF63FF0494BE972E5D62B9A75064D637A7D56AABAAAAC0B84F70CD2593C750177E740A4A0CECFE78E6CC19F2E7E6E6E6DFFDEE77718B010F3DA7D3B9D6CE3B363696640F59211DC4AFF04C4C4CD8EDF6B6B6B6B6B63652F216CBECEC
310
2CB86271904163D3B17BF76EB0FC87422160B3F0E31FFF38B6D8B163C740B1C71F7F9CFA7CFFFEFDE09EF095AF7C85AB2E2722E3962EC803376904417EC0FCFC7CF664A36C7BE2A71172B91C8CECE79F7F9EB4603B7EFC78D4525A5454B4B0B0008CDB5E7BEDB59D3B77D6D6D67EEF7BDF033E2E7FFCE31FF9EA7F14193701
310
E0C58EE0A3513F203A0531C3B973E7088278E9A597FC7E3F10FF130441EAEA85422108E973E0C08158250041107FF8C31FD227D25B267E6D907D46132029C4F0454F9D3A555555B575EBD6A3478F3635359D3C7952ABD57EFFFBDF170A85CF3EFBEC2BAFBC525C5CBC67CF9E37DF7C53A150B4B6B6929B6328147AE38D378E
310
1C39B2B2B2C2CEA7E01FA15068B7DB131BCAAFACAC5CBA74697E7E9E5E13376FDE2C2C2C1C191981290C5CC31617170502C1F0F0B0D1681C1E1EA6D72EE2330E1E3C082C9FC105D7EBF54E4C4C80D5BDBBBB1B1C7BC888E73299ECE0C183C78F1F6F6D6D4DC398870CAE5B797979388E07028175DD442412496565258EE3B4
310
FF2130DD066548B500FC8BF4502A954EA793A5CAD30B93C9140E870982209D5DBC5EEFF8F838E9D10219F3391D30180C30E94D132393C9E88D66900F98C68B30917F5C2E97DD6EC771BCB8B8987C884E416BB1A618B4B6B6362A8CF3E0E020C8CBBB63C70EF064686888CCD42B140AD90B95C338376EDC48D1EBC566B301D1
310
E4E5CB97937D776A6AAAADAD6D727232591BECC4C9C8F2F3F383C1A05C2E9F9999696B6BBB7EFD3AF92764BB9634CF3FFF7CACD0E6F7BFFF3D50840928319FC3E1F0CACA0A2923CA1411BBC3E1A017E3040864988A0EE276BB933209311A8D519B405656563018C4713CB1FD337BEB3499126183A056ABF7EDDBF79FFFFC07
310
DC6BA97F0262FED1D1D1A2A22272F41F387060EFDEBD6464CF175E7881AF9E2785582CA6A69E8604C330BFDFCFEC24B7582CA5A5A5F0E5C9A1ECF7FB711C87CC8EC1DE0490C9646EB79BA5CA3945A954BEF8E28BC3C3C3274F9EECEFEFEFE9E9191B1B7BE59557C86DB7AEAE0E8CF28B172F1204B1BCBCBC7FFF7EF0A7071E
310
780058FB2C2C2C644A18E164C7844824829C331E8F07FF3F30AAA2A41CB88C46E3962D5B701C4FCAF31D5D03D641A954FEE31FFFF8C94F7E026E87AFBEFAEA534F3DA5542A8F1D3B76E1C205909950A15050E33850ADCF0502C1030F3C70EBD6ADA6A6265EFA4F8364972E48E34AAFD74BD57840A657613B0B8B56AB2D2F2F
310
67A9F28D3001DE7FFFFDD6D656F2573001C0CF7BF6ECE9EDEDD56AB50281E0E5975F2608626565256AF40332EEA605FFCD41069CAAA8A800FF84A2A222327D5D20108019DC991BDF3CE32780C562E9EFEFA7AE5B7FFAD39FA871694E9C38F1CC33CF0804020CC35E7EF9E5871E7A88875EB200647221983CD8003014486F1B
310
9FCF070E2AD4B0256B21954A3D1E0F4C2BF4606F98EA743AF6B6172EF8F9CF7FFE831FFC80FAA4ABAB8B14770A04828A8A8AEBD7AF6FA8CBFEFF81D72E41D6565858485E6A491B1EC81AA28E4FCC82AE01B17C76A255ABD5BDBDBD09CA5DB972C560306CC8093037379758899B9D9D9D94FD82C160B871E306F839128924E5
310
93D5D1D1C15E6CA2818101CEBCE63385CFBF1BF23BDB6C5CB87021B1D8CAE974F6F4F470D69F5028C452A6C0898909709143907C3601AE5EBDDADCDC4C3E158BC57ABD9E3A2582C1E03FFFF9CFB9B939AE3BB8F9E8EBEB838C8D8E608CD2D2D2B1B13132CCBC42A1200882BA0EFDF5AF7F8D2BF6D918E8F57A20E78D25A960
310
C8C029D1E7F389C59F9BD9C6DA27AF0B7BE769F252CE38199A46F2F31DE0ADB7DE7AE38D37E2DEC09E7EFA69A552F9E73FFF99DBBE71C7D8D8D85A224E954A05B9EFE974BA4020B09669D0DCDC1CABB95B20B97EFD7AEA568071999F9FCFC4B0E99F2F544F3EF9E4AF7EF5ABB367CFFEE8473FFAF8E38F0502815028ACACAC
310
FCEE77BF6BB3D9EEBEFBEE858505FEFAC93AE170582C16C327A7890D103B3E3EFED1471F090482A87AC03DF8C2850B0A85227669BF78F1626CD699F1F1719D4E373E3E9EF4C7588FD1D151100C8FF19A3394CF2740241279FCF1C7EFBBEFBE679F7DF6B7BFFDAD4020E8EAEA8A44222FBDF4D2D1A347816BC506E6F2E5CB56
310
ABF5E2C58B3085FD7EFFE5CB977B7B7B0D0603699AA6D168F2F3F38542619438A1A3A3A3A1A121140A4522116ABCD4CECECED5D555BBDD8E61D8CCCC0CF595D1D151B3D9CCC6044040B173E7CEB367CFB21753293D897BF28E7D48A69F282E2E361A8DC22FB256E518864595F47ABDE0AA10371954266A6DABAAAA58CD50C6
310
06F1BF3070988B4422DC7686676265F622912836C6357808FCAD868787235F64ADCA41280D2A9D9D9D2E974B2412D17692A447B2AA0978868686D69225A42DF1FF119D9D9D478F1EE5B82BBC13AB10108BC56BF931EBF5FA5BB76EA5D21CF02FE53E50C0A54B975812B3CECFCFB36ACFC706428140A05028A2F423838383E0
310
1EBCA9585858880A16BDB4B414AB93220802C3B0F6F676B3D99C4A3EC69A9A9ABEBEBE502844BB067ACCCCCCA0FC2E2462A552693299CE9F3FCF774F32864F3FFDD4E3F17476769E3B77AEBABA3A76D38F4D3810D767EAECD9B34B4B4B66B339365A9E4C26CBA0FC3A198D188D7E2A5D5D5D3535355D5D5D09CAACAEAE7675
310
75F9FD7EF02B79EE1F181800A9BF711CA74E009BCD363434343D3D2D10089C4E27794D74B95C18865DB97265626222AA099D4E97263124373C6234FAA940DAE1ACAEAE7EF2C9275157C9F2F2728FC7F3D1471F45A914D46A755F5F9FD56AD568343D3D3D548132702D8AADDF6030B4B5B5A5F65112118944300C8BDB748A24
310
AB4EE19D2402636D4EC094887B528F92F9F4F7F74F4F4FAFE55DA0D168581DD349313333A356AB53BCC4C705C4ADB872E50AE335B3C4E692F4C3100A85A8E7757028827C77727232F5DC8C52A994ED747DEC0982C808D599029A00D1F4F6F6F29B3BA3A2A2224DB228D060696929B39C46D004882656F4393434440D33C836
310
4AA572639B5DA5156802ACCFE8E8684141017CF9C5C545DAFA0193C934383848EF5D040DD004880330C6A43EE9EBEBB3D96C90AF5FBC7851AD56039D28D01840BE8861186702D0B9B9B98CD3DAB2019A0071B876ED5A94D1FCF4F4B45C2E8739DD0275724F4F4F6969E9962D5BCE9F3FBFBCBC6CB55A614288FA7CBE4F3FFD
310
947EBF93E1F6EDDB1967B886E00E48CBD058844221A923037709ABD50A132E89E374434AA592A560C672B93C1D5C7F20417A8024E8ECEC5CF748138944CE9C394386C4120804376FDE5C57E2AED168A452E9D5AB5719EBEB7AC41A3E314528148A3A4022320FEA08A6229148188F5DA5D7EB618273314E26BA1C300EBA03C4
310
672DCBDE9595959E9E9E6030C85492F4D2D252B95CDEDFDFCF486D88644113203E0982052D2F2FB7B7B73B9DCEA4629AC7A25028FC7EFFD2D212F2D0E511340168D2D9D9B9BCBC8CE3380DCDBF582C76BBDD66B3B9A3A323CA701AC131E8124C9F919191919111BBDDEE7038A6A7A7FBFAFAD67D45ABD59ACDE670387CFEFC
310
7964F19F0EA009902A20A66A6E6E2E79F39B9F9F8FB2662393204D4C4CA48F4DE8C8C8484141C126DF82D0045813E03A1815B024416172642B954AAACA8C20081A89F438606A6AAAA4A4848D0900BC46D9F0374070077BAAA23401C3B06030C846CD649690F4E77FF5C6C152B97439800000000049454E44AE426082
  0
ACDSRECORD
 90
        0
  2
AcDbDs::ID
280
    10
320
D62
  2
Thumbnail_Data
280
    15
 94
     8677
310
89504E470D0A1A0A0000000D4948445200000100000000940802000000F39060D0000000097048597300000EC400000EC401952B0E1B0000200049444154789CED9DE96F62D7FDFFCFBD176C5603C6C6BB8D770C631BAF4C9B4E46992CED444D13454995A84FAA46695555CA93FC0351FB0754AAFAA0EA83B66A94569A495B
310
B549D3A855B6C964628C6D3603C66C06DB800103665FEFFD3D38FAF1B5D806DB609B705E8FE072B93E58E77DEF399F15A3280AB4004AA552A150D4EB34C43706FCAA0780405C2548008896060900D1D22001205A1A2400444B83048068699000102D0D1200A2A5410240B43448008896060900D1D22001205A1A2400444B83
310
048068699000102D0D1200A2A5410240B43448008896060900D1D22001205A1A2400444B83048068699000102D0D1200A2A5410240B43448008896060900D1D22001205A1A2400444B83048068699000102D0D1200A2A5410240B43448008896060900D1D22001205A1A2400444BD3BA02A028AA453A6422AAD0BA02F0783C
310
FBFBFB573D0AC415D3BA024020001200A2C5410240B43448008896060900D1D2D0AE7A000DC462B144A3D16C360B00A8D1E2198BC5944A2500804EA773B9DCC9C9C9C60E1171D57CA304E0F1785C2E57E1EDC4C4C4C8C8485B5B1B00004EEBC7C2E170140A05002093C944A3D1C2B7300C9B9E9EE6F1780D1835E22A697A01
310
E4F37983C1904C260100BDBDBD70FA5E9CB6B636A15028140AE15B9224CD66F3CECE0E004028148E8E8E120451973F84B85A9A58003B3B3B2727270441C864322693D9D0BF85E3F8CCCC0C7C7D7C7CAC56AB4F4E4E060707A7A7A71BFA77118DA6F904904824F47A3D00402291482492CB1F40E1C9100A85944A657B7BFBE4
310
E4249BCDBEFC91202E4E3309E0E8E8686F6F8FC562ADAEAE621876D5C301028140A150A4D3E9DDDDDD442221168B7B7A7AAE7A5088B3D11C02B0DBED7EBFBFA7A7A75E4BFC3AD2DEDE3E3B3B0B0070381C4AA512C9A0B9B8EE7E80783CAE542AB95CAE42A1108BC5573D9C6A8C8E8E2A148A6432A9542A63B1D8550F075113
310
D7F70990CFE7D56A3583C138DF5D3F97CB79BDDEC3C343F8F6AC7E0000C0E4E4249FCFC7F1B3DD23C462B1582CDEDEDE4E26938B8B8BC85874CDB9A60230180C8944E21C13C8683446A35100004110A7ADA267F50300007677776D361B49920080EEEEEEB1B1B1DA8771E3C68D7C3EBFB5B5D5DDDD7DCD1F5C2DCEB5134022
310
91D8DEDE964AA51C0EA7F6AF389DCE48240200904AA55C2EB72E23999A9A2ABCF6F97C5042D03D4CA7D31FFB7582205656568E8E8E341A8D4C26ABE52B88CBE77A09E0F0F0F0F8F8787979B9C68547C12E343C3C5CB0D3370291482412890000914844AFD767B3D9D1D15178A43A3D3D3D3C1E4FA7D38D8D8D090482C68D10
310
713EAE9100341A8D50289C9B9BABE564BD5E9F48244422D125DB853A3A3A161717010076BBDDE170D4B2346230184B4B4BBBBBBB47474757E2B8405401BB0E79B1A9544AABD5CAE5F2F6F6F6EA67922469341AE3F1F8ECEC2C8BC5AAE5E2E974DAE572ADADAD9D5ED200000281403E9F2F32591A0C86EF7DEF7BBDBDBD353E
310
827C3E9FC3E160B1583299ECB15F0987C376BB5D2E979F75638D681C572F8040207070702097CB1F7BA6DD6E0F04023299ACBADB952449ABD51A0A8562B1582C161B1919E9ECEC1C1A1A2AF29DB9DDEE5C2E373C3C7CFA603A9D3E3A3A3A3A3A72BBDD0080DEDE5E3E9F3F353555DDEF168FC78D46E3F0F0F0633D00D96C56
310
AD56CFCECE363A76035123572C804020100E87272626AA9F06D7FA636363DDDDDD95CEA128EAEBAFBF2608229148F4F6F63E764B505600A56C6E6E66B3D96834DAD3D3537D79B6B7B7E7F3F96666661EBB0BD7E97403030385483BC415729502F0FBFD9148647C7CBCCA39994CC66030F0F9FCD1D1D14AE7B8DD6EBBDD4E92
310
A4542AEDEAEA2AFA942449AFD76BB3D9300C3B6D8A29BB0402000C0D0D952E81288A72B95C56AB95A228A954DADFDF5F76242449EEECECA4D369B95C5EE5A1415194D56AE5F3F955F48CB81CAE4C000E878324C9EAB33F180C3A9D4EA9545A766F4092A4C160F0F97CFDFDFD45F7FB4824623299E06B0CC3FAFAFA0607076B
310
59025114757070E0F57AA1F91FC771B95C7E5A3614456D6D6D2593C9CECE4EA9545A76D8994C46AD56CFCDCD555FE7D8ED760CC3AA081B71095C8D00E0C6B1FA8A7967678720884A395976BBDD64322D2D2DF5F6F6160E8642219BCD96CFE7B95C6EA5D959A09625503E9FD76834B95C8E4EA74BA552068351F8687B7BDB66
310
B3CDCECE56B20269B55A3E9F3F323252E5FA76BB9DC3E1D4624E4534882B10C063673F0C82989898E0F3F9A59F42FBE3ECEC6C61DE64B35983C1904EA7F97CFEC4C4448DCEE31AF700853F61341A53A9544747C7E9A78DC3E1808FA0A1A1A1D26F793C1EBFDF2F93C9AA0C0969E06AB96C01F87CBE582C56C5760E2D2A0B0B
310
0B345AB18F229148E874BA9E9E9EC2B2219FCF6BB55A8AA26432D9E9DB732D9C490005E0E2AAA3A3432291C0351545516AB53A140ADDBC79B3D43C954824542AD5AD5BB7AA983EF57AFDF8F8788D565D447DB95401241209ABD55AC596128BC5F6F6F66EDCB851FA91D3E974381CDFF9CE77A030489254ABD52449CECFCFC3
310
ACDFB3723E01404E4E4ECC663387C3292CB472B9DCC3870FA55269E9BD9C24C98D8D8DEAC11D7ABD7E6C6C0C65D55C3E97270092243737379797972B99472ACDFE5C2EA7542AC7C6C6FAFAFAE01168E62FFB94A89D8B0800128D468D46636F6F6F61A1EF7038DC6EF7EAEA6A69E48FC160181E1EAE622155A954287AF40AA0
310
2E8B8D8D8D6C365BE9538FC7A3D7EB4B8F8742A10F3FFC309148C0B7A9546A6D6D2D10085C7C3C8787874EA7F3E2D771BBDD6B6B6BE9741ABE8DC5621F7FFC7130182C3D737B7B3B128954BA4E369B55A954171F0FE24C5CD213C068340E0E0E76747494FDD4EBF5A652A9D2B061A7D369369B9F7BEE39F8D66C362793C95A
310
7CC6B570F127C069B6B6B6BABABA0A577BF0E0C1FCFC7C691995EACF018FC793C964AA1B8E10F5E53282525C2E179FCFAF34FBA3D1E8F1F171E9EC77BBDD388EC3D90F974F2291A85EB3BFEE2C2E2ED268B4CDCDCD7C3E0F0078F2C9270F0E0EAC566BD1693299CC6C36E772B9B217E9EBEB0B87C3B0C40BE27268B8003299
310
4C2010A8E23A35994C3299ACE8F8EEEE6E3E9F87B6C54422B1B9B939373777CDC389FBFBFBE7E7E7B55A2D74A241C3542125ADC0C2C2825AADAE7491F9F979B8146CEC5811FF9F860BC0603094B5EA403636369697978B0EC2442A38FB7D3E9FCD665B5959698A84121A8D363F3FBFB1B1118FC70100838383B158ECE1C387
310
A7CF2108422A95C2CA2E65914AA50683A1E1634500001A2D00AFD72B10082A9929B7B7B74BA3881F3E7C383C3C0C6FF63E9F0F463E377490F5852088D5D55587C3717474E47038FEFCE73F73389C838383D3E7B0D9ECFEFE7E8BC552F60A1C0EA7A3A3C3E3F15CCA785B9D060A80244997CB55292356AFD77777771759BE0F
310
0F0FC562310C6883598E4D1A2A23954A552AD57BEFBDF7E69B6FCAE57287C3717C7C7CFA04A150C866B32BF5681A1E1E76B95C682174093450007ABDBED2CD1B9A358BA221C2E1B0C7E3191C1C04001C1D1D9124F9D830E96BCBD75F7F2D10080AD1A9B76EDDF2783C45B552FAFBFB61D641592627274BF7D088BAD3280140
310
5346A570C8526DF8FD7EABD50AF703F178DCEFF737E9BD1F0090C964582C168BC57AE9A5976C361BFC57C864328BC592C9644E9FB9B2B2A252A9CA5EA4B3B333180C5EC6705B9B4609C0603094DA76200E87432C169FF607531465369B9796960000B158CCE17054D9375F733299CCF6F6B65C2E5F5858C071FCC68D1B46A3
310
9124490CC3E47279D18618C7F1AEAEAEA3A3A3B29792C964DBDBDB9732EAD6A5210248A552743ABD6C9C423A9D0E87C3458B1F9D4E07432460CA6FF3CEFE743A6D30181617170BF2260862616161636303008061D8FCFC7CD1DE777474746F6FAFECD5381C0EB426211A474304A0D7EB2B4DE2FFFCE73F45DBE2E3E363168B
310
056339CB5A459B854C2663341A4B5D75388E4BA552782F170A85A954AA685A8B44A2FFFEF7BF65AFB9B4B404C5836810F5174026932108A26C50975AADEEEFEFFFD7BFFEA5542AA1C7140060B55A61D68BDBEDAEBD1CC37503A66E56CA84E4703804419C9C9C0000A452A9D16884C7B3D9AC52A9BC7FFFFEE8E8A8D96C2EFD
310
227C8A56F21C232E4EFDEB02A9D5EAB2B57A4E4E4E180CC6A3478F7EF6B39FD168B48D8D0D8220E8747AE159B1BFBF7F0D8B3FD7423A9D86390C55CE999999512A950A85822088E1E16187C3E1F178DADBDB150A855C2EFFE31FFFB8B2B292CD664BFD7DE3E3E3369B0D75E2681075BEDDE672B94A01BD3B3B3BC160F0E6CD
310
9BF0AED6D1D1C164323D1E0FBC2F6E6C6CC04D705360B1583EFCF043F83A9D4E9B4CA65A8294241209CC548E44225AAD562010407F5F7B7BFBC8C8089D4E5F5F5F2FFD9640200887C3751D3EE2FFA8B3002A197F12890493C9DCDADA8265D5602697442279F6D96773B9DCFFFEF73F168B7591E0FECBC462B1FCF8C73F1E1E
310
1E86413BB0D6552D0D3B783C5E201078F4E8515B5BDB4B2FBD343333F3D5575FC18FEEDEBDFBF9E79F57FA0F8844A24A9622C405A9B30052A95459DBBFD1684C24124B4B4B70A23C78F0E0EEDDBBF0A3E1E1E1679F7D16C330954A556426BF9E984C269148F4CB5FFEF217BFF8C5AF7EF5AB1A6B92C270FFA1A1A16F7FFBDB
310
8580E7C5C5C582A173707090CD66C33E7C4554B114212E483D0590C964CA86AC511495CFE7552AD5CD9B3701002449B2D9ECA2FCC0999919381B6C365B1D87D4087EF0831FDCBD7B57A1507CFEF9E7FFF8C73FAA7873212449EAF57ABD5EBFB8B858640183DE31F8FAF9E79F7FF4E8115C109642A7D39BE2EED074D4530095
310
621FD46AF5D0D090502884169EB5B5B5B25E5E82201617173B3A3A944AA5D7EBADE3C0EAC2E79F7FFEFAEBAFAFADAD0100DE78E38D858585B7DF7E5B2814566F1E6CB3D9363636C6C6C62AA53B4A241268FF613018388E0B0482B201427373733A9DAE4E3F05F17FD45300B07E4EE9F16C36FBD1471FBDF8E28BF0ADD3E9AC
310
5211ADBBBB5BA150A452A9F5F5F582A9B411B058ACDA5B10A4D3E9B7DE7AEBEDB7DF7EF3CD375D2E172C58A45028DE7DF7DD4A99ECF97C7E7D7DBDA3A3637575B54AB6FBCCCC4C61D9F3F4D34FEFECEC947DA4D068B486FE375A96BA0920128994CDF48BC562341AEDE8E8C868348642A14020508B454F2C162F2F2F6F6E6E
310
D66B78A5F0F9FCCECECE5ACED4E974B0DBC5EF7FFF7B2E97FBEAABAFFEF5AF7F7DEFBDF75E78E185429E7E29B002402DC50FF97C7E369B75BBDD1E8F47A3D160185676AE434F792D0346D40EF1CE3BEFD4E5421A8DA6AC215CA7D3A5D3E9898989E5E5E5838383870F1F3EF3CC33B5D84C300C3B383880C1A157CB0F7FF8C3
310
F5F5F5DFFEF6B746A3F1D6AD5BAFBEFAEAFDFBF77FFDEB5F5729C772727292C9646A2C77D5D3D373EFDEBD9191911B376E1004914C26B3D96C6991533A9DEEF3F9AE795A5CD3D170CB633E9F4F26937D7D7D388E4F4D4D8542A182AF17568083773B0CC3464646AE6783D1959595DDDDDD37DE78636969E9FEFDFBD96CF677
310
BFFB5DF5AFC4E3F1D2650F6C26005FB3D9EC820790C9644E4D4DC10C380683816158D9ADB0482472381C676A5586782C8D1540369BA5D168028120168B198DC670380C0D4100008FC773707050D81A9224E9743A8BDC0857DE6CD4EBF53E78F0E089279EA028EAFDF7DFCF64321F7EF82141108F8DD7E8EFEF572A95A74B4E
310
68341A1E8F577075C37694333333B056C0C8C888D168CC6432272727030303956C4188BA531F019C9C9C942DFA0027340C748B46A34C26134E1D58FF6365650500F0C1071FC462B1A79F7E7A7474D4E3F1582C16181A140804AEB6408852A9DCDADAD26AB5B76FDF7EFFFDF73FF8E00383C15069A35F0A9BCD8EC562709FAD
310
D16824120983C1F07ABDF7EFDF97C96477EEDC512814269389A2281E8FD7DBDB1B8944C6C6C6E0FFCAEBF5EEEDED9526D3F1F9FC502884564175A43E9B60A7D35976B2A6D3E942C94E2E975BB07EBA5CAED3D5D47A7B7BA1A7B3AFAF2F1A8D66B3590080CD66BBDA8C30A552F9A31FFDE8E6CD9B7EBFDF6432CDCDCDBDFEFA
310
EBB57776999E9E86F64DB7DB2D140AE1FFC1E974AEAEAE169C5FA74D4053535385FF55E11F52844824F2F97C17FC5D88D3D4E709904C266BAFED9A4C26190C462E97FBF7BFFF9DC964BABBBB33998C4AA572B95C8B8B8B72B91C0645D7B2516E288B8B8BEFBCF34E6767676F6FEF392AD7D2E97418C50983FC8C46A3D96C86
310
35746934DAFDFBF7391CCE33CF3C73A66B0A0482DDDDDDB38E04518506EE01F2F97CD9B5723A9D6E6F6F5F5B5B63B158ABABAB5C2E974EA70783C16030B8BEBEFEE28B2F521465B1588A7ADA5D3EABABAB24495214F5E4934F9EEF0A42A1B0900BFFE5975FDEBA754B2010F4F4F4F4F5F5A55229BBDDAED168180C46329944
310
2DC3AE8A060AE0E8E8A8AC558720887C3E2F168B3FFAE82393C9343D3DCD66B3373737994CE6EDDBB7E139E170F86A0380ED763B4110E79EFA908989894287FAC9C9C94F3FFD1400F0D24B2F7DF6D967A150687878F8F6EDDBBBBBBB65677F7B7B7B2A953A6BCD77C45969A0002AC5F773B9DC582C2693C97EFAD39F02007E
310
F39BDFCCCECEAEAEAE7EEB5BDF0200582C96898989AB2D8850DFA6153C1E2F1C0EDFB973E7CE9D3B4AA5F2F0F030140ABDF5D65BD5BF05AB42346F7668B350874DB04EA73B6BED2A3827E06B3E9F9F4824E0B38224C95028441044D9DE3097437D673F8661939393BBBBBBB0C80F83C1080402857632878787958A46B2D9EC
310
B209C1388EA398883A52070194CD63AA8E4422F17ABD30E8E5B9E79E93C964636363D96C766363636E6EAECAB4A823D96CB634BED266B371B9DC3A362CEAEBEBF37ABD7373731B1B1B994C667E7E7E6C6CECCE9D3B00008BC5128944CAF656AAC2D2D2524323445A8D3A2C81F2F9FC39DA3A482492FDFDFDC212F9E8E8884E
310
A7AFACAC6018168BC51EDB6AF7E2F8FDFEA2F2E8369BADA3A3A3BEAD4B070707D7D7D7070606969696B45A2D945C241201004C4E4ED6188C84681C7510004551E7CB641F1A1A3AEBFDAF713462F603000AC65C1CC7AB270D9FF58288BAD0C0120C1E8FA759F2981A34FB2FC2E6E666D90C180CBBCADEE6DF3C1A25805C2EF7
310
C5175F542AFE7AAD301A8D3C1EEF5ACD7E00C0DEDE1EAA087409344A008140E0B4CFFFDAA2D56A8786864A638FAF9CC3C3C3F375BF449C89460980CBE55EB92BF7B168B5DAE9E9E94BD8709F8FE62D92D7449C79136CB55A8B4ADD976D67120A852291C8DEDE5EC1CE533B67ED8F72E3C68DC776D8753A9D4579C69B9B9B03
310
03035AADF6F4C1F1F1F1C73E0D12894495FE2EA59CAFDD8BD3E9ECECECCC6432A5CF81D20B0E0F0F57C94D4354E1CC02989898280DD22CF5F8C662B12FBEF8422C169FAFD85BDD4BC48D8C8C14E24F298AD26AB577EFDE8545DACE7A29168B75D6E19DE3E728954A168B75EBD6AD7A5D105196462D81F2F9BCD56A3D4710E5
310
25006B72B5B7B75FF540AA411044B3D8D09A9A46C502F178BC743A2D954A1B74FD73A356ABA552E9359FFD0000B1589C4824AE7A14DF7C1AE80778F2C927AF555B5F8AA2341A4D53CC7E00C073CF3D57D64B889C00F5A581D1A018863D3646C8EFF7EFEDED9124C9E5721BFDB8B80EB3DF64324522111CC7C5627175CF039D
310
4E2FEBF4A5280A3983EB481D0400E313CF1A0E1489444C26535757D7E2E2228EE3D16814669137C89AA156AB6532D9698B0A93C9BC84B0CA70380C4BC741EB9944229148241445EDEDEDEDEDEDC9E5F2A6E87FFC0DA63E022049F24C02884422070707D094F1E8D1A34824F2C4134FC0BC418AA26031E47A9548C9E5727ABD
310
BE68F603002E27B5DCED760F0E0E5A2C96CECECE898989582CF6F7BFFF7D7C7C5C2E978BC562B55A3D3F3F7FA6B2D89148A46CFD01C4F9A8C31E402693155A9ED488C9642A1455D66834058B87542A85B1D0F58AA148A7D35AAD562A955E9557351A8D621896C96484422100C06030F4F6F6C2AAE8388E9F23B6D96C364B24
310
92868CB525A9C31380C160A452A9D2E36D6D6D30FDB7E8382C228D6198CBE58291CF4C26D3EBF5C23414994C66369BEBB23881AD2B4EB7ACBB128C46A342A188C7E33E9F2F140A89442282202C164B7B7B7B152F84D56A1D1F1FBFCC71B6260DDC04C32E9FB023C6691289048BC552A95446A3716060E0F6EDDB6C365BAFD7
310
EB743A1CC75F78E105D858F782A452A99D9D9DF9F9F92B9CFDD16894CBE546A35100C03FFFF94F0CC3FAFBFBE7E6E6984CA6D56ACD6432E17018D63D2F7D408542A1E6ED94DC4434D00CDAD6D6062BFC9485CBE59E9C9CECEEEE1E1F1F6732199FCFE776BB0BA958176C910B677F8D8D5B1AC7CECE4E21B59F46A3854221AF
310
D79B4824D2E9B4C3E148269302818024C9B2D91467DD5621CEC7157425E2F17866B359A1504C4C4CC4E3F13FFDE94F72B9BCAFAFEFE5975F2608C2EBF5F6F4F45CA4456EE1DE5FDF619F033889DBDADA3299CC2BAFBC4292A44AA532994CEBEBEB3FFFF9CF310C2308C2ED76D7BE098EC5628F8D7A429C89FA3C0160C9BEB2
310
1F953A6E300CA3D168B06C288FC7633299E974BAB3B313CE0397CB0557C64C26F31CAED06B72EF07001C1D1DC107DADCDC9C56ABC5719C46A3E1381E8944E08F858D53CBF6D7A894661D0C06E1661A5137A87A90C9643636364A8FBBDDEEBDBD3D8AA29C4EE7DADADA279F7C52F80826895314B5B3B3B3B9B9090F6E6D6D1D
310
1F1F17CE595B5B3BD33012898446A339C7F81BC1E9C1070201581822954A2995CAFDFD7D8AA242A1904AA52A9C03DB27FBFD7E8AA2D46A752A95AA7E4D445DA8CF12A85006B088BEBE3EA552F9F0E143B95CBEBABAEAF57A0B5544171717B7B6B672B95C7777379FCFD76AB5A9546A7E7EFEDCA5A092C9E4EEEEEEDCDCDC85
310
7E499D88C7E3D4A9479F5028C4304CA95432188CAEAEAE783CAE542A793C5E21E25FA5523DFFFCF3388E7FFCF1C71886090482A688D7F80670197B80B1B1B144228161585F5FDF83070FA000300C838D81E13DAFAFAFEF22E501E1ECBF0EEB7E88DFEF2FAAEDDCD9D9A9502892C964341AA5D3E9A7EBDE5114954AA5E096B7
310
B3B3339FCF975DBF552A3589B8087513406767E7F1F171E90AB5ABABEBF8F8182E84288A4A24125EAFB7B7B7B770C2C59371AFDBEC07000C0C0CE874BAD33F13C264324B750EA3A1944A258EE32E970B3A434AAFB9BDBD8D0AC5D59DBADD51C6C6C6EC767BD9E31445E9743AB95CAE5028BEFBDDEFD6982165B3D90606061E
310
7B9ADFEFB7582CE758F9E472B9B2CBB6BA40A7D3391C4E8D051E552AD5EDDBB7150A854C2683ADE4CBEE8C2BF560465C84BA09802088B22DDCE0D3FCA9A79E82C5F261DDABEA97F27ABD7089FCD806617EBF3F1A8DCECDCD9DC3E6033D0F67FD56ED4C4F4FD36834A552091D6195808B43F8FAD34F3F7DEDB5D7CA466D9024
310
79E576AD6F24F55C535632868E8E8E8AC5E2CF3EFB0CBEBD7DFB76D97EE8000018139A4AA5140AC56373737D3E5F341ABDCE3DB36046A8CBE5AAD2F2756B6BEB85175E80AFED767B2412818D738AB0D96C2832A211D45300D3D3D365DB37884422BFDFCFE170E0BD90CFE7DBED76AAC43FA056AB5D2ED7EAEA6A696BA0527C
310
3E5F2C16BBCEB3BF804C265B5E5EDEDADA2A9B4A4FA7D3A1E14BAFD74BA5529224CBFAC59007A041D4D9AA50A997AD4824BA75EBD6DFFEF637F85626939DAEFAA4D7EB1F3D7A24954A6532592D0FFA269AFD101CC7575656C6C6C63EF9E49342A34800C05FFEF29742F198AFBEFA6A6060A0ACF8D3E934AA11D420EA2C80C9
310
C9498BC5527A7C747434180CE6F379B801181919F1FBFDD96CD6E7F32995CAEEEE6E1A8D56A3E5DBE7F3C5E3F1269AFD05D86C3687C36130189F7CF2493C1E4F26936C361BA625F87C3E3E9F1F8944CA16A646F69FC651673F409526561C0EE7F9E79FBF77EFDE4F7EF21300C0FCFCFC7FFFFB5F9224BFFFFDEF631886E3B8
310
C3E1786CFCE3D1D151229168D23049388FD96C766F6FEFBD7BF72291C86BAFBD063FBA77EFDE2BAFBC5229F4A3F6D69488B3527F47185CEB97965B9B9999D9D8D8805DA0ED767B5B5BDBDDBB77A3D1E8CECECECCCC8C482482CEE02A9EE0A69EFD2727270441C050B6ADADAD975F7E99A2A8EDED6D269399CD66A552A9D3E9
310
2C5BEDC760305CC3E21ADF18EAEF599C999981C6ECE2BF84E3636363C3C3C39F7EFAA94C2693C964388EF378BC5C2E07033F65325915174153CF7E0000D43900C0EFF70B04023A9DDED6D6B6B8B8383030A0D1680000955C1997D32DA165A9BF00701C178944457508215D5D5D0303034F3DF5D4E92DDD8D1B3760E83F8D46
310
EBEBEB73B95CA55F743A9DC964B27967BFC9642AE431DAEDF6D31B988E8E8EA79F7E7A6262A2AC93ABC86B8EA83B0D892D118BC54EA7B3EC471289047AC40A601836313101B7CEFDFDFDE9743A180C9E3EC166B3B5B5B5D5621BBD9EECEFEFF3783CE8DCD5683445211BF97CDEED7657CA8DACD4811C512F1A155CD5DBDBEB
310
F178CA7E549AED25140AB3D96CA17190D7EB85AFBD5EAFD56AE5F178CD5BF935180C269349D8F2CCE3F1080482A24D8E5AAD2ECD1A85D86CB666347635178D12C0C8C848D9C50C0080C3E130994CBFDF7FFA20DC05C2CDC0CCCC8CDD6EB7D96C66B319C3B06B58BCBF4642A190DFEF8796FE68341A0A858A6EE77B7B7B8383
310
8395521F0381C0756BDBF1CDA381E1B585854D29E3E3E30E87A3C86526954ACD66732E97C3306C6464E4DD77DFA528AA79C3E2D3E9F4DEDE5E61F6BB5CAE22634E26930906839596F86AB5FA5A1596FCA6D240010885C29393934A313052A9B4A89A10411072B97C6B6B0B00F0873FFCE1E6CD9B388E37E9ED3F9D4E1B8DC6
310
858505E81A379BCD853A4805AAB8B7C2E1308BC56A5EF137130DCD372349B24A16DFF1F1B1D96C2E3A188FC7EFDFBFFFE8D123F875B55A1D0A851A31B6C3C343A7D3D9882B070281ADAD2D9224E1DBB5B5B5C2EB022693A9CAEF42A98F974663338C300C1B1A1AAAB419E8ECEC64B3D94545E0582C16AC1404BF3E3F3FEFF5
310
7A03814043C759479C4E67301884F7FE5C2EB7BEBE3E3B3B5B14E0B4BFBFCFE572F97C7ED92BD8EDF6E635F8361D0D4FB1EBEFEF8F442295720006060692C96491DDB3BBBB7B727252A954C2FD8044220987C34DD12DC26030B4B5B54D4E4E02004E4E4E341ACDF2F272519790FDFD7D1CC72BE5FAC4E3F1783C5EC756F588
310
EA5C468E697517EFD4D494D3E94CA7D3A70F3299CCD5D5559D4E0723A8272626180C864AA5BA847ACEE723168B9DAE6E7D7272E276BB9796968AB27843A1502291A834FB4992341A8D28EEED32B9A4AECB7EBF3F180C9ECE043F0D45511A8DA6B480334992269369606000AE16F2F9BC5AADEEE9E9A94B7F79B7DB9DCBE576
310
7D2F900000018B49444154CED123AC088AA2767777B3D96C61E21E1E1E462291D25D6F281472381C95ACFE00808D8D0DB95C7EA662D1880B72495506BABBBBB3D96CA5A53C86610B0B0B0683A1682D84E3B84C26F37ABD30838C2088E5E5651CC7954A65D92EEA974F28145A5F5FEFE9E929CCFECDCD4D92244B677F3018F4
310
FBFD5566BFD3E91C181840B3FF92B9A42700C46AB5F2F9FC4A964D8AA2AC566B67676769EA53381C369BCDD3D3D3F0514051D4975F7EC962B16432D9B9F3C42FF80448269346A391C3E14C4D4DC13D6E2010B0D96C8B8B8BA5A1CB2E972B954A55699C7C7C7C1C0A854ADB6F221ACDA50A0000A0D56AA7A6A6AACC5AD84BA2
310
6CFA9FD96C2608A2304B72B99CD1684CA552737373E728A7756E01A4D3699D4ED7D6D62693C9E00D3B9FCF1B8D462693597606BB5C2E1A8D06A321CA5228E778D691202ECE650B0000A0542AABB7B9B5582C994CA66C6D9CE3E363ABD57ABA931249923A9DEEF8F8582E979F296BF61C02080683B0AEFFDCDC5C6177EBF57A
310
0F0E0E666666CA96AD351A8D7C3E1FCDFE6BCBFF0318123D4A2C2FEAF60000000049454E44AE426082
  0
ENDSEC
  0
EOF
