  0
SECTION
  2
HEADER
  9
$ACADVER
  1
AC1015
  9
$ACADMAINTVER
 70
     6
  9
$DWGCODEPAGE
  3
ANSI_932
  9
$INSBASE
 10
0.0
 20
0.0
 30
0.0
  9
$EXTMIN
 10
0.0
 20
0.0
 30
0.0
  9
$EXTMAX
 10
1260.0
 20
891.0
 30
0.0
  9
$LIMMIN
 10
0.0
 20
0.0
  9
$LIMMAX
 10
1260.0
 20
891.0
  9
$ORTHOMODE
 70
     0
  9
$REGENMODE
 70
     1
  9
$FILLMODE
 70
     1
  9
$QTEXTMODE
 70
     0
  9
$MIRRTEXT
 70
     1
  9
$LTSCALE
 40
3.0
  9
$ATTMODE
 70
     1
  9
$TEXTSIZE
 40
10.5
  9
$TRACEWID
 40
1.0
  9
$TEXTSTYLE
  7
STANDARD
  9
$CLAYER
  8
0
  9
$CELTYPE
  6
ByLayer
  9
$CECOLOR
 62
   256
  9
$CELTSCALE
 40
1.0
  9
$DISPSILH
 70
     0
  9
$DIMSCALE
 40
1.0
  9
$DIMASZ
 40
9.906
  9
$DIMEXO
 40
3.0
  9
$DIMDLI
 40
3.75
  9
$DIMRND
 40
0.0
  9
$DIMDLE
 40
0.0
  9
$DIMEXE
 40
3.0
  9
$DIMTP
 40
0.0
  9
$DIMTM
 40
0.0
  9
$DIMTXT
 40
10.5
  9
$DIMCEN
 40
2.5
  9
$DIMTSZ
 40
0.0
  9
$DIMTOL
 70
     0
  9
$DIMLIM
 70
     0
  9
$DIMTIH
 70
     1
  9
$DIMTOH
 70
     1
  9
$DIMSE1
 70
     0
  9
$DIMSE2
 70
     0
  9
$DIMTAD
 70
     1
  9
$DIMZIN
 70
     1
  9
$DIMBLK
  1

  9
$DIMASO
 70
     1
  9
$DIMSHO
 70
     1
  9
$DIMPOST
  1

  9
$DIMAPOST
  1

  9
$DIMALT
 70
     0
  9
$DIMALTD
 70
     3
  9
$DIMALTF
 40
0.0393700787
  9
$DIMLFAC
 40
1.0
  9
$DIMTOFL
 70
     1
  9
$DIMTVP
 40
0.0
  9
$DIMTIX
 70
     0
  9
$DIMSOXD
 70
     0
  9
$DIMSAH
 70
     0
  9
$DIMBLK1
  1

  9
$DIMBLK2
  1

  9
$DIMSTYLE
  2
ISO-25
  9
$DIMCLRD
 70
     0
  9
$DIMCLRE
 70
     0
  9
$DIMCLRT
 70
     0
  9
$DIMTFAC
 40
1.0
  9
$DIMGAP
 40
4.572
  9
$DIMJUST
 70
     0
  9
$DIMSD1
 70
     0
  9
$DIMSD2
 70
     0
  9
$DIMTOLJ
 70
     0
  9
$DIMTZIN
 70
     1
  9
$DIMALTZ
 70
     0
  9
$DIMALTTZ
 70
     0
  9
$DIMUPT
 70
     0
  9
$DIMDEC
 70
     2
  9
$DIMTDEC
 70
     2
  9
$DIMALTU
 70
     2
  9
$DIMALTTD
 70
     3
  9
$DIMTXSTY
  7
STANDARD
  9
$DIMAUNIT
 70
     0
  9
$DIMADEC
 70
     2
  9
$DIMALTRND
 40
0.0
  9
$DIMAZIN
 70
     0
  9
$DIMDSEP
 70
    44
  9
$DIMATFIT
 70
     3
  9
$DIMFRAC
 70
     0
  9
$DIMLDRBLK
  1

  9
$DIMLUNIT
 70
     2
  9
$DIMLWD
 70
    -2
  9
$DIMLWE
 70
    -2
  9
$DIMTMOVE
 70
     0
  9
$LUNITS
 70
     2
  9
$LUPREC
 70
     2
  9
$SKETCHINC
 40
1.0
  9
$FILLETRAD
 40
10.0
  9
$AUNITS
 70
     0
  9
$AUPREC
 70
     2
  9
$MENU
  1
.
  9
$ELEVATION
 40
0.0
  9
$PELEVATION
 40
0.0
  9
$THICKNESS
 40
0.0
  9
$LIMCHECK
 70
     0
  9
$CHAMFERA
 40
0.0
  9
$CHAMFERB
 40
0.0
  9
$CHAMFERC
 40
0.0
  9
$CHAMFERD
 40
0.0
  9
$SKPOLY
 70
     0
  9
$TDCREATE
 40
2458754.415739225
  9
$TDUCREATE
 40
2458754.040739225
  9
$TDUPDATE
 40
2458863.758167651
  9
$TDUUPDATE
 40
2458863.383167651
  9
$TDINDWG
 40
0.0020776852
  9
$TDUSRTIMER
 40
0.0018815972
  9
$USRTIMER
 70
     1
  9
$ANGBASE
 50
0.0
  9
$ANGDIR
 70
     0
  9
$PDMODE
 70
     0
  9
$PDSIZE
 40
-1.0
  9
$PLINEWID
 40
0.0
  9
$SPLFRAME
 70
     0
  9
$SPLINETYPE
 70
     6
  9
$SPLINESEGS
 70
     8
  9
$HANDSEED
  5
4F1
  9
$SURFTAB1
 70
     6
  9
$SURFTAB2
 70
     6
  9
$SURFTYPE
 70
     6
  9
$SURFU
 70
     6
  9
$SURFV
 70
     6
  9
$UCSBASE
  2

  9
$UCSNAME
  2

  9
$UCSORG
 10
0.0
 20
0.0
 30
0.0
  9
$UCSXDIR
 10
1.0
 20
0.0
 30
0.0
  9
$UCSYDIR
 10
0.0
 20
1.0
 30
0.0
  9
$UCSORTHOREF
  2

  9
$UCSORTHOVIEW
 70
     0
  9
$UCSORGTOP
 10
0.0
 20
0.0
 30
0.0
  9
$UCSORGBOTTOM
 10
0.0
 20
0.0
 30
0.0
  9
$UCSORGLEFT
 10
0.0
 20
0.0
 30
0.0
  9
$UCSORGRIGHT
 10
0.0
 20
0.0
 30
0.0
  9
$UCSORGFRONT
 10
0.0
 20
0.0
 30
0.0
  9
$UCSORGBACK
 10
0.0
 20
0.0
 30
0.0
  9
$PUCSBASE
  2

  9
$PUCSNAME
  2

  9
$PUCSORG
 10
0.0
 20
0.0
 30
0.0
  9
$PUCSXDIR
 10
1.0
 20
0.0
 30
0.0
  9
$PUCSYDIR
 10
0.0
 20
1.0
 30
0.0
  9
$PUCSORTHOREF
  2

  9
$PUCSORTHOVIEW
 70
     0
  9
$PUCSORGTOP
 10
0.0
 20
0.0
 30
0.0
  9
$PUCSORGBOTTOM
 10
0.0
 20
0.0
 30
0.0
  9
$PUCSORGLEFT
 10
0.0
 20
0.0
 30
0.0
  9
$PUCSORGRIGHT
 10
0.0
 20
0.0
 30
0.0
  9
$PUCSORGFRONT
 10
0.0
 20
0.0
 30
0.0
  9
$PUCSORGBACK
 10
0.0
 20
0.0
 30
0.0
  9
$USERI1
 70
     0
  9
$USERI2
 70
     0
  9
$USERI3
 70
     0
  9
$USERI4
 70
     0
  9
$USERI5
 70
     0
  9
$USERR1
 40
0.0
  9
$USERR2
 40
0.0
  9
$USERR3
 40
0.0
  9
$USERR4
 40
0.0
  9
$USERR5
 40
0.0
  9
$WORLDVIEW
 70
     1
  9
$SHADEDGE
 70
     3
  9
$SHADEDIF
 70
    70
  9
$TILEMODE
 70
     1
  9
$MAXACTVP
 70
    64
  9
$PINSBASE
 10
0.0
 20
0.0
 30
0.0
  9
$PLIMCHECK
 70
     0
  9
$PEXTMIN
 10
1.000000000000000E+20
 20
1.000000000000000E+20
 30
1.000000000000000E+20
  9
$PEXTMAX
 10
-1.000000000000000E+20
 20
-1.000000000000000E+20
 30
-1.000000000000000E+20
  9
$PLIMMIN
 10
0.0
 20
0.0
  9
$PLIMMAX
 10
0.0
 20
0.0
  9
$UNITMODE
 70
     0
  9
$VISRETAIN
 70
     1
  9
$PLINEGEN
 70
     0
  9
$PSLTSCALE
 70
     1
  9
$TREEDEPTH
 70
  3020
  9
$CMLSTYLE
  2
Standard
  9
$CMLJUST
 70
     0
  9
$CMLSCALE
 40
20.0
  9
$PROXYGRAPHICS
 70
     1
  9
$MEASUREMENT
 70
     1
  9
$CELWEIGHT
370
    -1
  9
$ENDCAPS
280
     0
  9
$JOINSTYLE
280
     0
  9
$LWDISPLAY
290
     1
  9
$INSUNITS
 70
     4
  9
$HYPERLINKBASE
  1

  9
$STYLESHEET
  1

  9
$XEDIT
290
     1
  9
$CEPSNTYPE
380
     0
  9
$PSTYLEMODE
290
     1
  9
$FINGERPRINTGUID
  2
{AF660D22-7F3B-478D-BE54-A68AD8E8ABC9}
  9
$VERSIONGUID
  2
{FAEB1C32-E019-11D5-929B-00C0DF256EC4}
  9
$EXTNAMES
290
     1
  9
$PSVPSCALE
 40
0.0
  9
$OLESTARTUP
290
     0
  0
ENDSEC
  0
SECTION
  2
CLASSES
  0
CLASS
  1
ACDBDICTIONARYWDFLT
  2
AcDbDictionaryWithDefault
  3
ObjectDBX Classes
 90
        0
280
     0
281
     0
  0
CLASS
  1
VISUALSTYLE
  2
AcDbVisualStyle
  3
ObjectDBX Classes
 90
     4095
280
     0
281
     0
  0
CLASS
  1
MATERIAL
  2
AcDbMaterial
  3
ObjectDBX Classes
 90
     1153
280
     0
281
     0
  0
CLASS
  1
SCALE
  2
AcDbScale
  3
ObjectDBX Classes
 90
     1153
280
     0
281
     0
  0
CLASS
  1
TABLESTYLE
  2
AcDbTableStyle
  3
ObjectDBX Classes
 90
     4095
280
     0
281
     0
  0
CLASS
  1
MLEADERSTYLE
  2
AcDbMLeaderStyle
  3
ACDB_MLEADERSTYLE_CLASS
 90
     4095
280
     0
281
     0
  0
CLASS
  1
SUN
  2
AcDbSun
  3
SCENEOE
 90
     1153
280
     0
281
     0
  0
CLASS
  1
ACDBPLACEHOLDER
  2
AcDbPlaceHolder
  3
ObjectDBX Classes
 90
        0
280
     0
281
     0
  0
CLASS
  1
LAYOUT
  2
AcDbLayout
  3
ObjectDBX Classes
 90
        0
280
     0
281
     0
  0
CLASS
  1
DICTIONARYVAR
  2
AcDbDictionaryVar
  3
ObjectDBX Classes
 90
        0
280
     0
281
     0
  0
ENDSEC
  0
SECTION
  2
TABLES
  0
TABLE
  2
VPORT
  5
8
330
0
100
AcDbSymbolTable
 70
     1
  0
VPORT
  5
29
330
8
100
AcDbSymbolTableRecord
100
AcDbViewportTableRecord
  2
*Active
 70
     0
 10
0.0
 20
0.0
 11
1.0
 21
1.0
 12
-76.87124877972371
 22
475.6466155202672
 13
0.0
 23
0.0
 14
10.0
 24
10.0
 15
10.0
 25
10.0
 16
0.0
 26
0.0
 36
1.0
 17
0.0
 27
0.0
 37
0.0
 40
1786.542237344986
 41
1.960969044414536
 42
50.0
 43
0.0
 44
0.0
 50
0.0
 51
0.0
 71
    16
 72
  2000
 73
     1
 74
     3
 75
     0
 76
     0
 77
     0
 78
     0
281
     0
 65
     1
110
0.0
120
0.0
130
0.0
111
1.0
121
0.0
131
0.0
112
0.0
122
1.0
132
0.0
 79
     0
146
0.0
  0
ENDTAB
  0
TABLE
  2
LTYPE
  5
5
330
0
100
AcDbSymbolTable
 70
     8
  0
LTYPE
  5
14
330
5
100
AcDbSymbolTableRecord
100
AcDbLinetypeTableRecord
  2
ByBlock
 70
     0
  3

 72
    65
 73
     0
 40
0.0
  0
LTYPE
  5
15
330
5
100
AcDbSymbolTableRecord
100
AcDbLinetypeTableRecord
  2
ByLayer
 70
     0
  3

 72
    65
 73
     0
 40
0.0
  0
LTYPE
  5
16
330
5
100
AcDbSymbolTableRecord
100
AcDbLinetypeTableRecord
  2
Continuous
 70
     0
  3
Solid line
 72
    65
 73
     0
 40
0.0
  0
LTYPE
  5
6E
330
5
100
AcDbSymbolTableRecord
100
AcDbLinetypeTableRecord
  2
SLD-実線
 70
     0
  3
SolidWorks Line Style
 72
    65
 73
     0
 40
0.0
  0
LTYPE
  5
6F
330
5
100
AcDbSymbolTableRecord
100
AcDbLinetypeTableRecord
  2
SLD-破線
 70
     0
  3
SolidWorks Line Style
 72
    65
 73
     2
 40
1.905
 49
1.27
 74
     0
 49
-0.635
 74
     0
  0
LTYPE
  5
70
330
5
100
AcDbSymbolTableRecord
100
AcDbLinetypeTableRecord
  2
SLD-2点鎖線
 70
     0
  3
SolidWorks Line Style
 72
    65
 73
     6
 40
12.7
 49
6.35
 74
     0
 49
-1.27
 74
     0
 49
1.27
 74
     0
 49
-1.27
 74
     0
 49
1.27
 74
     0
 49
-1.27
 74
     0
  0
LTYPE
  5
71
330
5
100
AcDbSymbolTableRecord
100
AcDbLinetypeTableRecord
  2
SLD-鎖線
 70
     0
  3
SolidWorks Line Style
 72
    65
 73
     4
 40
10.16
 49
6.35
 74
     0
 49
-1.27
 74
     0
 49
1.27
 74
     0
 49
-1.27
 74
     0
  0
LTYPE
  5
72
330
5
100
AcDbSymbolTableRecord
100
AcDbLinetypeTableRecord
  2
SLD-1点鎖線(中心線)
 70
     0
  3
SolidWorks Line Style
 72
    65
 73
     4
 40
34.29
 49
30.48
 74
     0
 49
-1.27
 74
     0
 49
1.27
 74
     0
 49
-1.27
 74
     0
  0
LTYPE
  5
73
330
5
100
AcDbSymbolTableRecord
100
AcDbLinetypeTableRecord
  2
SLD-点線
 70
     0
  3
SolidWorks Line Style
 72
    65
 73
     2
 40
0.635
 49
0.0
 74
     0
 49
-0.635
 74
     0
  0
LTYPE
  5
74
330
5
100
AcDbSymbolTableRecord
100
AcDbLinetypeTableRecord
  2
SLD-細-太鎖線(切断面)
 70
     0
  3
SolidWorks Line Style
 72
    65
 73
     4
 40
10.16
 49
6.35
 74
     0
 49
-1.27
 74
     0
 49
1.27
 74
     0
 49
-1.27
 74
     0
  0
ENDTAB
  0
TABLE
  2
LAYER
  5
2
330
0
100
AcDbSymbolTable
 70
     4
  0
LAYER
  5
10
330
2
100
AcDbSymbolTableRecord
100
AcDbLayerTableRecord
  2
0
 70
     0
 62
     7
  6
Continuous
370
    -3
390
F
  0
LAYER
  5
75
330
2
100
AcDbSymbolTableRecord
100
AcDbLayerTableRecord
  2
レイヤー_1
 70
     0
 62
   179
  6
SLD-実線
370
    -3
390
F
  0
LAYER
  5
76
330
2
100
AcDbSymbolTableRecord
100
AcDbLayerTableRecord
  2
FORMAT
 70
     0
 62
     7
  6
SLD-実線
370
    -3
390
F
  0
LAYER
  5
4B7
330
2
100
AcDbSymbolTableRecord
100
AcDbLayerTableRecord
  2
Defpoints
 70
     0
 62
     7
  6
Continuous
290
     0
370
    -3
390
F
  0
ENDTAB
  0
TABLE
  2
STYLE
  5
3
330
0
100
AcDbSymbolTable
 70
     5
  0
STYLE
  5
11
330
3
100
AcDbSymbolTableRecord
100
AcDbTextStyleTableRecord
  2
STANDARD
 70
     0
 40
0.0
 41
1.0
 50
0.0
 71
     0
 42
10.5
  3
MSGOTHIC.TTC
  4

1001
ACAD
1000
ＭＳ Ｐゴシック
1071
    32818
  0
STYLE
  5
201
330
3
100
AcDbSymbolTableRecord
100
AcDbTextStyleTableRecord
  2
SLDTEXTSTYLE0
 70
     0
 40
0.0
 41
1.0
 50
0.0
 71
     0
 42
10.5
  3
MSGOTHIC.TTC
  4

1001
ACAD
1000
ＭＳ Ｐゴシック
1071
      306
  0
STYLE
  5
20A
330
3
100
AcDbSymbolTableRecord
100
AcDbTextStyleTableRecord
  2
SLDTEXTSTYLE1
 70
     0
 40
0.0
 41
0.913
 50
0.0
 71
     0
 42
10.5
  3
GOTHIC.TTF
  4

1001
ACAD
1000
Century Gothic
1071
      290
  0
STYLE
  5
227
330
3
100
AcDbSymbolTableRecord
100
AcDbTextStyleTableRecord
  2
SLDTEXTSTYLE2
 70
     0
 40
0.0
 41
0.948
 50
0.0
 71
     0
 42
10.5
  3
ARIAL.TTF
  4

1001
ACAD
1000
Arial
1071
      290
  0
STYLE
  5
229
330
3
100
AcDbSymbolTableRecord
100
AcDbTextStyleTableRecord
  2
SLDTEXTSTYLE3
 70
     0
 40
0.0
 41
1.0
 50
0.0
 71
     0
 42
10.5
  3
MSGOTHIC.TTC
  4
bigfont
1001
ACAD
1000
ＭＳ Ｐゴシック
1071
      306
  0
ENDTAB
  0
TABLE
  2
VIEW
  5
6
330
0
100
AcDbSymbolTable
 70
     0
  0
ENDTAB
  0
TABLE
  2
UCS
  5
7
330
0
100
AcDbSymbolTable
 70
     0
  0
ENDTAB
  0
TABLE
  2
APPID
  5
9
330
0
100
AcDbSymbolTable
 70
     1
  0
APPID
  5
12
330
9
100
AcDbSymbolTableRecord
100
AcDbRegAppTableRecord
  2
ACAD
 70
     0
  0
ENDTAB
  0
TABLE
  2
DIMSTYLE
  5
A
330
0
100
AcDbSymbolTable
 70
     6
100
AcDbDimStyleTable
  0
DIMSTYLE
105
27
330
A
100
AcDbSymbolTableRecord
100
AcDbDimStyleTableRecord
  2
ISO-25
 70
     0
 41
2.5
 42
0.625
 43
3.75
 44
1.25
 73
     0
 74
     0
 77
     1
 78
     8
140
2.5
141
2.5
143
0.0393700787
147
0.625
171
     3
172
     1
178
     0
271
     2
272
     2
274
     3
278
    44
283
     0
284
     8
340
11
  0
DIMSTYLE
105
202
330
A
100
AcDbSymbolTableRecord
100
AcDbDimStyleTableRecord
  2
SLDDIMSTYLE0
 70
     0
 41
9.906
 44
0.0
 45
0.000000001
 73
     0
 74
     0
 77
     3
 78
    12
 79
     3
140
10.5
147
2.625
172
     1
173
     1
178
     0
271
     2
272
     2
276
     2
284
    12
289
     0
340
201
341
203
343
203
344
203
  0
DIMSTYLE
105
305
102
{ACAD_REACTORS
330
304
330
450
330
45A
330
464
102
}
330
A
100
AcDbSymbolTableRecord
100
AcDbDimStyleTableRecord
  2
SLDDIMSTYLE1
 70
     0
 41
9.906
 44
0.0
 45
0.000000001
 73
     0
 74
     0
 77
     3
 78
    12
 79
     3
140
10.5
147
2.625
173
     1
178
     0
271
     0
272
     0
276
     2
284
    12
340
201
341
306
343
306
344
306
  0
DIMSTYLE
105
31C
330
A
100
AcDbSymbolTableRecord
100
AcDbDimStyleTableRecord
  2
SLDDIMSTYLE2
 70
     0
 41
9.0
 44
0.0
 45
0.000000001
146
9.0
147
0.0
173
     1
178
     0
271
     0
272
     0
276
     2
340
11
341
31D
343
31D
344
31D
  0
DIMSTYLE
105
32C
330
A
100
AcDbSymbolTableRecord
100
AcDbDimStyleTableRecord
  2
SLDDIMSTYLE3
 70
     0
 41
9.906
 44
0.0
 45
0.000000001
146
9.906
147
0.0
173
     1
178
     0
271
     0
272
     0
276
     2
340
11
341
306
343
306
344
306
  0
DIMSTYLE
105
443
102
{ACAD_REACTORS
330
442
102
}
330
A
100
AcDbSymbolTableRecord
100
AcDbDimStyleTableRecord
  2
SLDDIMSTYLE4
 70
     0
 41
9.906
 44
0.0
 45
0.000000001
 73
     0
 74
     0
 77
     3
 78
    12
 79
     3
140
10.5
147
2.625
172
     1
173
     1
178
     0
271
     0
272
     0
276
     2
284
    12
289
     0
340
201
341
306
343
306
344
306
  0
ENDTAB
  0
TABLE
  2
BLOCK_RECORD
  5
1
330
0
100
AcDbSymbolTable
 70
    15
  0
BLOCK_RECORD
  5
1F
330
1
100
AcDbSymbolTableRecord
100
AcDbBlockTableRecord
  2
*Model_Space
340
22
  0
BLOCK_RECORD
  5
1B
330
1
100
AcDbSymbolTableRecord
100
AcDbBlockTableRecord
  2
*Paper_Space
340
1E
  0
BLOCK_RECORD
  5
23
330
1
100
AcDbSymbolTableRecord
100
AcDbBlockTableRecord
  2
*Paper_Space0
340
26
  0
BLOCK_RECORD
  5
203
330
1
100
AcDbSymbolTableRecord
100
AcDbBlockTableRecord
  2
_NONE
340
0
  0
BLOCK_RECORD
  5
206
330
1
100
AcDbSymbolTableRecord
100
AcDbBlockTableRecord
  2
_D
340
0
  0
BLOCK_RECORD
  5
306
330
1
100
AcDbSymbolTableRecord
100
AcDbBlockTableRecord
  2
_OPEN30
340
0
102
{BLKREFS
331
312
331
313
331
44D
331
44E
331
457
331
458
331
461
331
462
331
46B
331
46C
102
}
  0
BLOCK_RECORD
  5
30C
330
1
100
AcDbSymbolTableRecord
100
AcDbBlockTableRecord
  2
_D_1
340
0
  0
BLOCK_RECORD
  5
316
330
1
100
AcDbSymbolTableRecord
100
AcDbBlockTableRecord
  2
SW_NOTE_0
340
0
102
{BLKREFS
331
31B
102
}
  0
BLOCK_RECORD
  5
31D
330
1
100
AcDbSymbolTableRecord
100
AcDbBlockTableRecord
  2
_DOT
340
0
  0
BLOCK_RECORD
  5
326
330
1
100
AcDbSymbolTableRecord
100
AcDbBlockTableRecord
  2
SW_NOTE_1
340
0
102
{BLKREFS
331
32B
102
}
  0
BLOCK_RECORD
  5
32E
330
1
100
AcDbSymbolTableRecord
100
AcDbBlockTableRecord
  2
SW_CENTERMARKSYMBOL_0
340
0
102
{BLKREFS
331
339
102
}
  0
BLOCK_RECORD
  5
444
330
1
100
AcDbSymbolTableRecord
100
AcDbBlockTableRecord
  2
_D_2
340
0
  0
BLOCK_RECORD
  5
451
330
1
100
AcDbSymbolTableRecord
100
AcDbBlockTableRecord
  2
_D_3
340
0
  0
BLOCK_RECORD
  5
45B
330
1
100
AcDbSymbolTableRecord
100
AcDbBlockTableRecord
  2
_D_4
340
0
  0
BLOCK_RECORD
  5
465
330
1
100
AcDbSymbolTableRecord
100
AcDbBlockTableRecord
  2
_D_5
340
0
  0
BLOCK_RECORD
  5
46E
330
1
100
AcDbSymbolTableRecord
100
AcDbBlockTableRecord
  2
SW_NOTE_2
340
0
102
{BLKREFS
331
473
102
}
  0
BLOCK_RECORD
  5
475
330
1
100
AcDbSymbolTableRecord
100
AcDbBlockTableRecord
  2
SW_NOTE_3
340
0
102
{BLKREFS
331
47A
102
}
  0
ENDTAB
  0
ENDSEC
  0
SECTION
  2
BLOCKS
  0
BLOCK
  5
20
330
1F
100
AcDbEntity
  8
0
100
AcDbBlockBegin
  2
*Model_Space
 70
     0
 10
0.0
 20
0.0
 30
0.0
  3
*Model_Space
  1

  0
ENDBLK
  5
21
330
1F
100
AcDbEntity
  8
0
100
AcDbBlockEnd
  0
BLOCK
  5
1C
330
1B
100
AcDbEntity
 67
     1
  8
0
100
AcDbBlockBegin
  2
*Paper_Space
 70
     0
 10
0.0
 20
0.0
 30
0.0
  3
*Paper_Space
  1

  0
ENDBLK
  5
1D
330
1B
100
AcDbEntity
 67
     1
  8
0
100
AcDbBlockEnd
  0
BLOCK
  5
24
330
23
100
AcDbEntity
  8
0
100
AcDbBlockBegin
  2
*Paper_Space0
 70
     0
 10
0.0
 20
0.0
 30
0.0
  3
*Paper_Space0
  1

  0
ENDBLK
  5
25
330
23
100
AcDbEntity
  8
0
100
AcDbBlockEnd
  0
BLOCK
  5
204
330
203
100
AcDbEntity
  8
0
100
AcDbBlockBegin
  2
_NONE
 70
     0
 10
0.0
 20
0.0
 30
0.0
  3
_NONE
  1

  0
ENDBLK
  5
205
330
203
100
AcDbEntity
  8
0
100
AcDbBlockEnd
  0
BLOCK
  5
207
330
206
100
AcDbEntity
  8
0
100
AcDbBlockBegin
  2
_D
 70
     0
 10
0.0
 20
0.0
 30
0.0
  3
_D
  1

  0
LINE
  5
209
330
206
100
AcDbEntity
  8
0
  6
SLD-実線
 62
     0
370
    -2
100
AcDbLine
 10
-0.0625
 20
0.0
 30
0.0
 11
-20.63792246690005
 21
0.0
 31
0.0
  0
LINE
  5
4B8
330
206
100
AcDbEntity
  8
0
  6
SLD-実線
 62
     0
370
    -2
100
AcDbLine
 10
-0.0625
 20
0.0
 30
0.0
 11
-20.63792246690005
 21
0.0
 31
0.0
  0
LINE
  5
4B9
330
206
100
AcDbEntity
  8
0
  6
SLD-実線
 62
     0
370
    -2
100
AcDbLine
 10
-20.63792246690005
 20
0.0
 30
0.0
 11
-20.6379224669
 21
820.322916504
 31
0.0
  0
LINE
  5
4BA
330
206
100
AcDbEntity
  8
0
  6
SLD-実線
 62
     0
370
    -2
100
AcDbLine
 10
-20.63792246690005
 20
0.0
 30
0.0
 11
-20.63792246690005
 21
0.0
 31
0.0
  0
MTEXT
  5
4BB
330
206
100
AcDbEntity
  8
0
 62
     0
370
    18
100
AcDbMText
 10
-33.8154224669
 20
811.135416504
 30
0.0
 40
10.5
 41
0.0
 71
     1
 72
     1
  1
\A1;0
  7
SLDTEXTSTYLE0
 11
6.123233995736766E-17
 21
1.0
 31
0.0
 73
     1
 44
1.0
  0
POINT
  5
4BC
330
206
100
AcDbEntity
  8
Defpoints
 62
     0
100
AcDbPoint
 10
0.0
 20
0.0
 30
0.0
  0
POINT
  5
4BD
330
206
100
AcDbEntity
  8
Defpoints
 62
     0
100
AcDbPoint
 10
0.0
 20
0.0
 30
0.0
  0
POINT
  5
4BE
330
206
100
AcDbEntity
  8
Defpoints
 62
     0
100
AcDbPoint
 10
-20.6379224669
 20
0.0000000000000013
 30
0.0
  0
ENDBLK
  5
208
330
206
100
AcDbEntity
  8
0
100
AcDbBlockEnd
  0
BLOCK
  5
307
330
306
100
AcDbEntity
  8
0
100
AcDbBlockBegin
  2
_OPEN30
 70
     0
 10
0.0
 20
0.0
 30
0.0
  3
_OPEN30
  1

  0
LINE
  5
309
330
306
100
AcDbEntity
  8
0
  6
ByBlock
 62
     0
370
    -2
100
AcDbLine
 10
-1.0
 20
0.267949
 30
0.0
 11
0.0
 21
0.0
 31
0.0
  0
LINE
  5
30A
330
306
100
AcDbEntity
  8
0
  6
ByBlock
 62
     0
370
    -2
100
AcDbLine
 10
0.0
 20
0.0
 30
0.0
 11
-1.0
 21
-0.267949
 31
0.0
  0
LINE
  5
30B
330
306
100
AcDbEntity
  8
0
  6
ByBlock
 62
     0
370
    -2
100
AcDbLine
 10
0.0
 20
0.0
 30
0.0
 11
-1.0
 21
0.0
 31
0.0
  0
ENDBLK
  5
308
330
306
100
AcDbEntity
  8
0
100
AcDbBlockEnd
  0
BLOCK
  5
30D
330
30C
100
AcDbEntity
  8
0
100
AcDbBlockBegin
  2
_D_1
 70
     0
 10
0.0
 20
0.0
 30
0.0
  3
_D_1
  1

  0
LINE
  5
30F
330
30C
100
AcDbEntity
  8
レイヤー_1
 62
     0
370
    -2
100
AcDbLine
 10
770.396061164
 20
555.9618479816
 30
0.0
 11
770.396061164
 21
628.8993479816
 31
0.0
  0
LINE
  5
310
330
30C
100
AcDbEntity
  8
レイヤー_1
 62
     0
370
    -2
100
AcDbLine
 10
856.396061164
 20
555.9618479816
 30
0.0
 11
856.396061164
 21
628.8993479816
 31
0.0
  0
LINE
  5
311
330
30C
100
AcDbEntity
  8
レイヤー_1
 62
     0
370
    -2
100
AcDbLine
 10
780.302061164
 20
628.8993479816
 30
0.0
 11
846.490061164
 21
628.8993479816
 31
0.0
  0
INSERT
  5
312
330
30C
100
AcDbEntity
  8
レイヤー_1
 62
     0
370
    -2
100
AcDbBlockReference
  2
_OPEN30
 10
770.396061164
 20
628.8993479816
 30
0.0
 41
9.906
 42
9.906
 43
9.906
 50
180.0
  0
INSERT
  5
313
330
30C
100
AcDbEntity
  8
レイヤー_1
 62
     0
370
    -2
100
AcDbBlockReference
  2
_OPEN30
 10
856.396061164
 20
628.8993479816
 30
0.0
 41
9.906
 42
9.906
 43
9.906
  0
MTEXT
  5
314
330
30C
100
AcDbEntity
  8
レイヤー_1
 62
     0
100
AcDbMText
 10
813.396061164
 20
642.0243479816
 30
0.0
 40
10.5
 41
0.0
 71
     2
 72
     1
  1
\A1;%%c86
  7
SLDTEXTSTYLE0
 73
     1
 44
1.0
  0
POINT
  5
315
330
30C
100
AcDbEntity
  8
Defpoints
 62
     0
100
AcDbPoint
 10
770.396061164
 20
555.8993479816
 30
0.0
  0
POINT
  5
4BF
330
30C
100
AcDbEntity
  8
Defpoints
 62
     0
100
AcDbPoint
 10
856.396061164
 20
555.8993479816
 30
0.0
  0
POINT
  5
4C0
330
30C
100
AcDbEntity
  8
Defpoints
 62
     0
100
AcDbPoint
 10
856.396061164
 20
628.8993479816
 30
0.0
  0
ENDBLK
  5
30E
330
30C
100
AcDbEntity
  8
0
100
AcDbBlockEnd
  0
BLOCK
  5
317
330
316
100
AcDbEntity
  8
0
100
AcDbBlockBegin
  2
SW_NOTE_0
 70
     0
 10
0.0
 20
0.0
 30
0.0
  3
SW_NOTE_0
  1

  0
CIRCLE
  5
319
330
316
100
AcDbEntity
  8
レイヤー_1
 62
     0
100
AcDbCircle
 10
-13.5
 20
6.7087155963
 30
0.0
 40
15.07504112606148
  0
MTEXT
  5
31A
330
316
100
AcDbEntity
  8
レイヤー_1
 62
     0
100
AcDbMText
 10
-16.5552082462
 20
12.1356128935
 30
0.0
 40
10.5
 41
0.0
 71
     1
 72
     1
  1
2
  7
SLDTEXTSTYLE0
 73
     1
 44
1.0
  0
ENDBLK
  5
318
330
316
100
AcDbEntity
  8
0
100
AcDbBlockEnd
  0
BLOCK
  5
31E
330
31D
100
AcDbEntity
  8
0
100
AcDbBlockBegin
  2
_DOT
 70
     0
 10
0.0
 20
0.0
 30
0.0
  3
_DOT
  1

  0
POLYLINE
  5
320
330
31D
100
AcDbEntity
  8
0
  6
ByBlock
 62
     0
100
AcDb2dPolyline
 66
     1
 10
0.0
 20
0.0
 30
0.0
 70
     1
 40
0.5
 41
0.5
  0
VERTEX
  5
322
330
320
100
AcDbEntity
  8
0
  6
ByBlock
 62
     0
100
AcDbVertex
100
AcDb2dVertex
 10
-0.25
 20
0.0
 30
0.0
 42
1.0
  0
VERTEX
  5
323
330
320
100
AcDbEntity
  8
0
  6
ByBlock
 62
     0
100
AcDbVertex
100
AcDb2dVertex
 10
0.25
 20
0.0
 30
0.0
 42
1.0
  0
SEQEND
  5
324
330
320
100
AcDbEntity
  8
0
  6
ByBlock
 62
     0
  0
LINE
  5
321
330
31D
100
AcDbEntity
  8
0
  6
ByBlock
 62
     0
370
    -2
100
AcDbLine
 10
-0.5
 20
0.0
 30
0.0
 11
-1.0
 21
0.0
 31
0.0
  0
ENDBLK
  5
31F
330
31D
100
AcDbEntity
  8
0
100
AcDbBlockEnd
  0
BLOCK
  5
327
330
326
100
AcDbEntity
  8
0
100
AcDbBlockBegin
  2
SW_NOTE_1
 70
     0
 10
0.0
 20
0.0
 30
0.0
  3
SW_NOTE_1
  1

  0
CIRCLE
  5
329
330
326
100
AcDbEntity
  8
レイヤー_1
 62
     0
100
AcDbCircle
 10
-13.5
 20
6.7087155963
 30
0.0
 40
15.07504112606133
  0
MTEXT
  5
32A
330
326
100
AcDbEntity
  8
レイヤー_1
 62
     0
100
AcDbMText
 10
-16.5552082462
 20
12.1356128935
 30
0.0
 40
10.5
 41
0.0
 71
     1
 72
     1
  1
4
  7
SLDTEXTSTYLE0
 73
     1
 44
1.0
  0
ENDBLK
  5
328
330
326
100
AcDbEntity
  8
0
100
AcDbBlockEnd
  0
BLOCK
  5
32F
330
32E
100
AcDbEntity
  8
0
100
AcDbBlockBegin
  2
SW_CENTERMARKSYMBOL_0
 70
     0
 10
0.0
 20
0.0
 30
0.0
  3
SW_CENTERMARKSYMBOL_0
  1

  0
LINE
  5
331
330
32E
100
AcDbEntity
  8
レイヤー_1
 62
     0
100
AcDbLine
 10
0.0
 20
0.0
 30
0.0
 11
0.0
 21
2.5
 31
0.0
  0
LINE
  5
332
330
32E
100
AcDbEntity
  8
レイヤー_1
 62
     0
100
AcDbLine
 10
0.0
 20
0.0
 30
0.0
 11
-2.5
 21
0.0
 31
0.0
  0
LINE
  5
333
330
32E
100
AcDbEntity
  8
レイヤー_1
 62
     0
100
AcDbLine
 10
0.0
 20
0.0
 30
0.0
 11
0.0
 21
-2.5
 31
0.0
  0
LINE
  5
334
330
32E
100
AcDbEntity
  8
レイヤー_1
 62
     0
100
AcDbLine
 10
0.0
 20
0.0
 30
0.0
 11
2.5
 21
0.0
 31
0.0
  0
LINE
  5
335
330
32E
100
AcDbEntity
  8
レイヤー_1
 62
     0
100
AcDbLine
 10
0.0
 20
5.0
 30
0.0
 11
0.0
 21
49.6994066688
 31
0.0
  0
LINE
  5
336
330
32E
100
AcDbEntity
  8
レイヤー_1
 62
     0
100
AcDbLine
 10
-5.0
 20
0.0
 30
0.0
 11
-50.2576253098
 21
0.0
 31
0.0
  0
LINE
  5
337
330
32E
100
AcDbEntity
  8
レイヤー_1
 62
     0
100
AcDbLine
 10
0.0
 20
-5.0
 30
0.0
 11
0.0
 21
-275.7253398787
 31
0.0
  0
LINE
  5
338
330
32E
100
AcDbEntity
  8
レイヤー_1
 62
     0
100
AcDbLine
 10
5.0
 20
0.0
 30
0.0
 11
52.1605906289
 21
0.0
 31
0.0
  0
ENDBLK
  5
330
330
32E
100
AcDbEntity
  8
0
100
AcDbBlockEnd
  0
BLOCK
  5
445
330
444
100
AcDbEntity
  8
0
100
AcDbBlockBegin
  2
_D_2
 70
     0
 10
0.0
 20
0.0
 30
0.0
  3
_D_2
  1

  0
LINE
  5
447
330
444
100
AcDbEntity
  8
レイヤー_1
 62
     0
370
    -2
100
AcDbLine
 10
481.3615587783
 20
440.8368479816
 30
0.0
 11
481.3615587783
 21
264.8993479816
 31
0.0
  0
LINE
  5
448
330
444
100
AcDbEntity
  8
レイヤー_1
 62
     0
370
    -2
100
AcDbLine
 10
521.3615587783
 20
440.8368479816
 30
0.0
 11
521.3615587783
 21
264.8993479816
 31
0.0
  0
LINE
  5
449
330
444
100
AcDbEntity
  8
レイヤー_1
 62
     0
370
    -2
100
AcDbLine
 10
481.3615587783
 20
264.8993479816
 30
0.0
 11
434.2285587782999
 21
264.8993479816
 31
0.0
  0
LINE
  5
44A
330
444
100
AcDbEntity
  8
レイヤー_1
 62
     0
370
    -2
100
AcDbLine
 10
481.3615587783
 20
264.8993479816
 30
0.0
 11
521.3615587783
 21
264.8993479816
 31
0.0
  0
LINE
  5
44B
330
444
100
AcDbEntity
  8
レイヤー_1
 62
     0
370
    -2
100
AcDbLine
 10
471.4555587783
 20
264.8993479816
 30
0.0
 11
461.5495587783
 21
264.8993479816
 31
0.0
  0
LINE
  5
44C
330
444
100
AcDbEntity
  8
レイヤー_1
 62
     0
370
    -2
100
AcDbLine
 10
531.2675587783
 20
264.8993479816
 30
0.0
 11
541.1735587782999
 21
264.8993479816
 31
0.0
  0
INSERT
  5
44D
330
444
100
AcDbEntity
  8
レイヤー_1
 62
     0
370
    -2
100
AcDbBlockReference
  2
_OPEN30
 10
481.3615587783
 20
264.8993479816
 30
0.0
 41
9.906
 42
9.906
 43
9.906
  0
INSERT
  5
44E
330
444
100
AcDbEntity
  8
レイヤー_1
 62
     0
370
    -2
100
AcDbBlockReference
  2
_OPEN30
 10
521.3615587783
 20
264.8993479816
 30
0.0
 41
9.906
 42
9.906
 43
9.906
 50
180.0
  0
MTEXT
  5
44F
330
444
100
AcDbEntity
  8
レイヤー_1
 62
     0
100
AcDbMText
 10
447.8890587783
 20
278.0768479816
 30
0.0
 40
10.5
 41
0.0
 71
     2
 72
     1
  1
\A1;%%c40
  7
SLDTEXTSTYLE0
 73
     1
 44
1.0
  0
POINT
  5
4C1
330
444
100
AcDbEntity
  8
Defpoints
 62
     0
100
AcDbPoint
 10
481.3615587783
 20
440.8993479816
 30
0.0
  0
POINT
  5
4C2
330
444
100
AcDbEntity
  8
Defpoints
 62
     0
100
AcDbPoint
 10
521.3615587783
 20
440.8993479816
 30
0.0
  0
POINT
  5
4C3
330
444
100
AcDbEntity
  8
Defpoints
 62
     0
100
AcDbPoint
 10
521.3615587783
 20
264.8993479816
 30
0.0
  0
ENDBLK
  5
446
330
444
100
AcDbEntity
  8
0
100
AcDbBlockEnd
  0
BLOCK
  5
452
330
451
100
AcDbEntity
  8
0
100
AcDbBlockBegin
  2
_D_3
 70
     0
 10
0.0
 20
0.0
 30
0.0
  3
_D_3
  1

  0
LINE
  5
454
330
451
100
AcDbEntity
  8
レイヤー_1
 62
     0
370
    -2
100
AcDbLine
 10
502.9240587783
 20
294.8993479816
 30
0.0
 11
653.3615587783
 21
294.8993479816
 31
0.0
  0
LINE
  5
455
330
451
100
AcDbEntity
  8
レイヤー_1
 62
     0
370
    -2
100
AcDbLine
 10
521.4240587783
 20
444.8993479816
 30
0.0
 11
653.3615587783
 21
444.8993479816
 31
0.0
  0
LINE
  5
456
330
451
100
AcDbEntity
  8
レイヤー_1
 62
     0
370
    -2
100
AcDbLine
 10
653.3615587783
 20
304.8053479816
 30
0.0
 11
653.3615587783
 21
434.9933479816
 31
0.0
  0
INSERT
  5
457
330
451
100
AcDbEntity
  8
レイヤー_1
 62
     0
370
    -2
100
AcDbBlockReference
  2
_OPEN30
 10
653.3615587783
 20
294.8993479816
 30
0.0
 41
9.906
 42
9.906
 43
9.906
 50
270.0
  0
INSERT
  5
458
330
451
100
AcDbEntity
  8
レイヤー_1
 62
     0
370
    -2
100
AcDbBlockReference
  2
_OPEN30
 10
653.3615587783
 20
444.8993479816
 30
0.0
 41
9.906
 42
9.906
 43
9.906
 50
90.0
  0
MTEXT
  5
459
330
451
100
AcDbEntity
  8
レイヤー_1
 62
     0
100
AcDbMText
 10
640.1840587783
 20
369.8993479816
 30
0.0
 40
10.5
 41
0.0
 71
     2
 72
     1
  1
\A1;150
  7
SLDTEXTSTYLE0
 11
0.0
 21
1.0
 31
0.0
 73
     1
 44
1.0
  0
POINT
  5
4C4
330
451
100
AcDbEntity
  8
Defpoints
 62
     0
100
AcDbPoint
 10
502.8615587783
 20
294.8993479816
 30
0.0
  0
POINT
  5
4C5
330
451
100
AcDbEntity
  8
Defpoints
 62
     0
100
AcDbPoint
 10
521.3615587783
 20
444.8993479816
 30
0.0
  0
POINT
  5
4C6
330
451
100
AcDbEntity
  8
Defpoints
 62
     0
100
AcDbPoint
 10
653.3615587783
 20
444.8993479816
 30
0.0
  0
ENDBLK
  5
453
330
451
100
AcDbEntity
  8
0
100
AcDbBlockEnd
  0
BLOCK
  5
45C
330
45B
100
AcDbEntity
  8
0
100
AcDbBlockBegin
  2
_D_4
 70
     0
 10
0.0
 20
0.0
 30
0.0
  3
_D_4
  1

  0
LINE
  5
45E
330
45B
100
AcDbEntity
  8
レイヤー_1
 62
     0
370
    -2
100
AcDbLine
 10
623.4240587783
 20
598.8993479816
 30
0.0
 11
653.3615587783
 21
598.8993479816
 31
0.0
  0
LINE
  5
45F
330
45B
100
AcDbEntity
  8
レイヤー_1
 62
     0
370
    -2
100
AcDbLine
 10
521.4240587783
 20
444.8993479816
 30
0.0
 11
653.3615587783
 21
444.8993479816
 31
0.0
  0
LINE
  5
460
330
45B
100
AcDbEntity
  8
レイヤー_1
 62
     0
370
    -2
100
AcDbLine
 10
653.3615587783
 20
588.9933479816001
 30
0.0
 11
653.3615587783
 21
454.8053479816
 31
0.0
  0
INSERT
  5
461
330
45B
100
AcDbEntity
  8
レイヤー_1
 62
     0
370
    -2
100
AcDbBlockReference
  2
_OPEN30
 10
653.3615587783
 20
598.8993479816
 30
0.0
 41
9.906
 42
9.906
 43
9.906
 50
90.0
  0
INSERT
  5
462
330
45B
100
AcDbEntity
  8
レイヤー_1
 62
     0
370
    -2
100
AcDbBlockReference
  2
_OPEN30
 10
653.3615587783
 20
444.8993479816
 30
0.0
 41
9.906
 42
9.906
 43
9.906
 50
270.0
  0
MTEXT
  5
463
330
45B
100
AcDbEntity
  8
レイヤー_1
 62
     0
100
AcDbMText
 10
640.1840587783
 20
521.8993479816
 30
0.0
 40
10.5
 41
0.0
 71
     2
 72
     1
  1
\A1;154
  7
SLDTEXTSTYLE0
 11
0.0
 21
1.0
 31
0.0
 73
     1
 44
1.0
  0
POINT
  5
4C7
330
45B
100
AcDbEntity
  8
Defpoints
 62
     0
100
AcDbPoint
 10
623.3615587783
 20
598.8993479816
 30
0.0
  0
POINT
  5
4C8
330
45B
100
AcDbEntity
  8
Defpoints
 62
     0
100
AcDbPoint
 10
521.3615587783
 20
444.8993479816
 30
0.0
  0
POINT
  5
4C9
330
45B
100
AcDbEntity
  8
Defpoints
 62
     0
100
AcDbPoint
 10
653.3615587783
 20
444.8993479816
 30
0.0
  0
ENDBLK
  5
45D
330
45B
100
AcDbEntity
  8
0
100
AcDbBlockEnd
  0
BLOCK
  5
466
330
465
100
AcDbEntity
  8
0
100
AcDbBlockBegin
  2
_D_5
 70
     0
 10
0.0
 20
0.0
 30
0.0
  3
_D_5
  1

  0
LINE
  5
468
330
465
100
AcDbEntity
  8
レイヤー_1
 62
     0
370
    -2
100
AcDbLine
 10
479.3615587783
 20
582.4618479816
 30
0.0
 11
479.3615587783
 21
664.8993479816
 31
0.0
  0
LINE
  5
469
330
465
100
AcDbEntity
  8
レイヤー_1
 62
     0
370
    -2
100
AcDbLine
 10
623.3615587783
 20
598.9618479816
 30
0.0
 11
623.3615587783
 21
664.8993479816
 31
0.0
  0
LINE
  5
46A
330
465
100
AcDbEntity
  8
レイヤー_1
 62
     0
370
    -2
100
AcDbLine
 10
489.2675587783
 20
664.8993479816
 30
0.0
 11
613.4555587783001
 21
664.8993479816
 31
0.0
  0
INSERT
  5
46B
330
465
100
AcDbEntity
  8
レイヤー_1
 62
     0
370
    -2
100
AcDbBlockReference
  2
_OPEN30
 10
479.3615587783
 20
664.8993479816
 30
0.0
 41
9.906
 42
9.906
 43
9.906
 50
180.0
  0
INSERT
  5
46C
330
465
100
AcDbEntity
  8
レイヤー_1
 62
     0
370
    -2
100
AcDbBlockReference
  2
_OPEN30
 10
623.3615587783
 20
664.8993479816
 30
0.0
 41
9.906
 42
9.906
 43
9.906
  0
MTEXT
  5
46D
330
465
100
AcDbEntity
  8
レイヤー_1
 62
     0
100
AcDbMText
 10
551.3615587783
 20
678.0768479816
 30
0.0
 40
10.5
 41
0.0
 71
     2
 72
     1
  1
\A1;144
  7
SLDTEXTSTYLE0
 73
     1
 44
1.0
  0
POINT
  5
4CA
330
465
100
AcDbEntity
  8
Defpoints
 62
     0
100
AcDbPoint
 10
479.3615587783
 20
582.3993479816
 30
0.0
  0
POINT
  5
4CB
330
465
100
AcDbEntity
  8
Defpoints
 62
     0
100
AcDbPoint
 10
623.3615587783
 20
598.8993479816
 30
0.0
  0
POINT
  5
4CC
330
465
100
AcDbEntity
  8
Defpoints
 62
     0
100
AcDbPoint
 10
623.3615587783
 20
664.8993479816
 30
0.0
  0
ENDBLK
  5
467
330
465
100
AcDbEntity
  8
0
100
AcDbBlockEnd
  0
BLOCK
  5
46F
330
46E
100
AcDbEntity
  8
0
100
AcDbBlockBegin
  2
SW_NOTE_2
 70
     0
 10
0.0
 20
0.0
 30
0.0
  3
SW_NOTE_2
  1

  0
CIRCLE
  5
471
330
46E
100
AcDbEntity
  8
レイヤー_1
 62
     0
100
AcDbCircle
 10
-13.5
 20
6.7087155963
 30
0.0
 40
15.07504112606148
  0
MTEXT
  5
472
330
46E
100
AcDbEntity
  8
レイヤー_1
 62
     0
100
AcDbMText
 10
-16.5552082462
 20
12.1356128935
 30
0.0
 40
10.5
 41
0.0
 71
     1
 72
     1
  1
1
  7
SLDTEXTSTYLE0
 73
     1
 44
1.0
  0
ENDBLK
  5
470
330
46E
100
AcDbEntity
  8
0
100
AcDbBlockEnd
  0
BLOCK
  5
476
330
475
100
AcDbEntity
  8
0
100
AcDbBlockBegin
  2
SW_NOTE_3
 70
     0
 10
0.0
 20
0.0
 30
0.0
  3
SW_NOTE_3
  1

  0
CIRCLE
  5
478
330
475
100
AcDbEntity
  8
レイヤー_1
 62
     0
100
AcDbCircle
 10
-13.5
 20
6.7087155963
 30
0.0
 40
15.07504112606148
  0
MTEXT
  5
479
330
475
100
AcDbEntity
  8
レイヤー_1
 62
     0
100
AcDbMText
 10
-16.5552082462
 20
12.1356128935
 30
0.0
 40
10.5
 41
0.0
 71
     1
 72
     1
  1
3
  7
SLDTEXTSTYLE0
 73
     1
 44
1.0
  0
ENDBLK
  5
477
330
475
100
AcDbEntity
  8
0
100
AcDbBlockEnd
  0
ENDSEC
  0
SECTION
  2
ENTITIES
  0
HATCH
  5
77
330
1F
100
AcDbEntity
  8
0
  6
Continuous
 62
     0
100
AcDbHatch
 10
0.0
 20
0.0
 30
0.0
210
0.0
220
0.0
230
1.0
  2
SOLID
 70
     1
 71
     0
 91
        2
 92
        0
 93
        7
 72
     1
 10
1057.689904783098
 20
68.87535351635013
 11
1057.689904783098
 21
52.68581308790413
 72
     1
 10
1057.689904783098
 20
52.68581308790413
 11
1062.886300777894
 21
50.72204297401346
 72
     4
 94
        3
 73
     1
 74
     0
 95
        8
 96
        4
 40
1.0
 40
1.0
 40
1.0
 40
1.0
 40
2.0
 40
2.0
 40
2.0
 40
2.0
 10
1062.886300777894
 20
50.72204297401346
 42
1.0
 10
1065.712030106614
 20
50.72204297401346
 42
1.0
 10
1068.66885220874
 20
50.77760547399957
 42
1.0
 10
1070.936352045412
 20
52.74891667142342
 42
1.0
 72
     4
 94
        3
 73
     1
 74
     0
 95
        8
 96
        4
 40
2.0
 40
2.0
 40
2.0
 40
2.0
 40
3.0
 40
3.0
 40
3.0
 40
3.0
 10
1070.936352045412
 20
52.74891667142342
 42
1.0
 10
1072.935010410798
 20
54.50550195744263
 42
1.0
 10
1074.294265944312
 20
56.90988232793524
 42
1.0
 10
1074.294265944312
 20
60.61462776971735
 42
1.0
 72
     4
 94
        3
 73
     1
 74
     0
 95
        8
 96
        4
 40
3.0
 40
3.0
 40
3.0
 40
3.0
 40
4.0
 40
4.0
 40
4.0
 40
4.0
 10
1074.294265944312
 20
60.61462776971735
 42
1.0
 10
1074.294265944312
 20
63.14503662325147
 42
1.0
 10
1073.44158414114
 20
65.6249472671627
 42
1.0
 10
1071.442491693723
 20
67.27749755971837
 42
1.0
 72
     4
 94
        3
 73
     1
 74
     0
 95
        8
 96
        4
 40
4.0
 40
4.0
 40
4.0
 40
4.0
 40
5.0
 40
5.0
 40
5.0
 40
5.0
 10
1071.442491693723
 20
67.27749755971837
 42
1.0
 10
1069.202049636992
 20
69.14072233138796
 42
1.0
 10
1066.512187984018
 20
68.87535351635013
 42
1.0
 10
1063.738548499034
 20
68.87535351635013
 42
1.0
 72
     1
 10
1063.738548499034
 20
68.87535351635013
 11
1057.689904783098
 21
68.87535351635013
 97
        0
 92
        0
 93
        5
 72
     4
 94
        3
 73
     1
 74
     0
 95
        8
 96
        4
 40
2.0
 40
2.0
 40
2.0
 40
2.0
 40
3.0
 40
3.0
 40
3.0
 40
3.0
 10
1071.681670892882
 20
60.21440413700496
 42
1.0
 10
1071.681670892882
 20
56.96095931359959
 42
1.0
 10
1070.721915522028
 20
54.00196680131847
 42
1.0
 10
1067.845543289675
 20
52.56515527824015
 42
1.0
 72
     4
 94
        3
 73
     1
 74
     0
 95
        8
 96
        4
 40
3.0
 40
3.0
 40
3.0
 40
3.0
 40
4.0
 40
4.0
 40
4.0
 40
4.0
 10
1067.845543289675
 20
52.56515527824015
 42
1.0
 10
1065.685551102715
 20
51.47242611184666
 42
1.0
 10
1062.380161129583
 20
51.78930599458
 42
1.0
 10
1060.033658363242
 20
51.92213509610923
 42
1.0
 72
     1
 10
1060.033658363242
 20
51.92213509610923
 11
1060.033658363242
 21
67.80809049578359
 72
     4
 94
        3
 73
     1
 74
     0
 95
        8
 96
        4
 40
0.0
 40
0.0
 40
0.0
 40
0.0
 40
1.0
 40
1.0
 40
1.0
 40
1.0
 10
1060.033658363242
 20
67.80809049578359
 42
1.0
 10
1061.180792477538
 20
67.83702929785973
 42
1.0
 10
1062.29913248377
 20
67.91458528742369
 42
1.0
 10
1063.393453284277
 20
67.9145852874237
 42
1.0
 72
     4
 94
        3
 73
     1
 74
     0
 95
        8
 96
        4
 40
1.0
 40
1.0
 40
1.0
 40
1.0
 40
2.0
 40
2.0
 40
2.0
 40
2.0
 10
1063.393453284277
 20
67.9145852874237
 42
1.0
 10
1069.363528152576
 20
67.91458528742365
 42
1.0
 10
1071.681670892882
 20
65.86354769028019
 42
1.0
 10
1071.681670892882
 20
60.21440413700498
 42
1.0
 97
        0
 75
     0
 76
     1
 98
        1
 10
0.0
 20
0.0
  0
HATCH
  5
78
330
1F
100
AcDbEntity
  8
0
  6
Continuous
 62
     0
100
AcDbHatch
 10
0.0
 20
0.0
 30
0.0
210
0.0
220
0.0
230
1.0
  2
SOLID
 70
     1
 71
     0
 91
        1
 92
        0
 93
        6
 72
     4
 94
        3
 73
     1
 74
     0
 95
        8
 96
        4
 40
4.0
 40
4.0
 40
4.0
 40
4.0
 40
5.0
 40
5.0
 40
5.0
 40
5.0
 10
1079.466208651353
 20
63.30174023649354
 42
1.0
 10
1079.81130386611
 20
63.30174023649354
 42
1.0
 10
1080.133248039207
 20
63.3597625346561
 42
1.0
 10
1080.531445955774
 20
63.38464990444157
 42
1.0
 72
     1
 10
1080.531445955774
 20
63.38464990444157
 11
1080.531445955774
 21
50.64390820840803
 72
     4
 94
        3
 73
     1
 74
     0
 95
        8
 96
        4
 40
0.0
 40
0.0
 40
0.0
 40
0.0
 40
1.0
 40
1.0
 40
1.0
 40
1.0
 10
1080.531445955774
 20
50.64390820840803
 42
1.0
 10
1080.133248039207
 20
50.6711106823595
 42
1.0
 10
1079.81130386611
 20
50.72204297401345
 42
1.0
 10
1079.466208651353
 20
50.72204297401345
 42
1.0
 72
     4
 94
        3
 73
     1
 74
     0
 95
        8
 96
        4
 40
1.0
 40
1.0
 40
1.0
 40
1.0
 40
2.0
 40
2.0
 40
2.0
 40
2.0
 10
1079.466208651353
 20
50.72204297401345
 42
1.0
 10
1079.093476880613
 20
50.72204297401345
 42
1.0
 10
1078.745053703616
 20
50.6711106823595
 42
1.0
 10
1078.399813794848
 20
50.64390820840803
 42
1.0
 72
     1
 10
1078.399813794848
 20
50.64390820840803
 11
1078.399813794848
 21
63.38464990444157
 72
     4
 94
        3
 73
     1
 74
     0
 95
        8
 96
        4
 40
3.0
 40
3.0
 40
3.0
 40
3.0
 40
4.0
 40
4.0
 40
4.0
 40
4.0
 10
1078.399813794848
 20
63.38464990444157
 42
1.0
 10
1078.745053703616
 20
63.3597625346561
 42
1.0
 10
1079.093476880613
 20
63.30174023649354
 42
1.0
 10
1079.466208651353
 20
63.30174023649354
 42
1.0
 97
        0
 75
     0
 76
     1
 98
        1
 10
0.0
 20
0.0
  0
HATCH
  5
79
330
1F
100
AcDbEntity
  8
0
  6
Continuous
 62
     0
100
AcDbHatch
 10
0.0
 20
0.0
 30
0.0
210
0.0
220
0.0
230
1.0
  2
SOLID
 70
     1
 71
     0
 91
        1
 92
        0
 93
        2
 72
     4
 94
        3
 73
     1
 74
     0
 95
       11
 96
        7
 40
0.0
 40
0.0
 40
0.0
 40
0.0
 40
1.0
 40
1.0
 40
1.0
 40
2.0
 40
2.0
 40
2.0
 40
2.0
 10
1079.466208651353
 20
66.5839791679646
 42
1.0
 10
1078.719008781748
 20
66.5839791679646
 42
1.0
 10
1078.104348625651
 20
67.19415380973923
 42
1.0
 10
1078.104348625651
 20
67.94251123142712
 42
1.0
 10
1078.104348625651
 20
68.69043457108384
 42
1.0
 10
1078.719008781748
 20
69.30437125712824
 42
1.0
 10
1079.466208651353
 20
69.30437125712824
 42
1.0
 72
     4
 94
        3
 73
     1
 74
     0
 95
       11
 96
        7
 40
2.0
 40
2.0
 40
2.0
 40
2.0
 40
3.0
 40
3.0
 40
3.0
 40
4.0
 40
4.0
 40
4.0
 40
4.0
 10
1079.466208651353
 20
69.30437125712824
 42
1.0
 10
1080.18389094284
 20
69.30437125712824
 42
1.0
 10
1080.824017244763
 20
68.69043457108384
 42
1.0
 10
1080.824017244763
 20
67.94251123142712
 42
1.0
 10
1080.824017244763
 20
67.19415380973923
 42
1.0
 10
1080.18389094284
 20
66.5839791679646
 42
1.0
 10
1079.466208651353
 20
66.5839791679646
 42
1.0
 97
        0
 75
     0
 76
     1
 98
        1
 10
0.0
 20
0.0
  0
HATCH
  5
7A
330
1F
100
AcDbEntity
  8
0
  6
Continuous
 62
     0
100
AcDbHatch
 10
0.0
 20
0.0
 30
0.0
210
0.0
220
0.0
230
1.0
  2
SOLID
 70
     1
 71
     0
 91
        1
 92
        0
 93
       14
 72
     4
 94
        3
 73
     1
 74
     0
 95
        8
 96
        4
 40
12.0
 40
12.0
 40
12.0
 40
12.0
 40
13.0
 40
13.0
 40
13.0
 40
13.0
 10
1102.067557766796
 20
67.73140267028194
 42
1.0
 10
1101.827076321543
 20
67.06262695430334
 42
1.0
 10
1101.640999824195
 20
66.36968733859116
 42
1.0
 10
1101.454344550804
 20
65.67906282704504
 42
1.0
 72
     1
 10
1101.454344550804
 20
65.67906282704504
 11
1101.160905097752
 21
65.67906282704504
 72
     4
 94
        3
 73
     1
 74
     0
 95
        8
 96
        4
 40
0.0
 40
0.0
 40
0.0
 40
0.0
 40
1.0
 40
1.0
 40
1.0
 40
1.0
 10
1101.160905097752
 20
65.67906282704504
 42
1.0
 10
1099.667952298646
 20
67.3837029633376
 42
1.0
 10
1097.427799629935
 20
68.26242968837832
 42
1.0
 10
1095.163627755501
 20
68.26242968837832
 42
1.0
 72
     4
 94
        3
 73
     1
 74
     0
 95
        8
 96
        4
 40
1.0
 40
1.0
 40
1.0
 40
1.0
 40
2.0
 40
2.0
 40
2.0
 40
2.0
 10
1095.163627755501
 20
68.26242968837832
 42
1.0
 10
1090.631232574343
 20
68.26242968837832
 42
1.0
 10
1087.487899892837
 20
65.27811572428075
 42
1.0
 10
1087.487899892837
 20
59.89636670218861
 42
1.0
 72
     4
 94
        3
 73
     1
 74
     0
 95
        8
 96
        4
 40
2.0
 40
2.0
 40
2.0
 40
2.0
 40
3.0
 40
3.0
 40
3.0
 40
3.0
 10
1087.487899892837
 20
59.89636670218861
 42
1.0
 10
1087.487899892837
 20
54.61431185324878
 42
1.0
 10
1090.204964019762
 20
51.3367031301098
 42
1.0
 10
1095.45590965647
 20
51.3367031301098
 42
1.0
 72
     4
 94
        3
 73
     1
 74
     0
 95
        8
 96
        4
 40
3.0
 40
3.0
 40
3.0
 40
3.0
 40
4.0
 40
4.0
 40
4.0
 40
4.0
 10
1095.45590965647
 20
51.3367031301098
 42
1.0
 10
1096.897061999859
 20
51.3367031301098
 42
1.0
 10
1098.390593575007
 20
51.60554460139677
 42
1.0
 10
1099.615283678867
 20
52.24306641113314
 42
1.0
 72
     1
 10
1099.615283678867
 20
52.24306641113314
 11
1099.615283678867
 21
59.09447249665998
 72
     4
 94
        3
 73
     1
 74
     0
 95
        8
 96
        4
 40
5.0
 40
5.0
 40
5.0
 40
5.0
 40
6.0
 40
6.0
 40
6.0
 40
6.0
 10
1099.615283678867
 20
59.09447249665998
 42
1.0
 10
1099.988883613669
 20
59.06596777661497
 42
1.0
 10
1100.389107246383
 20
59.01243099277426
 42
1.0
 10
1100.789041491074
 20
59.01243099277426
 42
1.0
 72
     4
 94
        3
 73
     1
 74
     0
 95
        8
 96
        4
 40
6.0
 40
6.0
 40
6.0
 40
6.0
 40
7.0
 40
7.0
 40
7.0
 40
7.0
 10
1100.789041491074
 20
59.01243099277426
 42
1.0
 10
1101.159747545668
 20
59.01243099277426
 42
1.0
 10
1101.535373196617
 20
59.06596777661497
 42
1.0
 10
1101.961931139218
 20
59.09447249665998
 42
1.0
 72
     1
 10
1101.961931139218
 20
59.09447249665998
 11
1101.961931139218
 21
51.55085026547296
 72
     4
 94
        3
 73
     1
 74
     0
 95
        8
 96
        4
 40
8.0
 40
8.0
 40
8.0
 40
8.0
 40
9.0
 40
9.0
 40
9.0
 40
9.0
 10
1101.961931139218
 20
51.55085026547296
 42
1.0
 10
1099.641907376777
 20
50.75156055213108
 42
1.0
 10
1097.19021206489
 20
50.32384505744639
 42
1.0
 10
1094.709577950927
 20
50.32384505744639
 42
1.0
 72
     4
 94
        3
 73
     1
 74
     0
 95
        8
 96
        4
 40
9.0
 40
9.0
 40
9.0
 40
9.0
 40
10.0
 40
10.0
 40
10.0
 40
10.0
 10
1094.709577950927
 20
50.32384505744639
 42
1.0
 10
1087.966837067196
 20
50.32384505744639
 42
1.0
 10
1084.8766070875
 20
54.34981120227317
 42
1.0
 10
1084.8766070875
 20
59.7606437204517
 42
1.0
 72
     4
 94
        3
 73
     1
 74
     0
 95
        8
 96
        4
 40
10.0
 40
10.0
 40
10.0
 40
10.0
 40
11.0
 40
11.0
 40
11.0
 40
11.0
 10
1084.8766070875
 20
59.7606437204517
 42
1.0
 10
1084.8766070875
 20
65.99492985170563
 42
1.0
 10
1089.354163238724
 20
69.27413020895878
 42
1.0
 10
1095.269254383079
 20
69.27413020895878
 42
1.0
 72
     4
 94
        3
 73
     1
 74
     0
 95
        8
 96
        4
 40
11.0
 40
11.0
 40
11.0
 40
11.0
 40
12.0
 40
12.0
 40
12.0
 40
12.0
 10
1095.269254383079
 20
69.27413020895878
 42
1.0
 10
1099.24370946021
 20
69.27413020895878
 42
1.0
 10
1101.479521308609
 20
68.10456852305326
 42
1.0
 10
1102.067557766796
 20
67.73140267028194
 42
1.0
 97
        0
 75
     0
 76
     1
 98
        1
 10
0.0
 20
0.0
  0
HATCH
  5
7B
330
1F
100
AcDbEntity
  8
0
  6
Continuous
 62
     0
100
AcDbHatch
 10
0.0
 20
0.0
 30
0.0
210
0.0
220
0.0
230
1.0
  2
SOLID
 70
     1
 71
     0
 91
        1
 92
        0
 93
        6
 72
     4
 94
        3
 73
     1
 74
     0
 95
        8
 96
        4
 40
4.0
 40
4.0
 40
4.0
 40
4.0
 40
5.0
 40
5.0
 40
5.0
 40
5.0
 10
1107.611942856556
 20
63.30174023649354
 42
1.0
 10
1107.958050929386
 20
63.30174023649354
 42
1.0
 10
1108.278114080347
 20
63.3597625346561
 42
1.0
 10
1108.67833771306
 20
63.38464990444157
 42
1.0
 72
     1
 10
1108.67833771306
 20
63.38464990444157
 11
1108.67833771306
 21
50.64390820840803
 72
     4
 94
        3
 73
     1
 74
     0
 95
        8
 96
        4
 40
0.0
 40
0.0
 40
0.0
 40
0.0
 40
1.0
 40
1.0
 40
1.0
 40
1.0
 10
1108.67833771306
 20
50.64390820840803
 42
1.0
 10
1108.278114080347
 20
50.6711106823595
 42
1.0
 10
1107.958050929386
 20
50.72204297401345
 42
1.0
 10
1107.611942856556
 20
50.72204297401345
 42
1.0
 72
     4
 94
        3
 73
     1
 74
     0
 95
        8
 96
        4
 40
1.0
 40
1.0
 40
1.0
 40
1.0
 40
2.0
 40
2.0
 40
2.0
 40
2.0
 10
1107.611942856556
 20
50.72204297401345
 42
1.0
 10
1107.236027817587
 20
50.72204297401345
 42
1.0
 10
1106.889919744757
 20
50.6711106823595
 42
1.0
 10
1106.545837388072
 20
50.64390820840803
 42
1.0
 72
     1
 10
1106.545837388072
 20
50.64390820840803
 11
1106.545837388072
 21
63.38464990444157
 72
     4
 94
        3
 73
     1
 74
     0
 95
        8
 96
        4
 40
3.0
 40
3.0
 40
3.0
 40
3.0
 40
4.0
 40
4.0
 40
4.0
 40
4.0
 10
1106.545837388072
 20
63.38464990444157
 42
1.0
 10
1106.889919744757
 20
63.3597625346561
 42
1.0
 10
1107.236027817587
 20
63.30174023649354
 42
1.0
 10
1107.611942856556
 20
63.30174023649354
 42
1.0
 97
        0
 75
     0
 76
     1
 98
        1
 10
0.0
 20
0.0
  0
HATCH
  5
7C
330
1F
100
AcDbEntity
  8
0
  6
Continuous
 62
     0
100
AcDbHatch
 10
0.0
 20
0.0
 30
0.0
210
0.0
220
0.0
230
1.0
  2
SOLID
 70
     1
 71
     0
 91
        1
 92
        0
 93
        2
 72
     4
 94
        3
 73
     1
 74
     0
 95
       11
 96
        7
 40
0.0
 40
0.0
 40
0.0
 40
0.0
 40
1.0
 40
1.0
 40
1.0
 40
2.0
 40
2.0
 40
2.0
 40
2.0
 10
1107.611942856556
 20
66.5839791679646
 42
1.0
 10
1106.865900539034
 20
66.5839791679646
 42
1.0
 10
1106.250372218875
 20
67.19415380973923
 42
1.0
 10
1106.250372218875
 20
67.94251123142712
 42
1.0
 10
1106.250372218875
 20
68.69043457108384
 42
1.0
 10
1106.865900539034
 20
69.30437125712824
 42
1.0
 10
1107.611942856556
 20
69.30437125712824
 42
1.0
 72
     4
 94
        3
 73
     1
 74
     0
 95
       11
 96
        7
 40
2.0
 40
2.0
 40
2.0
 40
2.0
 40
3.0
 40
3.0
 40
3.0
 40
4.0
 40
4.0
 40
4.0
 40
4.0
 10
1107.611942856556
 20
69.30437125712824
 42
1.0
 10
1108.329625148043
 20
69.30437125712824
 42
1.0
 10
1108.970909002049
 20
68.69043457108384
 42
1.0
 10
1108.970909002049
 20
67.94251123142712
 42
1.0
 10
1108.970909002049
 20
67.19415380973923
 42
1.0
 10
1108.329625148043
 20
66.5839791679646
 42
1.0
 10
1107.611942856556
 20
66.5839791679646
 42
1.0
 97
        0
 75
     0
 76
     1
 98
        1
 10
0.0
 20
0.0
  0
HATCH
  5
7D
330
1F
100
AcDbEntity
  8
0
  6
Continuous
 62
     0
100
AcDbHatch
 10
0.0
 20
0.0
 30
0.0
210
0.0
220
0.0
230
1.0
  2
SOLID
 70
     1
 71
     0
 91
        1
 92
        0
 93
       11
 72
     4
 94
        3
 73
     1
 74
     0
 95
        8
 96
        4
 40
9.0
 40
9.0
 40
9.0
 40
9.0
 40
10.0
 40
10.0
 40
10.0
 40
10.0
 10
1125.603774883308
 20
67.27749755971837
 42
1.0
 10
1124.269406719579
 20
67.43637158311617
 42
1.0
 10
1122.40632664192
 20
67.59842887474227
 42
1.0
 10
1120.034213035742
 20
67.59842887474227
 42
1.0
 72
     1
 10
1120.034213035742
 20
67.59842887474227
 11
1120.034213035742
 21
50.59239714071249
 72
     4
 94
        3
 73
     1
 74
     0
 95
        8
 96
        4
 40
0.0
 40
0.0
 40
0.0
 40
0.0
 40
1.0
 40
1.0
 40
1.0
 40
1.0
 10
1120.034213035742
 20
50.59239714071249
 42
1.0
 10
1119.60765509314
 20
50.62075716674713
 42
1.0
 10
1119.233186994275
 20
50.6711106823595
 42
1.0
 10
1118.860455223535
 20
50.6711106823595
 42
1.0
 72
     4
 94
        3
 73
     1
 74
     0
 95
        8
 96
        4
 40
1.0
 40
1.0
 40
1.0
 40
1.0
 40
2.0
 40
2.0
 40
2.0
 40
2.0
 10
1118.860455223535
 20
50.6711106823595
 42
1.0
 10
1118.461389142906
 20
50.6711106823595
 42
1.0
 10
1118.058850406027
 20
50.62075716674713
 42
1.0
 10
1117.686118635287
 20
50.59239714071249
 42
1.0
 72
     1
 10
1117.686118635287
 20
50.59239714071249
 11
1117.686118635287
 21
67.59842887474227
 72
     4
 94
        3
 73
     1
 74
     0
 95
        8
 96
        4
 40
3.0
 40
3.0
 40
3.0
 40
3.0
 40
4.0
 40
4.0
 40
4.0
 40
4.0
 10
1117.686118635287
 20
67.59842887474227
 42
1.0
 10
1114.995388818252
 20
67.59842887474227
 42
1.0
 10
1113.37105385772
 20
67.43637158311617
 42
1.0
 10
1111.84974103258
 20
67.27749755971837
 42
1.0
 72
     4
 94
        3
 73
     1
 74
     0
 95
        8
 96
        4
 40
4.0
 40
4.0
 40
4.0
 40
4.0
 40
5.0
 40
5.0
 40
5.0
 40
5.0
 10
1111.84974103258
 20
67.27749755971837
 42
1.0
 10
1111.874628402365
 20
67.54460270288072
 42
1.0
 10
1111.929612126309
 20
67.80809049578359
 42
1.0
 10
1111.929612126309
 20
68.07649788503936
 42
1.0
 72
     4
 94
        3
 73
     1
 74
     0
 95
        8
 96
        4
 40
5.0
 40
5.0
 40
5.0
 40
5.0
 40
6.0
 40
6.0
 40
6.0
 40
6.0
 10
1111.929612126309
 20
68.07649788503936
 42
1.0
 10
1111.929612126309
 20
68.34259017012918
 42
1.0
 10
1111.874628402365
 20
68.58220345131933
 42
1.0
 10
1111.84974103258
 20
68.87535351635013
 42
1.0
 72
     1
 10
1111.84974103258
 20
68.87535351635013
 11
1125.603774883308
 21
68.87535351635013
 72
     4
 94
        3
 73
     1
 74
     0
 95
        8
 96
        4
 40
7.0
 40
7.0
 40
7.0
 40
7.0
 40
8.0
 40
8.0
 40
8.0
 40
8.0
 10
1125.603774883308
 20
68.87535351635013
 42
1.0
 10
1125.57425730519
 20
68.58220345131933
 42
1.0
 10
1125.523614401557
 20
68.34259017012918
 42
1.0
 10
1125.523614401557
 20
68.07649788503936
 42
1.0
 72
     4
 94
        3
 73
     1
 74
     0
 95
        8
 96
        4
 40
8.0
 40
8.0
 40
8.0
 40
8.0
 40
9.0
 40
9.0
 40
9.0
 40
9.0
 10
1125.523614401557
 20
68.07649788503936
 42
1.0
 10
1125.523614401557
 20
67.80809049578359
 42
1.0
 10
1125.57425730519
 20
67.54460270288072
 42
1.0
 10
1125.603774883308
 20
67.27749755971837
 42
1.0
 97
        0
 75
     0
 76
     1
 98
        1
 10
0.0
 20
0.0
  0
HATCH
  5
7E
330
1F
100
AcDbEntity
  8
0
  6
Continuous
 62
     0
100
AcDbHatch
 10
0.0
 20
0.0
 30
0.0
210
0.0
220
0.0
230
1.0
  2
SOLID
 70
     1
 71
     0
 91
        1
 92
        0
 93
       20
 72
     4
 94
        3
 73
     1
 74
     0
 95
        8
 96
        4
 40
16.0
 40
16.0
 40
16.0
 40
16.0
 40
17.0
 40
17.0
 40
17.0
 40
17.0
 10
1137.969035622404
 20
67.27749755971837
 42
1.0
 10
1137.170903461145
 20
67.43637158311617
 42
1.0
 10
1136.368719867596
 20
67.51667675887731
 42
1.0
 10
1135.571455870399
 20
67.56876660261433
 42
1.0
 72
     1
 10
1135.571455870399
 20
67.56876660261433
 11
1132.909086079398
 21
67.62172461041352
 72
     1
 10
1132.909086079398
 20
67.62172461041352
 11
1130.851826639808
 21
67.62172461041352
 72
     1
 10
1130.851826639808
 20
67.62172461041352
 11
1130.851826639808
 21
60.93382275661677
 72
     1
 10
1130.851826639808
 20
60.93382275661677
 11
1134.984866352317
 21
60.93382275661677
 72
     4
 94
        3
 73
     1
 74
     0
 95
        8
 96
        4
 40
1.0
 40
1.0
 40
1.0
 40
1.0
 40
2.0
 40
2.0
 40
2.0
 40
2.0
 10
1134.984866352317
 20
60.93382275661677
 42
1.0
 10
1135.782419737534
 20
60.93382275661677
 42
1.0
 10
1136.55682208109
 20
61.0394493841945
 42
1.0
 10
1137.355822406412
 20
61.06650716413564
 42
1.0
 72
     4
 94
        3
 73
     1
 74
     0
 95
        8
 96
        4
 40
2.0
 40
2.0
 40
2.0
 40
2.0
 40
3.0
 40
3.0
 40
3.0
 40
3.0
 10
1137.355822406412
 20
61.06650716413564
 42
1.0
 10
1137.332381976729
 20
60.85308349882443
 42
1.0
 10
1137.277398252785
 20
60.61462776971735
 42
1.0
 10
1137.277398252785
 20
60.3754485705584
 42
1.0
 72
     4
 94
        3
 73
     1
 74
     0
 95
        8
 96
        4
 40
3.0
 40
3.0
 40
3.0
 40
3.0
 40
4.0
 40
4.0
 40
4.0
 40
4.0
 10
1137.277398252785
 20
60.3754485705584
 42
1.0
 10
1137.277398252785
 20
60.1589863310292
 42
1.0
 10
1137.332381976729
 20
59.91778141572497
 42
1.0
 10
1137.355822406412
 20
59.62709114887048
 42
1.0
 72
     4
 94
        3
 73
     1
 74
     0
 95
        8
 96
        4
 40
4.0
 40
4.0
 40
4.0
 40
4.0
 40
5.0
 40
5.0
 40
5.0
 40
5.0
 10
1137.355822406412
 20
59.62709114887048
 42
1.0
 10
1136.55682208109
 20
59.65762158506082
 42
1.0
 10
1135.782419737534
 20
59.7606437204517
 42
1.0
 10
1134.984866352317
 20
59.7606437204517
 42
1.0
 72
     1
 10
1134.984866352317
 20
59.7606437204517
 11
1130.851826639808
 21
59.7606437204517
 72
     1
 10
1130.851826639808
 20
59.7606437204517
 11
1130.851826639808
 21
51.97625065599157
 72
     4
 94
        3
 73
     1
 74
     0
 95
        8
 96
        4
 40
7.0
 40
7.0
 40
7.0
 40
7.0
 40
8.0
 40
8.0
 40
8.0
 40
8.0
 10
1130.851826639808
 20
51.97625065599157
 42
1.0
 10
1132.478476704506
 20
51.92213509610923
 42
1.0
 10
1134.076477355148
 20
52.03123437993609
 42
1.0
 10
1135.679397602143
 20
52.08361361169395
 42
1.0
 72
     4
 94
        3
 73
     1
 74
     0
 95
        8
 96
        4
 40
8.0
 40
8.0
 40
8.0
 40
8.0
 40
9.0
 40
9.0
 40
9.0
 40
9.0
 10
1135.679397602143
 20
52.08361361169395
 42
1.0
 10
1136.50357468527
 20
52.11110547366626
 42
1.0
 10
1137.304890114757
 20
52.19155534343776
 42
1.0
 10
1138.129645973926
 20
52.32351628090476
 42
1.0
 72
     4
 94
        3
 73
     1
 74
     0
 95
        8
 96
        4
 40
9.0
 40
9.0
 40
9.0
 40
9.0
 40
10.0
 40
10.0
 40
10.0
 40
10.0
 10
1138.129645973926
 20
52.32351628090476
 42
1.0
 10
1138.103890440079
 20
52.03123437993609
 42
1.0
 10
1138.051511208321
 20
51.78930599458
 42
1.0
 10
1138.051511208321
 20
51.52191146339688
 42
1.0
 72
     4
 94
        3
 73
     1
 74
     0
 95
        8
 96
        4
 40
10.0
 40
10.0
 40
10.0
 40
10.0
 40
11.0
 40
11.0
 40
11.0
 40
11.0
 10
1138.051511208321
 20
51.52191146339688
 42
1.0
 10
1138.051511208321
 20
51.25798958846278
 42
1.0
 10
1138.103890440079
 20
50.99001628123816
 42
1.0
 10
1138.129645973926
 20
50.72204297401345
 42
1.0
 72
     1
 10
1138.129645973926
 20
50.72204297401345
 11
1128.508073059665
 21
50.72204297401345
 72
     1
 10
1128.508073059665
 20
50.72204297401345
 11
1128.508073059665
 21
68.87535351635013
 72
     1
 10
1128.508073059665
 20
68.87535351635013
 11
1137.969035622404
 21
68.87535351635013
 72
     4
 94
        3
 73
     1
 74
     0
 95
        8
 96
        4
 40
14.0
 40
14.0
 40
14.0
 40
14.0
 40
15.0
 40
15.0
 40
15.0
 40
15.0
 10
1137.969035622404
 20
68.87535351635013
 42
1.0
 10
1137.945884580743
 20
68.58220345131933
 42
1.0
 10
1137.890032692736
 20
68.34259017012918
 42
1.0
 10
1137.890032692736
 20
68.07649788503936
 42
1.0
 72
     4
 94
        3
 73
     1
 74
     0
 95
        8
 96
        4
 40
15.0
 40
15.0
 40
15.0
 40
15.0
 40
16.0
 40
16.0
 40
16.0
 40
16.0
 10
1137.890032692736
 20
68.07649788503936
 42
1.0
 10
1137.890032692736
 20
67.80809049578359
 42
1.0
 10
1137.945884580743
 20
67.54460270288072
 42
1.0
 10
1137.969035622404
 20
67.27749755971837
 42
1.0
 97
        0
 75
     0
 76
     1
 98
        1
 10
0.0
 20
0.0
  0
HATCH
  5
7F
330
1F
100
AcDbEntity
  8
0
  6
Continuous
 62
     0
100
AcDbHatch
 10
0.0
 20
0.0
 30
0.0
210
0.0
220
0.0
230
1.0
  2
SOLID
 70
     1
 71
     0
 91
        1
 92
        0
 93
       11
 72
     4
 94
        3
 73
     1
 74
     0
 95
        8
 96
        4
 40
9.0
 40
9.0
 40
9.0
 40
9.0
 40
10.0
 40
10.0
 40
10.0
 40
10.0
 10
1150.229827286005
 20
51.36390560406131
 42
1.0
 10
1153.109527480598
 20
51.36390560406131
 42
1.0
 10
1155.347654433164
 20
53.07071615050963
 42
1.0
 10
1155.882732883551
 20
53.52331901497987
 42
1.0
 72
     1
 10
1155.882732883551
 20
53.52331901497987
 11
1155.748746229938
 21
51.84313216644151
 72
     4
 94
        3
 73
     1
 74
     0
 95
        8
 96
        4
 40
0.0
 40
0.0
 40
0.0
 40
0.0
 40
1.0
 40
1.0
 40
1.0
 40
1.0
 10
1155.748746229938
 20
51.84313216644151
 42
1.0
 10
1154.071163873587
 20
50.72204297401345
 42
1.0
 10
1151.885126764759
 20
50.32384505744639
 42
1.0
 10
1149.858253067349
 20
50.32384505744639
 42
1.0
 72
     4
 94
        3
 73
     1
 74
     0
 95
        8
 96
        4
 40
1.0
 40
1.0
 40
1.0
 40
1.0
 40
2.0
 40
2.0
 40
2.0
 40
2.0
 10
1149.858253067349
 20
50.32384505744639
 42
1.0
 10
1143.996119930793
 20
50.32384505744639
 42
1.0
 10
1140.475135882194
 20
54.0277223351662
 42
1.0
 10
1140.475135882194
 20
59.86757259412293
 42
1.0
 72
     4
 94
        3
 73
     1
 74
     0
 95
        8
 96
        4
 40
2.0
 40
2.0
 40
2.0
 40
2.0
 40
3.0
 40
3.0
 40
3.0
 40
3.0
 10
1140.475135882194
 20
59.86757259412293
 42
1.0
 10
1140.475135882194
 20
65.86354769028017
 42
1.0
 10
1144.899299943588
 20
69.27413020895878
 42
1.0
 10
1150.525292455202
 20
69.27413020895878
 42
1.0
 72
     4
 94
        3
 73
     1
 74
     0
 95
        8
 96
        4
 40
3.0
 40
3.0
 40
3.0
 40
3.0
 40
4.0
 40
4.0
 40
4.0
 40
4.0
 10
1150.525292455202
 20
69.27413020895878
 42
1.0
 10
1152.469979954716
 20
69.27413020895878
 42
1.0
 10
1154.470229954216
 20
68.82442122469622
 42
1.0
 10
1156.255464654291
 20
68.05074235119167
 42
1.0
 72
     4
 94
        3
 73
     1
 74
     0
 95
        8
 96
        4
 40
4.0
 40
4.0
 40
4.0
 40
4.0
 40
5.0
 40
5.0
 40
5.0
 40
5.0
 10
1156.255464654291
 20
68.05074235119167
 42
1.0
 10
1155.987201959045
 20
67.3837029633376
 42
1.0
 10
1155.830064263772
 20
66.69047395960467
 42
1.0
 10
1155.69607761016
 20
65.99492985170563
 42
1.0
 72
     1
 10
1155.69607761016
 20
65.99492985170563
 11
1155.508264784686
 21
65.96960839988905
 72
     4
 94
        3
 73
     1
 74
     0
 95
        8
 96
        4
 40
6.0
 40
6.0
 40
6.0
 40
6.0
 40
7.0
 40
7.0
 40
7.0
 40
7.0
 10
1155.508264784686
 20
65.96960839988905
 42
1.0
 10
1155.135533013945
 20
66.45129476044569
 42
1.0
 10
1153.162485488397
 20
68.26242968837832
 42
1.0
 10
1150.418797663562
 20
68.26242968837832
 42
1.0
 72
     4
 94
        3
 73
     1
 74
     0
 95
        8
 96
        4
 40
7.0
 40
7.0
 40
7.0
 40
7.0
 40
8.0
 40
8.0
 40
8.0
 40
8.0
 10
1150.418797663562
 20
68.26242968837832
 42
1.0
 10
1145.513960099684
 20
68.26242968837832
 42
1.0
 10
1143.087730933624
 20
64.28985563338189
 42
1.0
 10
1143.087730933624
 20
59.7606437204517
 42
1.0
 72
     4
 94
        3
 73
     1
 74
     0
 95
        8
 96
        4
 40
8.0
 40
8.0
 40
8.0
 40
8.0
 40
9.0
 40
9.0
 40
9.0
 40
9.0
 10
1143.087730933624
 20
59.7606437204517
 42
1.0
 10
1143.087730933624
 20
54.64035677511723
 42
1.0
 10
1146.018652807891
 20
51.36390560406131
 42
1.0
 10
1150.229827286005
 20
51.36390560406131
 42
1.0
 97
        0
 75
     0
 76
     1
 98
        1
 10
0.0
 20
0.0
  0
HATCH
  5
80
330
1F
100
AcDbEntity
  8
0
  6
Continuous
 62
     0
100
AcDbHatch
 10
0.0
 20
0.0
 30
0.0
210
0.0
220
0.0
230
1.0
  2
SOLID
 70
     1
 71
     0
 91
        1
 92
        0
 93
        8
 72
     1
 10
1061.200181474929
 20
44.01099007855576
 11
1061.200181474929
 21
43.18854932355303
 72
     1
 10
1061.200181474929
 20
43.18854932355303
 11
1059.466747230571
 21
43.18854932355303
 72
     1
 10
1059.466747230571
 20
43.18854932355303
 11
1059.466747230571
 21
38.56297119970949
 72
     1
 10
1059.466747230571
 20
38.56297119970949
 11
1058.512345538101
 21
38.56297119970949
 72
     1
 10
1058.512345538101
 20
38.56297119970949
 11
1058.512345538101
 21
43.18854932355303
 72
     1
 10
1058.512345538101
 20
43.18854932355303
 11
1056.787014158324
 21
43.18854932355303
 72
     1
 10
1056.787014158324
 20
43.18854932355303
 11
1056.787014158324
 21
44.01099007855576
 72
     1
 10
1056.787014158324
 20
44.01099007855576
 11
1061.200181474929
 21
44.01099007855576
 97
        0
 75
     0
 76
     1
 98
        1
 10
0.0
 20
0.0
  0
HATCH
  5
81
330
1F
100
AcDbEntity
  8
0
  6
Continuous
 62
     0
100
AcDbHatch
 10
0.0
 20
0.0
 30
0.0
210
0.0
220
0.0
230
1.0
  2
SOLID
 70
     1
 71
     0
 91
        2
 92
        0
 93
        8
 72
     1
 10
1062.587941728488
 20
44.01099007855576
 11
1060.497257972501
 21
38.56297119970949
 72
     1
 10
1060.497257972501
 20
38.56297119970949
 11
1061.482624183192
 21
38.56297119970949
 72
     1
 10
1061.482624183192
 20
38.56297119970949
 11
1061.995998532022
 21
40.00354476705768
 72
     1
 10
1061.995998532022
 20
40.00354476705768
 11
1064.169447261947
 21
40.00354476705768
 72
     1
 10
1064.169447261947
 20
40.00354476705768
 11
1064.681374670674
 21
38.56297119970949
 72
     1
 10
1064.681374670674
 20
38.56297119970949
 11
1065.705374182137
 21
38.56297119970949
 72
     1
 10
1065.705374182137
 20
38.56297119970949
 11
1063.604995927453
 21
44.01099007855576
 72
     1
 10
1063.604995927453
 20
44.01099007855576
 11
1062.587941728488
 21
44.01099007855576
 97
        0
 92
        0
 93
        4
 72
     1
 10
1063.918837235969
 20
40.72932992312625
 11
1062.252975094458
 21
40.72932992312625
 72
     1
 10
1062.252975094458
 20
40.72932992312625
 11
1063.079177893731
 21
43.07395166733169
 72
     1
 10
1063.079177893731
 20
43.07395166733169
 11
1063.100303219246
 21
43.07395166733169
 72
     1
 10
1063.100303219246
 20
43.07395166733169
 11
1063.918837235969
 21
40.72932992312625
 97
        0
 75
     0
 76
     1
 98
        1
 10
0.0
 20
0.0
  0
HATCH
  5
82
330
1F
100
AcDbEntity
  8
0
  6
Continuous
 62
     0
100
AcDbHatch
 10
0.0
 20
0.0
 30
0.0
210
0.0
220
0.0
230
1.0
  2
SOLID
 70
     1
 71
     0
 91
        1
 92
        0
 93
       12
 72
     1
 10
1069.605022455901
 20
44.01099007855576
 11
1070.780227208211
 21
44.01099007855576
 72
     1
 10
1070.780227208211
 20
44.01099007855576
 11
1068.604752762141
 21
41.8382648186823
 72
     1
 10
1068.604752762141
 20
41.8382648186823
 11
1070.932011225101
 21
38.56297119970949
 72
     1
 10
1070.932011225101
 20
38.56297119970949
 11
1069.742337071752
 21
38.56297119970949
 72
     1
 10
1069.742337071752
 20
38.56297119970949
 11
1067.956378901626
 21
41.16514828239225
 72
     1
 10
1067.956378901626
 20
41.16514828239225
 11
1067.176912267706
 21
40.39132471487739
 72
     1
 10
1067.176912267706
 20
40.39132471487739
 11
1067.176912267706
 21
38.56297119970949
 72
     1
 10
1067.176912267706
 20
38.56297119970949
 11
1066.223089351278
 21
38.56297119970949
 72
     1
 10
1066.223089351278
 20
38.56297119970949
 11
1066.223089351278
 21
44.01099007855576
 72
     1
 10
1066.223089351278
 20
44.01099007855576
 11
1067.176912267706
 21
44.01099007855576
 72
     1
 10
1067.176912267706
 20
44.01099007855576
 11
1067.176912267706
 21
41.53209229271719
 72
     1
 10
1067.176912267706
 20
41.53209229271719
 11
1069.605022455901
 21
44.01099007855576
 97
        0
 75
     0
 76
     1
 98
        1
 10
0.0
 20
0.0
  0
HATCH
  5
83
330
1F
100
AcDbEntity
  8
0
  6
Continuous
 62
     0
100
AcDbHatch
 10
0.0
 20
0.0
 30
0.0
210
0.0
220
0.0
230
1.0
  2
SOLID
 70
     1
 71
     0
 91
        2
 92
        0
 93
        8
 72
     1
 10
1072.910412429033
 20
44.01099007855576
 11
1070.819294591014
 21
38.56297119970949
 72
     1
 10
1070.819294591014
 20
38.56297119970949
 11
1071.803069167592
 21
38.56297119970949
 72
     1
 10
1071.803069167592
 20
38.56297119970949
 11
1072.314128412256
 21
40.00354476705768
 72
     1
 10
1072.314128412256
 20
40.00354476705768
 11
1074.488590000253
 21
40.00354476705768
 72
     1
 10
1074.488590000253
 20
40.00354476705768
 11
1075.000083326948
 21
38.56297119970949
 72
     1
 10
1075.000083326948
 20
38.56297119970949
 11
1076.024806308463
 21
38.56297119970949
 72
     1
 10
1076.024806308463
 20
38.56297119970949
 11
1073.924138665759
 21
44.01099007855576
 72
     1
 10
1073.924138665759
 20
44.01099007855576
 11
1072.910412429033
 21
44.01099007855576
 97
        0
 92
        0
 93
        4
 72
     1
 10
1074.236967116201
 20
40.72932992312625
 11
1072.572407220784
 21
40.72932992312625
 72
     1
 10
1072.572407220784
 20
40.72932992312625
 11
1073.397307773964
 21
43.07395166733169
 72
     1
 10
1073.397307773964
 20
43.07395166733169
 11
1073.420314121614
 21
43.07395166733169
 72
     1
 10
1073.420314121614
 20
43.07395166733169
 11
1074.236967116201
 21
40.72932992312625
 97
        0
 75
     0
 76
     1
 98
        1
 10
0.0
 20
0.0
  0
HATCH
  5
84
330
1F
100
AcDbEntity
  8
0
  6
Continuous
 62
     0
100
AcDbHatch
 10
0.0
 20
0.0
 30
0.0
210
0.0
220
0.0
230
1.0
  2
SOLID
 70
     1
 71
     0
 91
        1
 92
        0
 93
       16
 72
     4
 94
        3
 73
     1
 74
     0
 95
        8
 96
        4
 40
14.0
 40
14.0
 40
14.0
 40
14.0
 40
15.0
 40
15.0
 40
15.0
 40
15.0
 10
1078.489524081284
 20
38.431589038284
 42
1.0
 10
1077.246313144095
 20
38.431589038284
 42
1.0
 10
1076.23692772768
 20
39.02714958501006
 42
1.0
 10
1076.215223626123
 20
40.38090674612996
 42
1.0
 72
     1
 10
1076.215223626123
 20
40.38090674612996
 11
1077.1683230725
 21
40.38090674612996
 72
     4
 94
        3
 73
     1
 74
     0
 95
        8
 96
        4
 40
0.0
 40
0.0
 40
0.0
 40
0.0
 40
1.0
 40
1.0
 40
1.0
 40
1.0
 10
1077.1683230725
 20
40.38090674612996
 42
1.0
 10
1077.1683230725
 20
39.53820882967392
 42
1.0
 10
1077.787613436928
 20
39.21004281413101
 42
1.0
 10
1078.550729647675
 20
39.21004281413101
 42
1.0
 72
     4
 94
        3
 73
     1
 74
     0
 95
        8
 96
        4
 40
1.0
 40
1.0
 40
1.0
 40
1.0
 40
2.0
 40
2.0
 40
2.0
 40
2.0
 10
1078.550729647675
 20
39.21004281413101
 42
1.0
 10
1079.391401847986
 20
39.21004281413101
 42
1.0
 10
1079.701915194262
 20
39.62502523590232
 42
1.0
 10
1079.701915194262
 20
40.03653500142445
 42
1.0
 72
     4
 94
        3
 73
     1
 74
     0
 95
        8
 96
        4
 40
2.0
 40
2.0
 40
2.0
 40
2.0
 40
3.0
 40
3.0
 40
3.0
 40
3.0
 10
1079.701915194262
 20
40.03653500142445
 42
1.0
 10
1079.701915194262
 20
40.4555688554864
 42
1.0
 10
1079.473877433903
 20
40.62572901169374
 42
1.0
 10
1079.252061515989
 20
40.70791520958988
 42
1.0
 72
     4
 94
        3
 73
     1
 74
     0
 95
        8
 96
        4
 40
3.0
 40
3.0
 40
3.0
 40
3.0
 40
4.0
 40
4.0
 40
4.0
 40
4.0
 10
1079.252061515989
 20
40.70791520958988
 42
1.0
 10
1078.870792798637
 20
40.85376677205343
 42
1.0
 10
1078.374781731052
 20
40.9492648189046
 42
1.0
 10
1077.626134921344
 20
41.1576241938525
 42
1.0
 72
     4
 94
        3
 73
     1
 74
     0
 95
        8
 96
        4
 40
4.0
 40
4.0
 40
4.0
 40
4.0
 40
5.0
 40
5.0
 40
5.0
 40
5.0
 10
1077.626134921344
 20
41.1576241938525
 42
1.0
 10
1076.696331210639
 20
41.40997054795598
 42
1.0
 10
1076.421557284926
 20
41.97659229260609
 42
1.0
 10
1076.421557284926
 20
42.53800505288232
 42
1.0
 72
     4
 94
        3
 73
     1
 74
     0
 95
        8
 96
        4
 40
5.0
 40
5.0
 40
5.0
 40
5.0
 40
6.0
 40
6.0
 40
6.0
 40
6.0
 10
1076.421557284926
 20
42.53800505288232
 42
1.0
 10
1076.421557284926
 20
43.63015544323429
 42
1.0
 10
1077.428482903164
 20
44.14410856810587
 42
1.0
 10
1078.412836255782
 20
44.14410856810587
 42
1.0
 72
     4
 94
        3
 73
     1
 74
     0
 95
        8
 96
        4
 40
6.0
 40
6.0
 40
6.0
 40
6.0
 40
7.0
 40
7.0
 40
7.0
 40
7.0
 10
1078.412836255782
 20
44.14410856810587
 42
1.0
 10
1079.549986483363
 20
44.14410856810587
 42
1.0
 10
1080.505835115936
 20
43.53813005263238
 42
1.0
 10
1080.505835115936
 20
42.40141390708319
 42
1.0
 72
     1
 10
1080.505835115936
 20
42.40141390708319
 11
1079.549986483363
 21
42.40141390708319
 72
     4
 94
        3
 73
     1
 74
     0
 95
        8
 96
        4
 40
8.0
 40
8.0
 40
8.0
 40
8.0
 40
9.0
 40
9.0
 40
9.0
 40
9.0
 10
1079.549986483363
 20
42.40141390708319
 42
1.0
 10
1079.503684400041
 20
43.10578434961536
 42
1.0
 10
1079.030390292086
 20
43.36507601621726
 42
1.0
 10
1078.374781731052
 20
43.36507601621726
 42
1.0
 72
     4
 94
        3
 73
     1
 74
     0
 95
        8
 96
        4
 40
9.0
 40
9.0
 40
9.0
 40
9.0
 40
10.0
 40
10.0
 40
10.0
 40
10.0
 10
1078.374781731052
 20
43.36507601621726
 42
1.0
 10
1077.932307447309
 20
43.36507601621726
 42
1.0
 10
1077.375090813333
 20
43.20359750063262
 42
1.0
 10
1077.375090813333
 20
42.6543390372283
 42
1.0
 72
     4
 94
        3
 73
     1
 74
     0
 95
        8
 96
        4
 40
10.0
 40
10.0
 40
10.0
 40
10.0
 40
11.0
 40
11.0
 40
11.0
 40
11.0
 10
1077.375090813333
 20
42.6543390372283
 42
1.0
 10
1077.375090813333
 20
42.27234684982381
 42
1.0
 10
1077.634816561967
 20
42.05704216237759
 42
1.0
 10
1078.022885897807
 20
41.95170492282058
 42
1.0
 72
     4
 94
        3
 73
     1
 74
     0
 95
        8
 96
        4
 40
11.0
 40
11.0
 40
11.0
 40
11.0
 40
12.0
 40
12.0
 40
12.0
 40
12.0
 10
1078.022885897807
 20
41.95170492282058
 42
1.0
 10
1078.109123527994
 20
41.92797510511826
 42
1.0
 10
1079.313267082381
 20
41.61775114686245
 42
1.0
 10
1079.595275708612
 20
41.53209229271719
 42
1.0
 72
     4
 94
        3
 73
     1
 74
     0
 95
        8
 96
        4
 40
12.0
 40
12.0
 40
12.0
 40
12.0
 40
13.0
 40
13.0
 40
13.0
 40
13.0
 10
1079.595275708612
 20
41.53209229271719
 42
1.0
 10
1080.313102694109
 20
41.31794515735407
 42
1.0
 10
1080.655882804701
 20
40.70791520958988
 42
1.0
 10
1080.655882804701
 20
40.14187224098146
 42
1.0
 72
     4
 94
        3
 73
     1
 74
     0
 95
        8
 96
        4
 40
13.0
 40
13.0
 40
13.0
 40
13.0
 40
14.0
 40
14.0
 40
14.0
 40
14.0
 10
1080.655882804701
 20
40.14187224098146
 42
1.0
 10
1080.655882804701
 20
38.92123356941158
 42
1.0
 10
1079.572703442992
 20
38.431589038284
 42
1.0
 10
1078.489524081284
 20
38.431589038284
 42
1.0
 97
        0
 75
     0
 76
     1
 98
        1
 10
0.0
 20
0.0
  0
HATCH
  5
85
330
1F
100
AcDbEntity
  8
0
  6
Continuous
 62
     0
100
AcDbHatch
 10
0.0
 20
0.0
 30
0.0
210
0.0
220
0.0
230
1.0
  2
SOLID
 70
     1
 71
     0
 91
        1
 92
        0
 93
       12
 72
     1
 10
1081.464722322728
 20
38.56297119970949
 11
1081.464722322728
 21
44.01099007855576
 72
     1
 10
1081.464722322728
 20
44.01099007855576
 11
1082.422017895405
 21
44.01099007855576
 72
     1
 10
1082.422017895405
 20
44.01099007855576
 11
1082.422017895405
 21
41.84347380305602
 72
     1
 10
1082.422017895405
 20
41.84347380305602
 11
1084.902073233327
 21
41.84347380305602
 72
     1
 10
1084.902073233327
 20
41.84347380305602
 11
1084.902073233327
 21
44.01099007855576
 72
     1
 10
1084.902073233327
 20
44.01099007855576
 11
1085.854593903662
 21
44.01099007855576
 72
     1
 10
1085.854593903662
 20
44.01099007855576
 11
1085.854593903662
 21
38.56297119970949
 72
     1
 10
1085.854593903662
 20
38.56297119970949
 11
1084.902073233327
 21
38.56297119970949
 72
     1
 10
1084.902073233327
 20
38.56297119970949
 11
1084.902073233327
 21
41.02219060013635
 72
     1
 10
1084.902073233327
 20
41.02219060013635
 11
1082.422017895405
 21
41.02219060013635
 72
     1
 10
1082.422017895405
 20
41.02219060013635
 11
1082.422017895405
 21
38.56297119970949
 72
     1
 10
1082.422017895405
 20
38.56297119970949
 11
1081.464722322728
 21
38.56297119970949
 97
        0
 75
     0
 76
     1
 98
        1
 10
0.0
 20
0.0
  0
HATCH
  5
86
330
1F
100
AcDbEntity
  8
0
  6
Continuous
 62
     0
100
AcDbHatch
 10
0.0
 20
0.0
 30
0.0
210
0.0
220
0.0
230
1.0
  2
SOLID
 70
     1
 71
     0
 91
        2
 92
        0
 93
        2
 72
     4
 94
        3
 73
     1
 74
     0
 95
       11
 96
        7
 40
0.0
 40
0.0
 40
0.0
 40
0.0
 40
1.0
 40
1.0
 40
1.0
 40
2.0
 40
2.0
 40
2.0
 40
2.0
 10
1089.320304840295
 20
44.14410856810587
 42
1.0
 10
1087.685262522996
 20
44.14410856810587
 42
1.0
 10
1086.710314281052
 20
42.84417757884743
 42
1.0
 10
1086.710314281052
 20
41.28611247507036
 42
1.0
 10
1086.710314281052
 20
39.7320988035839
 42
1.0
 10
1087.685262522996
 20
38.431589038284
 42
1.0
 10
1089.320304840295
 20
38.431589038284
 42
1.0
 72
     4
 94
        3
 73
     1
 74
     0
 95
       11
 96
        7
 40
2.0
 40
2.0
 40
2.0
 40
2.0
 40
3.0
 40
3.0
 40
3.0
 40
4.0
 40
4.0
 40
4.0
 40
4.0
 10
1089.320304840295
 20
38.431589038284
 42
1.0
 10
1090.952453277388
 20
38.431589038284
 42
1.0
 10
1091.930006011518
 20
39.7320988035839
 42
1.0
 10
1091.930006011518
 20
41.28611247507036
 42
1.0
 10
1091.930006011518
 20
42.84417757884743
 42
1.0
 10
1090.952453277388
 20
44.14410856810587
 42
1.0
 10
1089.320304840295
 20
44.14410856810587
 42
1.0
 97
        0
 92
        0
 93
        2
 72
     4
 94
        3
 73
     1
 74
     0
 95
       11
 96
        7
 40
2.0
 40
2.0
 40
2.0
 40
2.0
 40
3.0
 40
3.0
 40
3.0
 40
4.0
 40
4.0
 40
4.0
 40
4.0
 10
1089.320304840295
 20
39.21004281413101
 42
1.0
 10
1088.150019684338
 20
39.21004281413101
 42
1.0
 10
1087.663269033418
 20
40.24315804824777
 42
1.0
 10
1087.663269033418
 20
41.28611247507036
 42
1.0
 10
1087.663269033418
 20
42.33253955814209
 42
1.0
 10
1088.150019684338
 20
43.36507601621726
 42
1.0
 10
1089.320304840295
 20
43.36507601621726
 42
1.0
 72
     4
 94
        3
 73
     1
 74
     0
 95
       11
 96
        7
 40
0.0
 40
0.0
 40
0.0
 40
0.0
 40
1.0
 40
1.0
 40
1.0
 40
2.0
 40
2.0
 40
2.0
 40
2.0
 10
1089.320304840295
 20
43.36507601621726
 42
1.0
 10
1090.487985504066
 20
43.36507601621726
 42
1.0
 10
1090.974736154986
 20
42.33253955814209
 42
1.0
 10
1090.974736154986
 20
41.28611247507036
 42
1.0
 10
1090.974736154986
 20
40.24315804824777
 42
1.0
 10
1090.487985504066
 20
39.21004281413101
 42
1.0
 10
1089.320304840295
 20
39.21004281413101
 42
1.0
 97
        0
 75
     0
 76
     1
 98
        1
 10
0.0
 20
0.0
  0
HATCH
  5
87
330
1F
100
AcDbEntity
  8
0
  6
Continuous
 62
     0
100
AcDbHatch
 10
0.0
 20
0.0
 30
0.0
210
0.0
220
0.0
230
1.0
  2
SOLID
 70
     1
 71
     0
 91
        2
 92
        0
 93
        5
 72
     4
 94
        3
 73
     1
 74
     0
 95
        8
 96
        4
 40
2.0
 40
2.0
 40
2.0
 40
2.0
 40
3.0
 40
3.0
 40
3.0
 40
3.0
 10
1099.586055488771
 20
41.28611247507036
 42
1.0
 10
1099.586055488771
 20
42.79150895906894
 42
1.0
 10
1098.860559720722
 20
44.01099007855576
 42
1.0
 10
1097.179794096143
 20
44.01099007855576
 42
1.0
 72
     1
 10
1097.179794096143
 20
44.01099007855576
 11
1094.921699370145
 21
44.01099007855576
 72
     1
 10
1094.921699370145
 20
44.01099007855576
 11
1094.921699370145
 21
38.56297119970949
 72
     1
 10
1094.921699370145
 20
38.56297119970949
 11
1097.179794096143
 21
38.56297119970949
 72
     4
 94
        3
 73
     1
 74
     0
 95
        8
 96
        4
 40
1.0
 40
1.0
 40
1.0
 40
1.0
 40
2.0
 40
2.0
 40
2.0
 40
2.0
 10
1097.179794096143
 20
38.56297119970949
 42
1.0
 10
1098.860559720722
 20
38.56297119970949
 42
1.0
 10
1099.586055488771
 20
39.78303109523777
 42
1.0
 10
1099.586055488771
 20
41.28611247507036
 42
1.0
 97
        0
 92
        0
 93
        5
 72
     4
 94
        3
 73
     1
 74
     0
 95
        8
 96
        4
 40
1.0
 40
1.0
 40
1.0
 40
1.0
 40
2.0
 40
2.0
 40
2.0
 40
2.0
 10
1096.815743966026
 20
43.23311507875021
 42
1.0
 10
1098.309564929194
 20
43.23311507875021
 42
1.0
 10
1098.6316537963
 20
42.37999919354682
 42
1.0
 10
1098.6316537963
 20
41.28611247507036
 42
1.0
 72
     4
 94
        3
 73
     1
 74
     0
 95
        8
 96
        4
 40
2.0
 40
2.0
 40
2.0
 40
2.0
 40
3.0
 40
3.0
 40
3.0
 40
3.0
 10
1098.6316537963
 20
41.28611247507036
 42
1.0
 10
1098.6316537963
 20
40.19801351700904
 42
1.0
 10
1098.309564929194
 20
39.34200375159802
 42
1.0
 10
1096.815743966026
 20
39.34200375159802
 42
1.0
 72
     1
 10
1096.815743966026
 20
39.34200375159802
 11
1095.876101062615
 21
39.34200375159802
 72
     1
 10
1095.876101062615
 20
39.34200375159802
 11
1095.876101062615
 21
43.23311507875021
 72
     1
 10
1095.876101062615
 20
43.23311507875021
 11
1096.815743966026
 21
43.23311507875021
 97
        0
 75
     0
 76
     1
 98
        1
 10
0.0
 20
0.0
  0
HATCH
  5
88
330
1F
100
AcDbEntity
  8
0
  6
Continuous
 62
     0
100
AcDbHatch
 10
0.0
 20
0.0
 30
0.0
210
0.0
220
0.0
230
1.0
  2
SOLID
 70
     1
 71
     0
 91
        1
 92
        0
 93
        4
 72
     1
 10
1100.433383613558
 20
38.56297119970949
 11
1100.433383613558
 21
44.01099007855576
 72
     1
 10
1100.433383613558
 20
44.01099007855576
 11
1101.387785306028
 21
44.01099007855576
 72
     1
 10
1101.387785306028
 20
44.01099007855576
 11
1101.387785306028
 21
38.56297119970949
 72
     1
 10
1101.387785306028
 20
38.56297119970949
 11
1100.433383613558
 21
38.56297119970949
 97
        0
 75
     0
 76
     1
 98
        1
 10
0.0
 20
0.0
  0
HATCH
  5
89
330
1F
100
AcDbEntity
  8
0
  6
Continuous
 62
     0
100
AcDbHatch
 10
0.0
 20
0.0
 30
0.0
210
0.0
220
0.0
230
1.0
  2
SOLID
 70
     1
 71
     0
 91
        1
 92
        0
 93
       15
 72
     4
 94
        3
 73
     1
 74
     0
 95
        8
 96
        4
 40
10.0
 40
10.0
 40
10.0
 40
10.0
 40
11.0
 40
11.0
 40
11.0
 40
11.0
 10
1104.91339956296
 20
39.21004281413101
 42
1.0
 10
1105.89095229709
 20
39.19846729330061
 42
1.0
 10
1106.424294419352
 20
39.78303109523777
 42
1.0
 10
1106.440210760494
 20
40.70791520958988
 42
1.0
 72
     1
 10
1106.440210760494
 20
40.70791520958988
 11
1104.987772284295
 21
40.70791520958988
 72
     1
 10
1104.987772284295
 20
40.70791520958988
 11
1104.987772284295
 21
41.43312158961696
 72
     1
 10
1104.987772284295
 20
41.43312158961696
 11
1107.311268702985
 21
41.43312158961696
 72
     1
 10
1107.311268702985
 20
41.43312158961696
 11
1107.311268702985
 21
38.56297119970949
 72
     1
 10
1107.311268702985
 20
38.56297119970949
 11
1106.698923651055
 21
38.56297119970949
 72
     1
 10
1106.698923651055
 20
38.56297119970949
 11
1106.554519028695
 21
39.20367627767433
 72
     4
 94
        3
 73
     1
 74
     0
 95
        8
 96
        4
 40
2.0
 40
2.0
 40
2.0
 40
2.0
 40
3.0
 40
3.0
 40
3.0
 40
3.0
 10
1106.554519028695
 20
39.20367627767433
 42
1.0
 10
1106.042591619969
 20
38.62432146011087
 42
1.0
 10
1105.574361802377
 20
38.431589038284
 42
1.0
 10
1104.91339956296
 20
38.431589038284
 42
1.0
 72
     4
 94
        3
 73
     1
 74
     0
 95
        8
 96
        4
 40
3.0
 40
3.0
 40
3.0
 40
3.0
 40
4.0
 40
4.0
 40
4.0
 40
4.0
 10
1104.91339956296
 20
38.431589038284
 42
1.0
 10
1103.27835724566
 20
38.431589038284
 42
1.0
 10
1102.301962063612
 20
39.7320988035839
 42
1.0
 10
1102.301962063612
 20
41.28611247507036
 42
1.0
 72
     4
 94
        3
 73
     1
 74
     0
 95
        8
 96
        4
 40
4.0
 40
4.0
 40
4.0
 40
4.0
 40
5.0
 40
5.0
 40
5.0
 40
5.0
 10
1102.301962063612
 20
41.28611247507036
 42
1.0
 10
1102.301962063612
 20
42.84417757884743
 42
1.0
 10
1103.27835724566
 20
44.14410856810587
 42
1.0
 10
1104.91339956296
 20
44.14410856810587
 42
1.0
 72
     4
 94
        3
 73
     1
 74
     0
 95
        8
 96
        4
 40
5.0
 40
5.0
 40
5.0
 40
5.0
 40
6.0
 40
6.0
 40
6.0
 40
6.0
 10
1104.91339956296
 20
44.14410856810587
 42
1.0
 10
1106.102205552246
 20
44.14410856810587
 42
1.0
 10
1107.104356268141
 20
43.51150635472239
 42
1.0
 10
1107.249050278522
 20
42.27987093836353
 42
1.0
 72
     1
 10
1107.249050278522
 20
42.27987093836353
 11
1106.31664207563
 21
42.27987093836353
 72
     4
 94
        3
 73
     1
 74
     0
 95
        8
 96
        4
 40
7.0
 40
7.0
 40
7.0
 40
7.0
 40
8.0
 40
8.0
 40
8.0
 40
8.0
 10
1106.31664207563
 20
42.27987093836353
 42
1.0
 10
1106.226063625131
 20
42.99871078193382
 42
1.0
 10
1105.598959784142
 20
43.36507601621726
 42
1.0
 10
1104.91339956296
 20
43.36507601621726
 42
1.0
 72
     4
 94
        3
 73
     1
 74
     0
 95
        8
 96
        4
 40
8.0
 40
8.0
 40
8.0
 40
8.0
 40
9.0
 40
9.0
 40
9.0
 40
9.0
 10
1104.91339956296
 20
43.36507601621726
 42
1.0
 10
1103.745140123147
 20
43.36507601621726
 42
1.0
 10
1103.256363756082
 20
42.33253955814209
 42
1.0
 10
1103.256363756082
 20
41.28611247507036
 42
1.0
 72
     4
 94
        3
 73
     1
 74
     0
 95
        8
 96
        4
 40
9.0
 40
9.0
 40
9.0
 40
9.0
 40
10.0
 40
10.0
 40
10.0
 40
10.0
 10
1103.256363756082
 20
41.28611247507036
 42
1.0
 10
1103.256363756082
 20
40.24315804824777
 42
1.0
 10
1103.745140123147
 20
39.21004281413101
 42
1.0
 10
1104.91339956296
 20
39.21004281413101
 42
1.0
 97
        0
 75
     0
 76
     1
 98
        1
 10
0.0
 20
0.0
  0
HATCH
  5
8A
330
1F
100
AcDbEntity
  8
0
  6
Continuous
 62
     0
100
AcDbHatch
 10
0.0
 20
0.0
 30
0.0
210
0.0
220
0.0
230
1.0
  2
SOLID
 70
     1
 71
     0
 91
        1
 92
        0
 93
        4
 72
     1
 10
1108.348145981372
 20
38.56297119970949
 11
1108.348145981372
 21
44.01099007855576
 72
     1
 10
1108.348145981372
 20
44.01099007855576
 11
1109.301100733737
 21
44.01099007855576
 72
     1
 10
1109.301100733737
 20
44.01099007855576
 11
1109.301100733737
 21
38.56297119970949
 72
     1
 10
1109.301100733737
 20
38.56297119970949
 11
1108.348145981372
 21
38.56297119970949
 97
        0
 75
     0
 76
     1
 98
        1
 10
0.0
 20
0.0
  0
HATCH
  5
8B
330
1F
100
AcDbEntity
  8
0
  6
Continuous
 62
     0
100
AcDbHatch
 10
0.0
 20
0.0
 30
0.0
210
0.0
220
0.0
230
1.0
  2
SOLID
 70
     1
 71
     0
 91
        1
 92
        0
 93
        8
 72
     1
 10
1109.950487452325
 20
43.18854932355303
 11
1109.950487452325
 21
44.01099007855576
 72
     1
 10
1109.950487452325
 20
44.01099007855576
 11
1114.363075992889
 21
44.01099007855576
 72
     1
 10
1114.363075992889
 20
44.01099007855576
 11
1114.363075992889
 21
43.18854932355303
 72
     1
 10
1114.363075992889
 20
43.18854932355303
 11
1112.629641748531
 21
43.18854932355303
 72
     1
 10
1112.629641748531
 20
43.18854932355303
 11
1112.629641748531
 21
38.56297119970949
 72
     1
 10
1112.629641748531
 20
38.56297119970949
 11
1111.676686996164
 21
38.56297119970949
 72
     1
 10
1111.676686996164
 20
38.56297119970949
 11
1111.676686996164
 21
43.18854932355303
 72
     1
 10
1111.676686996164
 20
43.18854932355303
 11
1109.950487452325
 21
43.18854932355303
 97
        0
 75
     0
 76
     1
 98
        1
 10
0.0
 20
0.0
  0
HATCH
  5
8C
330
1F
100
AcDbEntity
  8
0
  6
Continuous
 62
     0
100
AcDbHatch
 10
0.0
 20
0.0
 30
0.0
210
0.0
220
0.0
230
1.0
  2
SOLID
 70
     1
 71
     0
 91
        1
 92
        0
 93
       12
 72
     1
 10
1114.995388818252
 20
38.56297119970949
 11
1114.995388818252
 21
44.01099007855576
 72
     1
 10
1114.995388818252
 20
44.01099007855576
 11
1118.918332827687
 21
44.01099007855576
 72
     1
 10
1118.918332827687
 20
44.01099007855576
 11
1118.918332827687
 21
43.18854932355303
 72
     1
 10
1118.918332827687
 20
43.18854932355303
 11
1115.950948062804
 21
43.18854932355303
 72
     1
 10
1115.950948062804
 20
43.18854932355303
 11
1115.950948062804
 21
41.75897250099383
 72
     1
 10
1115.950948062804
 20
41.75897250099383
 11
1118.696661603785
 21
41.75897250099383
 72
     1
 10
1118.696661603785
 20
41.75897250099383
 11
1118.696661603785
 21
40.98341260535431
 72
     1
 10
1118.696661603785
 20
40.98341260535431
 11
1115.950948062804
 21
40.98341260535431
 72
     1
 10
1115.950948062804
 20
40.98341260535431
 11
1115.950948062804
 21
39.38830583491981
 72
     1
 10
1115.950948062804
 20
39.38830583491981
 11
1118.969843895383
 21
39.38830583491981
 72
     1
 10
1118.969843895383
 20
39.38830583491981
 11
1118.969843895383
 21
38.56297119970949
 72
     1
 10
1118.969843895383
 20
38.56297119970949
 11
1114.995388818252
 21
38.56297119970949
 97
        0
 75
     0
 76
     1
 98
        1
 10
0.0
 20
0.0
  0
HATCH
  5
8D
330
1F
100
AcDbEntity
  8
0
  6
Continuous
 62
     0
100
AcDbHatch
 10
0.0
 20
0.0
 30
0.0
210
0.0
220
0.0
230
1.0
  2
SOLID
 70
     1
 71
     0
 91
        1
 92
        0
 93
       10
 72
     4
 94
        3
 73
     1
 74
     0
 95
        8
 96
        4
 40
8.0
 40
8.0
 40
8.0
 40
8.0
 40
9.0
 40
9.0
 40
9.0
 40
9.0
 10
1122.12533087376
 20
44.14410856810587
 42
1.0
 10
1123.355519350016
 20
44.1354269274831
 42
1.0
 10
1124.323522279461
 20
43.45710140681925
 42
1.0
 10
1124.439566875786
 20
42.27987093836353
 42
1.0
 72
     1
 10
1124.439566875786
 20
42.27987093836353
 11
1123.484297019255
 21
42.27987093836353
 72
     4
 94
        3
 73
     1
 74
     0
 95
        8
 96
        4
 40
0.0
 40
0.0
 40
0.0
 40
0.0
 40
1.0
 40
1.0
 40
1.0
 40
1.0
 10
1123.484297019255
 20
42.27987093836353
 42
1.0
 10
1123.323686667732
 20
42.90668539133191
 42
1.0
 10
1122.919122214708
 20
43.36507601621726
 42
1.0
 10
1122.12533087376
 20
43.36507601621726
 42
1.0
 72
     4
 94
        3
 73
     1
 74
     0
 95
        8
 96
        4
 40
1.0
 40
1.0
 40
1.0
 40
1.0
 40
2.0
 40
2.0
 40
2.0
 40
2.0
 10
1122.12533087376
 20
43.36507601621726
 42
1.0
 10
1120.958807762073
 20
43.36507601621726
 42
1.0
 10
1120.469163230946
 20
42.33253955814209
 42
1.0
 10
1120.469163230946
 20
41.28611247507036
 42
1.0
 72
     4
 94
        3
 73
     1
 74
     0
 95
        8
 96
        4
 40
2.0
 40
2.0
 40
2.0
 40
2.0
 40
3.0
 40
3.0
 40
3.0
 40
3.0
 10
1120.469163230946
 20
41.28611247507036
 42
1.0
 10
1120.469163230946
 20
40.24315804824777
 42
1.0
 10
1120.958807762073
 20
39.21004281413101
 42
1.0
 10
1122.12533087376
 20
39.21004281413101
 42
1.0
 72
     4
 94
        3
 73
     1
 74
     0
 95
        8
 96
        4
 40
3.0
 40
3.0
 40
3.0
 40
3.0
 40
4.0
 40
4.0
 40
4.0
 40
4.0
 10
1122.12533087376
 20
39.21004281413101
 42
1.0
 10
1122.972369610528
 20
39.21004281413101
 42
1.0
 10
1123.435390443746
 20
39.84553890772218
 42
1.0
 10
1123.514682761434
 20
40.63904086064879
 42
1.0
 72
     1
 10
1123.514682761434
 20
40.63904086064879
 11
1124.44477586016
 21
40.63904086064879
 72
     4
 94
        3
 73
     1
 74
     0
 95
        8
 96
        4
 40
5.0
 40
5.0
 40
5.0
 40
5.0
 40
6.0
 40
6.0
 40
6.0
 40
6.0
 10
1124.44477586016
 20
40.63904086064879
 42
1.0
 10
1124.365772930492
 20
39.33563721514133
 42
1.0
 10
1123.446097800514
 20
38.431589038284
 42
1.0
 10
1122.12533087376
 20
38.431589038284
 42
1.0
 72
     4
 94
        3
 73
     1
 74
     0
 95
        8
 96
        4
 40
6.0
 40
6.0
 40
6.0
 40
6.0
 40
7.0
 40
7.0
 40
7.0
 40
7.0
 10
1122.12533087376
 20
38.431589038284
 42
1.0
 10
1120.491156720523
 20
38.431589038284
 42
1.0
 10
1119.513603986393
 20
39.7320988035839
 42
1.0
 10
1119.513603986393
 20
41.28611247507036
 42
1.0
 72
     4
 94
        3
 73
     1
 74
     0
 95
        8
 96
        4
 40
7.0
 40
7.0
 40
7.0
 40
7.0
 40
8.0
 40
8.0
 40
8.0
 40
8.0
 10
1119.513603986393
 20
41.28611247507036
 42
1.0
 10
1119.513603986393
 20
42.84417757884743
 42
1.0
 10
1120.491156720523
 20
44.14410856810587
 42
1.0
 10
1122.12533087376
 20
44.14410856810587
 42
1.0
 97
        0
 75
     0
 76
     1
 98
        1
 10
0.0
 20
0.0
  0
HATCH
  5
8E
330
1F
100
AcDbEntity
  8
0
  6
Continuous
 62
     0
100
AcDbHatch
 10
0.0
 20
0.0
 30
0.0
210
0.0
220
0.0
230
1.0
  2
SOLID
 70
     1
 71
     0
 91
        1
 92
        0
 93
       10
 72
     4
 94
        3
 73
     1
 74
     0
 95
        8
 96
        4
 40
8.0
 40
8.0
 40
8.0
 40
8.0
 40
9.0
 40
9.0
 40
9.0
 40
9.0
 10
1129.757071757269
 20
44.14410856810587
 42
1.0
 10
1130.987549621545
 20
44.1354269274831
 42
1.0
 10
1131.954684386928
 20
43.45710140681925
 42
1.0
 10
1132.069860819191
 20
42.27987093836353
 42
1.0
 72
     1
 10
1132.069860819191
 20
42.27987093836353
 11
1131.114301574639
 21
42.27987093836353
 72
     4
 94
        3
 73
     1
 74
     0
 95
        8
 96
        4
 40
0.0
 40
0.0
 40
0.0
 40
0.0
 40
1.0
 40
1.0
 40
1.0
 40
1.0
 10
1131.114301574639
 20
42.27987093836353
 42
1.0
 10
1130.956295715303
 20
42.90668539133191
 42
1.0
 10
1130.5520206503
 20
43.36507601621726
 42
1.0
 10
1129.757071757269
 20
43.36507601621726
 42
1.0
 72
     4
 94
        3
 73
     1
 74
     0
 95
        8
 96
        4
 40
1.0
 40
1.0
 40
1.0
 40
1.0
 40
2.0
 40
2.0
 40
2.0
 40
2.0
 10
1129.757071757269
 20
43.36507601621726
 42
1.0
 10
1128.589391093499
 20
43.36507601621726
 42
1.0
 10
1128.100614726434
 20
42.33253955814209
 42
1.0
 10
1128.100614726434
 20
41.28611247507036
 42
1.0
 72
     4
 94
        3
 73
     1
 74
     0
 95
        8
 96
        4
 40
2.0
 40
2.0
 40
2.0
 40
2.0
 40
3.0
 40
3.0
 40
3.0
 40
3.0
 10
1128.100614726434
 20
41.28611247507036
 42
1.0
 10
1128.100614726434
 20
40.24315804824777
 42
1.0
 10
1128.589391093499
 20
39.21004281413101
 42
1.0
 10
1129.757071757269
 20
39.21004281413101
 42
1.0
 72
     4
 94
        3
 73
     1
 74
     0
 95
        8
 96
        4
 40
3.0
 40
3.0
 40
3.0
 40
3.0
 40
4.0
 40
4.0
 40
4.0
 40
4.0
 10
1129.757071757269
 20
39.21004281413101
 42
1.0
 10
1130.603531717996
 20
39.21004281413101
 42
1.0
 10
1131.070025207462
 20
39.84553890772218
 42
1.0
 10
1131.146134256922
 20
40.63904086064879
 42
1.0
 72
     1
 10
1131.146134256922
 20
40.63904086064879
 11
1132.079410623876
 21
40.63904086064879
 72
     4
 94
        3
 73
     1
 74
     0
 95
        8
 96
        4
 40
5.0
 40
5.0
 40
5.0
 40
5.0
 40
6.0
 40
6.0
 40
6.0
 40
6.0
 10
1132.079410623876
 20
40.63904086064879
 42
1.0
 10
1132.001275858271
 20
39.33563721514133
 42
1.0
 10
1131.077838684022
 20
38.431589038284
 42
1.0
 10
1129.757071757269
 20
38.431589038284
 42
1.0
 72
     4
 94
        3
 73
     1
 74
     0
 95
        8
 96
        4
 40
6.0
 40
6.0
 40
6.0
 40
6.0
 40
7.0
 40
7.0
 40
7.0
 40
7.0
 10
1129.757071757269
 20
38.431589038284
 42
1.0
 10
1128.123765768095
 20
38.431589038284
 42
1.0
 10
1127.147081198026
 20
39.7320988035839
 42
1.0
 10
1127.147081198026
 20
41.28611247507036
 42
1.0
 72
     4
 94
        3
 73
     1
 74
     0
 95
        8
 96
        4
 40
7.0
 40
7.0
 40
7.0
 40
7.0
 40
8.0
 40
8.0
 40
8.0
 40
8.0
 10
1127.147081198026
 20
41.28611247507036
 42
1.0
 10
1127.147081198026
 20
42.84417757884743
 42
1.0
 10
1128.123765768095
 20
44.14410856810587
 42
1.0
 10
1129.757071757269
 20
44.14410856810587
 42
1.0
 97
        0
 75
     0
 76
     1
 98
        1
 10
0.0
 20
0.0
  0
HATCH
  5
8F
330
1F
100
AcDbEntity
  8
0
  6
Continuous
 62
     0
100
AcDbHatch
 10
0.0
 20
0.0
 30
0.0
210
0.0
220
0.0
230
1.0
  2
SOLID
 70
     1
 71
     0
 91
        2
 92
        0
 93
        2
 72
     4
 94
        3
 73
     1
 74
     0
 95
       11
 96
        7
 40
0.0
 40
0.0
 40
0.0
 40
0.0
 40
1.0
 40
1.0
 40
1.0
 40
2.0
 40
2.0
 40
2.0
 40
2.0
 10
1135.268756000683
 20
44.14410856810587
 42
1.0
 10
1133.633713683384
 20
44.14410856810587
 42
1.0
 10
1132.654424621129
 20
42.84417757884743
 42
1.0
 10
1132.654424621129
 20
41.28611247507036
 42
1.0
 10
1132.654424621129
 20
39.7320988035839
 42
1.0
 10
1133.633713683384
 20
38.431589038284
 42
1.0
 10
1135.268756000683
 20
38.431589038284
 42
1.0
 72
     4
 94
        3
 73
     1
 74
     0
 95
       11
 96
        7
 40
2.0
 40
2.0
 40
2.0
 40
2.0
 40
3.0
 40
3.0
 40
3.0
 40
4.0
 40
4.0
 40
4.0
 40
4.0
 10
1135.268756000683
 20
38.431589038284
 42
1.0
 10
1136.901772601838
 20
38.431589038284
 42
1.0
 10
1137.87614206774
 20
39.7320988035839
 42
1.0
 10
1137.87614206774
 20
41.28611247507036
 42
1.0
 10
1137.87614206774
 20
42.84417757884743
 42
1.0
 10
1136.901772601838
 20
44.14410856810587
 42
1.0
 10
1135.268756000683
 20
44.14410856810587
 42
1.0
 97
        0
 92
        0
 93
        2
 72
     4
 94
        3
 73
     1
 74
     0
 95
       11
 96
        7
 40
2.0
 40
2.0
 40
2.0
 40
2.0
 40
3.0
 40
3.0
 40
3.0
 40
4.0
 40
4.0
 40
4.0
 40
4.0
 10
1135.268756000683
 20
39.21004281413101
 42
1.0
 10
1134.10020717285
 20
39.21004281413101
 42
1.0
 10
1133.611430805785
 20
40.24315804824777
 42
1.0
 10
1133.611430805785
 20
41.28611247507036
 42
1.0
 10
1133.611430805785
 20
42.33253955814209
 42
1.0
 10
1134.10020717285
 20
43.36507601621726
 42
1.0
 10
1135.268756000683
 20
43.36507601621726
 42
1.0
 72
     4
 94
        3
 73
     1
 74
     0
 95
       11
 96
        7
 40
0.0
 40
0.0
 40
0.0
 40
0.0
 40
1.0
 40
1.0
 40
1.0
 40
2.0
 40
2.0
 40
2.0
 40
2.0
 10
1135.268756000683
 20
43.36507601621726
 42
1.0
 10
1136.43527911237
 20
43.36507601621726
 42
1.0
 10
1136.924923643498
 20
42.33253955814209
 42
1.0
 10
1136.924923643498
 20
41.28611247507036
 42
1.0
 10
1136.924923643498
 20
40.24315804824777
 42
1.0
 10
1136.43527911237
 20
39.21004281413101
 42
1.0
 10
1135.268756000683
 20
39.21004281413101
 42
1.0
 97
        0
 75
     0
 76
     1
 98
        1
 10
0.0
 20
0.0
  0
HATCH
  5
90
330
1F
100
AcDbEntity
  8
0
  6
Continuous
 62
     0
100
AcDbHatch
 10
0.0
 20
0.0
 30
0.0
210
0.0
220
0.0
230
1.0
  2
SOLID
 70
     1
 71
     0
 91
        1
 92
        0
 93
        4
 72
     1
 10
1138.695399554514
 20
38.56297119970949
 11
1138.695399554514
 21
39.59319255361857
 72
     1
 10
1138.695399554514
 20
39.59319255361857
 11
1139.757453590707
 21
39.59319255361857
 72
     1
 10
1139.757453590707
 20
39.59319255361857
 11
1139.757453590707
 21
38.56297119970949
 72
     1
 10
1139.757453590707
 20
38.56297119970949
 11
1138.695399554514
 21
38.56297119970949
 97
        0
 75
     0
 76
     1
 98
        1
 10
0.0
 20
0.0
  0
HATCH
  5
91
330
1F
100
AcDbEntity
  8
0
  6
Continuous
 62
     0
100
AcDbHatch
 10
0.0
 20
0.0
 30
0.0
210
0.0
220
0.0
230
1.0
  2
SOLID
 70
     1
 71
     0
 91
        1
 92
        0
 93
        7
 72
     4
 94
        3
 73
     1
 74
     0
 95
        8
 96
        4
 40
4.0
 40
4.0
 40
4.0
 40
4.0
 40
5.0
 40
5.0
 40
5.0
 40
5.0
 10
1140.847867652935
 20
37.82155909051973
 42
1.0
 10
1141.182400204934
 20
37.90606039258201
 42
1.0
 10
1141.351402809058
 20
38.23654151229108
 42
1.0
 10
1141.345325660622
 20
38.56297119970949
 42
1.0
 72
     1
 10
1141.345325660622
 20
38.56297119970949
 11
1140.81603497065
 21
38.56297119970949
 72
     1
 10
1140.81603497065
 20
38.56297119970949
 11
1140.81603497065
 21
39.59319255361857
 72
     1
 10
1140.81603497065
 20
39.59319255361857
 11
1141.878378394864
 21
39.59319255361857
 72
     1
 10
1141.878378394864
 20
39.59319255361857
 11
1141.878378394864
 21
38.56297119970949
 72
     4
 94
        3
 73
     1
 74
     0
 95
        8
 96
        4
 40
2.0
 40
2.0
 40
2.0
 40
2.0
 40
3.0
 40
3.0
 40
3.0
 40
3.0
 10
1141.878378394864
 20
38.56297119970949
 42
1.0
 10
1141.871722470386
 20
37.93673552278278
 42
1.0
 10
1141.451820452262
 20
37.48066000206331
 42
1.0
 10
1140.847867652935
 20
37.3573807052192
 42
1.0
 72
     1
 10
1140.847867652935
 20
37.3573807052192
 11
1140.847867652935
 21
37.82155909051973
 97
        0
 75
     0
 76
     1
 98
        1
 10
0.0
 20
0.0
  0
HATCH
  5
92
330
1F
100
AcDbEntity
  8
0
  6
Continuous
 62
     0
100
AcDbHatch
 10
0.0
 20
0.0
 30
0.0
210
0.0
220
0.0
230
1.0
  2
SOLID
 70
     1
 71
     0
 91
        1
 92
        0
 93
        6
 72
     1
 10
1142.992811662815
 20
38.56297119970949
 11
1142.992811662815
 21
44.01099007855576
 72
     1
 10
1142.992811662815
 20
44.01099007855576
 11
1143.948370907368
 21
44.01099007855576
 72
     1
 10
1143.948370907368
 20
44.01099007855576
 11
1143.948370907368
 21
39.38830583491981
 72
     1
 10
1143.948370907368
 20
39.38830583491981
 11
1146.717524878029
 21
39.38830583491981
 72
     1
 10
1146.717524878029
 20
39.38830583491981
 11
1146.717524878029
 21
38.56297119970949
 72
     1
 10
1146.717524878029
 20
38.56297119970949
 11
1142.992811662815
 21
38.56297119970949
 97
        0
 75
     0
 76
     1
 98
        1
 10
0.0
 20
0.0
  0
HATCH
  5
93
330
1F
100
AcDbEntity
  8
0
  6
Continuous
 62
     0
100
AcDbHatch
 10
0.0
 20
0.0
 30
0.0
210
0.0
220
0.0
230
1.0
  2
SOLID
 70
     1
 71
     0
 91
        1
 92
        0
 93
        8
 72
     1
 10
1147.877392065239
 20
43.18854932355303
 11
1146.152639461504
 21
43.18854932355303
 72
     1
 10
1146.152639461504
 20
43.18854932355303
 11
1146.152639461504
 21
44.01099007855576
 72
     1
 10
1146.152639461504
 20
44.01099007855576
 11
1150.564359838005
 21
44.01099007855576
 72
     1
 10
1150.564359838005
 20
44.01099007855576
 11
1150.564359838005
 21
43.18854932355303
 72
     1
 10
1150.564359838005
 20
43.18854932355303
 11
1148.833819473854
 21
43.18854932355303
 72
     1
 10
1148.833819473854
 20
43.18854932355303
 11
1148.833819473854
 21
38.56297119970949
 72
     1
 10
1148.833819473854
 20
38.56297119970949
 11
1147.877392065239
 21
38.56297119970949
 72
     1
 10
1147.877392065239
 20
38.56297119970949
 11
1147.877392065239
 21
43.18854932355303
 97
        0
 75
     0
 76
     1
 98
        1
 10
0.0
 20
0.0
  0
HATCH
  5
94
330
1F
100
AcDbEntity
  8
0
  6
Continuous
 62
     0
100
AcDbHatch
 10
0.0
 20
0.0
 30
0.0
210
0.0
220
0.0
230
1.0
  2
SOLID
 70
     1
 71
     0
 91
        2
 92
        0
 93
        5
 72
     4
 94
        3
 73
     1
 74
     0
 95
        8
 96
        4
 40
2.0
 40
2.0
 40
2.0
 40
2.0
 40
3.0
 40
3.0
 40
3.0
 40
3.0
 10
1155.864790826264
 20
41.28611247507036
 42
1.0
 10
1155.864790826264
 20
42.79150895906894
 42
1.0
 10
1155.138426894154
 20
44.01099007855576
 42
1.0
 10
1153.457950657594
 20
44.01099007855576
 42
1.0
 72
     1
 10
1153.457950657594
 20
44.01099007855576
 11
1151.199566543575
 21
44.01099007855576
 72
     1
 10
1151.199566543575
 20
44.01099007855576
 11
1151.199566543575
 21
38.56297119970949
 72
     1
 10
1151.199566543575
 20
38.56297119970949
 11
1153.457950657594
 21
38.56297119970949
 72
     4
 94
        3
 73
     1
 74
     0
 95
        8
 96
        4
 40
1.0
 40
1.0
 40
1.0
 40
1.0
 40
2.0
 40
2.0
 40
2.0
 40
2.0
 10
1153.457950657594
 20
38.56297119970949
 42
1.0
 10
1155.138426894154
 20
38.56297119970949
 42
1.0
 10
1155.864790826264
 20
39.78303109523777
 42
1.0
 10
1155.864790826264
 20
41.28611247507036
 42
1.0
 97
        0
 92
        0
 93
        5
 72
     4
 94
        3
 73
     1
 74
     0
 95
        8
 96
        4
 40
1.0
 40
1.0
 40
1.0
 40
1.0
 40
2.0
 40
2.0
 40
2.0
 40
2.0
 10
1153.093611139456
 20
43.23311507875021
 42
1.0
 10
1154.587432102624
 20
43.23311507875021
 42
1.0
 10
1154.906048313482
 20
42.37999919354682
 42
1.0
 10
1154.906048313482
 20
41.28611247507036
 42
1.0
 72
     4
 94
        3
 73
     1
 74
     0
 95
        8
 96
        4
 40
2.0
 40
2.0
 40
2.0
 40
2.0
 40
3.0
 40
3.0
 40
3.0
 40
3.0
 10
1154.906048313482
 20
41.28611247507036
 42
1.0
 10
1154.906048313482
 20
40.19801351700904
 42
1.0
 10
1154.587432102624
 20
39.34200375159802
 42
1.0
 10
1153.093611139456
 20
39.34200375159802
 42
1.0
 72
     1
 10
1153.093611139456
 20
39.34200375159802
 11
1152.152231907921
 21
39.34200375159802
 72
     1
 10
1152.152231907921
 20
39.34200375159802
 11
1152.152231907921
 21
43.23311507875021
 72
     1
 10
1152.152231907921
 20
43.23311507875021
 11
1153.093611139456
 21
43.23311507875021
 97
        0
 75
     0
 76
     1
 98
        1
 10
0.0
 20
0.0
  0
HATCH
  5
95
330
1F
100
AcDbEntity
  8
0
  6
Continuous
 62
     0
100
AcDbHatch
 10
0.0
 20
0.0
 30
0.0
210
0.0
220
0.0
230
1.0
  2
SOLID
 70
     1
 71
     0
 91
        1
 92
        0
 93
        4
 72
     1
 10
1156.655398898982
 20
37.18315965192181
 11
1156.655398898982
 21
38.21338100583092
 72
     1
 10
1156.655398898982
 20
38.21338100583092
 11
1157.715427219029
 21
38.21338100583092
 72
     1
 10
1157.715427219029
 20
38.21338100583092
 11
1157.715427219029
 21
37.18315965192181
 72
     1
 10
1157.715427219029
 20
37.18315965192181
 11
1156.655398898982
 21
37.18315965192181
 97
        0
 75
     0
 76
     1
 98
        1
 10
0.0
 20
0.0
  0
HATCH
  5
96
330
1F
100
AcDbEntity
  8
0
  6
Continuous
 62
     0
100
AcDbHatch
 10
0.0
 20
0.0
 30
0.0
210
0.0
220
0.0
230
1.0
  2
ANSI31
 70
     0
 71
     0
 91
        1
 92
        0
 93
        3
 72
     4
 94
        3
 73
     1
 74
     0
 95
       14
 96
       10
 40
5.0
 40
5.0
 40
5.0
 40
5.0
 40
6.0
 40
6.0
 40
6.0
 40
7.0
 40
7.0
 40
7.0
 40
8.0
 40
8.0
 40
8.0
 40
8.0
 10
1022.28277022093
 20
41.00896467216945
 42
1.0
 10
1025.392823280049
 20
38.50633706862835
 42
1.0
 10
1029.342246293384
 20
37.00962222525258
 42
1.0
 10
1033.642552281892
 20
37.00962222525258
 42
1.0
 10
1043.651905143973
 20
37.00962222525259
 42
1.0
 10
1051.769673208351
 20
45.1234835513491
 42
1.0
 10
1051.76967320835
 20
55.13587498764814
 42
1.0
 10
1051.76967320835
 20
65.14392560363572
 42
1.0
 10
1043.651905143973
 20
73.26097019796056
 42
1.0
 10
1033.642552281892
 20
73.26097019796055
 42
1.0
 72
     4
 94
        3
 73
     1
 74
     0
 95
        8
 96
        4
 40
0.0
 40
0.0
 40
0.0
 40
0.0
 40
1.0
 40
1.0
 40
1.0
 40
1.0
 10
1033.642552281892
 20
73.26097019796055
 42
1.0
 10
1029.342246293384
 20
73.26097019796052
 42
1.0
 10
1025.392823280049
 20
71.76309780250173
 42
1.0
 10
1022.28277022093
 20
69.26104897500228
 42
1.0
 72
     4
 94
        3
 73
     1
 74
     0
 95
       17
 96
       13
 40
1.0
 40
1.0
 40
1.0
 40
1.0
 40
2.0
 40
2.0
 40
2.0
 40
3.0
 40
3.0
 40
3.0
 40
4.0
 40
4.0
 40
4.0
 40
5.0
 40
5.0
 40
5.0
 40
5.0
 10
1022.28277022093
 20
69.26104897500228
 42
1.0
 10
1023.560128944569
 20
69.62365216501581
 42
1.0
 10
1024.908387733295
 20
69.81898907902949
 42
1.0
 10
1026.300344113155
 20
69.81898907902949
 42
1.0
 10
1034.408707066857
 20
69.81898907902949
 42
1.0
 10
1040.983458204536
 20
63.24481671739169
 42
1.0
 10
1040.983458204536
 20
55.13587498764819
 42
1.0
 10
1040.983458204536
 20
47.0249075417592
 42
1.0
 10
1034.408707066857
 20
40.45333967230835
 42
1.0
 10
1026.300344113155
 20
40.45333967230835
 42
1.0
 10
1024.908387733295
 20
40.45333967230835
 42
1.0
 10
1023.560128944569
 20
40.64549331809364
 42
1.0
 10
1022.28277022093
 20
41.00896467216944
 42
1.0
 97
        0
 75
     0
 76
     1
 52
0.0
 41
0.005859375
 77
     0
 78
     1
 53
45.0
 43
0.0
 44
0.0
 45
-0.0131546720523474
 46
0.0131546720523474
 79
     0
 98
        1
 10
0.0
 20
0.0
  0
HATCH
  5
97
330
1F
100
AcDbEntity
  8
0
  6
Continuous
 62
     0
100
AcDbHatch
 10
0.0
 20
0.0
 30
0.0
210
0.0
220
0.0
230
1.0
  2
ANSI31
 70
     0
 71
     0
 91
        1
 92
        0
 93
        3
 72
     4
 94
        3
 73
     1
 74
     0
 95
        8
 96
        4
 40
3.0
 40
3.0
 40
3.0
 40
3.0
 40
4.0
 40
4.0
 40
4.0
 40
4.0
 10
1022.28277022093
 20
41.00896467216944
 42
1.0
 10
1018.156241738889
 20
44.3299815984225
 42
1.0
 10
1015.514852579393
 20
49.4221979057432
 42
1.0
 10
1015.514852579393
 20
55.13587498764819
 42
1.0
 72
     4
 94
        3
 73
     1
 74
     0
 95
        8
 96
        4
 40
0.0
 40
0.0
 40
0.0
 40
0.0
 40
1.0
 40
1.0
 40
1.0
 40
1.0
 10
1015.514852579393
 20
55.13587498764819
 42
1.0
 10
1015.514852579393
 20
60.84839451747007
 42
1.0
 10
1018.156241738889
 20
65.93872980265577
 42
1.0
 10
1022.28277022093
 20
69.26104897500228
 42
1.0
 72
     4
 94
        3
 73
     1
 74
     0
 95
       11
 96
        7
 40
1.0
 40
1.0
 40
1.0
 40
1.0
 40
2.0
 40
2.0
 40
2.0
 40
3.0
 40
3.0
 40
3.0
 40
3.0
 10
1022.28277022093
 20
69.26104897500228
 42
1.0
 10
1016.128210489396
 20
67.51546043377205
 42
1.0
 10
1011.616795939742
 20
61.85343911357293
 42
1.0
 10
1011.616795939742
 20
55.13587498764819
 42
1.0
 10
1011.616795939742
 20
48.41744269766102
 42
1.0
 10
1016.128210489396
 20
42.75455321339972
 42
1.0
 10
1022.28277022093
 20
41.00896467216944
 42
1.0
 97
        0
 75
     0
 76
     1
 52
0.0
 41
0.005859375
 77
     0
 78
     1
 53
45.0
 43
0.0
 44
0.0
 45
-0.0131546720523474
 46
0.0131546720523474
 79
     0
 98
        1
 10
0.0
 20
0.0
  0
LINE
  5
98
330
1F
100
AcDbEntity
  8
FORMAT
 62
     0
370
    70
100
AcDbLine
 10
1230.0
 20
861.0
 30
0.0
 11
1230.0
 21
30.0
 31
0.0
  0
LINE
  5
99
330
1F
100
AcDbEntity
  8
0
  6
SLD-実線
 62
     0
370
    18
100
AcDbLine
 10
1056.7870141583
 20
44.0109900786
 30
0.0
 11
1061.2001814749
 21
44.0109900786
 31
0.0
  0
LINE
  5
9A
330
1F
100
AcDbEntity
  8
FORMAT
 62
     0
370
    50
100
AcDbLine
 10
1230.0
 20
214.2549118452
 30
0.0
 11
30.0
 21
214.2549118452
 31
0.0
  0
LINE
  5
9B
330
1F
100
AcDbEntity
  8
0
  6
SLD-実線
 62
     0
370
    18
100
AcDbLine
 10
1061.2001814749
 20
44.0109900786
 30
0.0
 11
1061.2001814749
 21
43.1885493236
 31
0.0
  0
LINE
  5
9C
330
1F
100
AcDbEntity
  8
0
  6
SLD-実線
 62
     0
370
    35
100
AcDbLine
 10
1260.0
 20
445.5
 30
0.0
 11
1215.0
 21
445.5
 31
0.0
  0
LINE
  5
9D
330
1F
100
AcDbEntity
  8
FORMAT
 62
     0
370
    70
100
AcDbLine
 10
30.0
 20
30.0
 30
0.0
 11
1230.0
 21
30.0
 31
0.0
  0
LINE
  5
9E
330
1F
100
AcDbEntity
  8
0
  6
SLD-実線
 62
     0
370
    18
100
AcDbLine
 10
1061.2001814749
 20
43.1885493236
 30
0.0
 11
1059.4667472306
 21
43.1885493236
 31
0.0
  0
LINE
  5
9F
330
1F
100
AcDbEntity
  8
0
  6
SLD-実線
 62
     0
370
    35
100
AcDbLine
 10
180.0
 20
861.0
 30
0.0
 11
180.0
 21
891.0
 31
0.0
  0
LINE
  5
A0
330
1F
100
AcDbEntity
  8
0
  6
SLD-実線
 62
     0
370
    35
100
AcDbLine
 10
180.0
 20
30.0
 30
0.0
 11
180.0
 21
0.0
 31
0.0
  0
LINE
  5
A1
330
1F
100
AcDbEntity
  8
0
  6
SLD-実線
 62
     0
370
    35
100
AcDbLine
 10
330.0
 20
861.0
 30
0.0
 11
330.0
 21
891.0
 31
0.0
  0
LINE
  5
A2
330
1F
100
AcDbEntity
  8
0
  6
SLD-実線
 62
     0
370
    35
100
AcDbLine
 10
330.0
 20
30.0
 30
0.0
 11
330.0
 21
0.0
 31
0.0
  0
LINE
  5
A3
330
1F
100
AcDbEntity
  8
0
  6
SLD-実線
 62
     0
370
    35
100
AcDbLine
 10
480.0
 20
861.0
 30
0.0
 11
480.0
 21
891.0
 31
0.0
  0
LINE
  5
A4
330
1F
100
AcDbEntity
  8
0
  6
SLD-実線
 62
     0
370
    35
100
AcDbLine
 10
480.0
 20
30.0
 30
0.0
 11
480.0
 21
0.0
 31
0.0
  0
LINE
  5
A5
330
1F
100
AcDbEntity
  8
0
  6
SLD-実線
 62
     0
370
    18
100
AcDbLine
 10
1059.4667472306
 20
43.1885493236
 30
0.0
 11
1059.4667472306
 21
38.5629711997
 31
0.0
  0
LINE
  5
A6
330
1F
100
AcDbEntity
  8
0
  6
SLD-実線
 62
     0
370
    18
100
AcDbLine
 10
1059.4667472306
 20
38.5629711997
 30
0.0
 11
1058.5123455381
 21
38.5629711997
 31
0.0
  0
LINE
  5
A7
330
1F
100
AcDbEntity
  8
0
  6
SLD-実線
 62
     0
370
    18
100
AcDbLine
 10
1058.5123455381
 20
38.5629711997
 30
0.0
 11
1058.5123455381
 21
43.1885493236
 31
0.0
  0
LINE
  5
A8
330
1F
100
AcDbEntity
  8
0
  6
SLD-実線
 62
     0
370
    18
100
AcDbLine
 10
1058.5123455381
 20
43.1885493236
 30
0.0
 11
1056.7870141583
 21
43.1885493236
 31
0.0
  0
LINE
  5
A9
330
1F
100
AcDbEntity
  8
0
  6
SLD-実線
 62
     0
370
    18
100
AcDbLine
 10
1056.7870141583
 20
43.1885493236
 30
0.0
 11
1056.7870141583
 21
44.0109900786
 31
0.0
  0
LINE
  5
AA
330
1F
100
AcDbEntity
  8
0
  6
SLD-実線
 62
     0
370
    18
100
AcDbLine
 10
1063.0791778937
 20
43.0739516673
 30
0.0
 11
1063.0936472948
 21
43.0739516673
 31
0.0
  0
LINE
  5
AB
330
1F
100
AcDbEntity
  8
0
  6
SLD-実線
 62
     0
370
    18
100
AcDbLine
 10
1063.0936472948
 20
43.0739516673
 30
0.0
 11
1063.1003032192
 21
43.0739516673
 31
0.0
  0
LINE
  5
AC
330
1F
100
AcDbEntity
  8
0
  6
SLD-実線
 62
     0
370
    18
100
AcDbLine
 10
1063.1003032192
 20
43.0739516673
 30
0.0
 11
1063.918837236
 21
40.7293299231
 31
0.0
  0
LINE
  5
AD
330
1F
100
AcDbEntity
  8
0
  6
SLD-実線
 62
     0
370
    18
100
AcDbLine
 10
1063.918837236
 20
40.7293299231
 30
0.0
 11
1062.2529750945
 21
40.7293299231
 31
0.0
  0
LINE
  5
AE
330
1F
100
AcDbEntity
  8
0
  6
SLD-実線
 62
     0
370
    18
100
AcDbLine
 10
1062.2529750945
 20
40.7293299231
 30
0.0
 11
1063.0791778937
 21
43.0739516673
 31
0.0
  0
LINE
  5
AF
330
1F
100
AcDbEntity
  8
0
  6
SLD-実線
 62
     0
370
    18
100
AcDbLine
 10
1060.4972579725
 20
38.5629711997
 30
0.0
 11
1061.4826241832
 21
38.5629711997
 31
0.0
  0
LINE
  5
B0
330
1F
100
AcDbEntity
  8
0
  6
SLD-実線
 62
     0
370
    18
100
AcDbLine
 10
1061.4826241832
 20
38.5629711997
 30
0.0
 11
1061.995998532
 21
40.0035447671
 31
0.0
  0
LINE
  5
B1
330
1F
100
AcDbEntity
  8
0
  6
SLD-実線
 62
     0
370
    18
100
AcDbLine
 10
1061.995998532
 20
40.0035447671
 30
0.0
 11
1064.1694472619
 21
40.0035447671
 31
0.0
  0
LINE
  5
B2
330
1F
100
AcDbEntity
  8
レイヤー_1
 62
     0
370
    35
100
AcDbLine
 10
780.0
 20
191.7549118452
 30
0.0
 11
1230.0
 21
191.7549118452
 31
0.0
  0
LINE
  5
B3
330
1F
100
AcDbEntity
  8
FORMAT
 62
     0
370
    50
100
AcDbLine
 10
1230.0
 20
79.4463382573
 30
0.0
 11
780.0
 21
79.4463382573
 31
0.0
  0
LINE
  5
B4
330
1F
100
AcDbEntity
  8
FORMAT
 62
     0
370
    50
100
AcDbLine
 10
999.0
 20
30.0
 30
0.0
 11
999.0
 21
214.2549118452
 31
0.0
  0
LINE
  5
B5
330
1F
100
AcDbEntity
  8
0
  6
SLD-実線
 62
     0
370
    18
100
AcDbLine
 10
1064.1694472619
 20
40.0035447671
 30
0.0
 11
1064.6813746707
 21
38.5629711997
 31
0.0
  0
LINE
  5
B6
330
1F
100
AcDbEntity
  8
0
  6
SLD-実線
 62
     0
370
    18
100
AcDbLine
 10
1064.6813746707
 20
38.5629711997
 30
0.0
 11
1065.7053741821
 21
38.5629711997
 31
0.0
  0
LINE
  5
B7
330
1F
100
AcDbEntity
  8
0
  6
SLD-実線
 62
     0
370
    18
100
AcDbLine
 10
1065.7053741821
 20
38.5629711997
 30
0.0
 11
1063.6049959275
 21
44.0109900786
 31
0.0
  0
LINE
  5
B8
330
1F
100
AcDbEntity
  8
0
  6
SLD-実線
 62
     0
370
    18
100
AcDbLine
 10
1063.6049959275
 20
44.0109900786
 30
0.0
 11
1062.5879417285
 21
44.0109900786
 31
0.0
  0
LINE
  5
B9
330
1F
100
AcDbEntity
  8
0
  6
SLD-実線
 62
     0
370
    18
100
AcDbLine
 10
1062.5879417285
 20
44.0109900786
 30
0.0
 11
1060.4972579725
 21
38.5629711997
 31
0.0
  0
LINE
  5
BA
330
1F
100
AcDbEntity
  8
0
  6
SLD-実線
 62
     0
370
    18
100
AcDbLine
 10
1066.2230893513
 20
44.0109900786
 30
0.0
 11
1067.1769122677
 21
44.0109900786
 31
0.0
  0
LINE
  5
BB
330
1F
100
AcDbEntity
  8
0
  6
SLD-実線
 62
     0
370
    18
100
AcDbLine
 10
1067.1769122677
 20
44.0109900786
 30
0.0
 11
1067.1769122677
 21
41.5320922927
 31
0.0
  0
LINE
  5
BC
330
1F
100
AcDbEntity
  8
0
  6
SLD-実線
 62
     0
370
    18
100
AcDbLine
 10
1067.1769122677
 20
41.5320922927
 30
0.0
 11
1069.6050224559
 21
44.0109900786
 31
0.0
  0
LINE
  5
BD
330
1F
100
AcDbEntity
  8
0
  6
SLD-実線
 62
     0
370
    18
100
AcDbLine
 10
1069.6050224559
 20
44.0109900786
 30
0.0
 11
1070.7802272082
 21
44.0109900786
 31
0.0
  0
LINE
  5
BE
330
1F
100
AcDbEntity
  8
0
  6
SLD-実線
 62
     0
370
    18
100
AcDbLine
 10
1070.7802272082
 20
44.0109900786
 30
0.0
 11
1068.6047527621
 21
41.8382648187
 31
0.0
  0
LINE
  5
BF
330
1F
100
AcDbEntity
  8
0
  6
SLD-実線
 62
     0
370
    35
100
AcDbLine
 10
630.0
 20
846.0
 30
0.0
 11
630.0
 21
891.0
 31
0.0
  0
LINE
  5
C0
330
1F
100
AcDbEntity
  8
0
  6
SLD-実線
 62
     0
370
    35
100
AcDbLine
 10
630.0
 20
30.0
 30
0.0
 11
630.0
 21
0.0
 31
0.0
  0
LINE
  5
C1
330
1F
100
AcDbEntity
  8
FORMAT
 62
     0
370
    70
100
AcDbLine
 10
1230.0
 20
861.0
 30
0.0
 11
30.0
 21
861.0
 31
0.0
  0
LINE
  5
C2
330
1F
100
AcDbEntity
  8
0
  6
SLD-実線
 62
     0
370
    35
100
AcDbLine
 10
780.0
 20
861.0
 30
0.0
 11
780.0
 21
891.0
 31
0.0
  0
LINE
  5
C3
330
1F
100
AcDbEntity
  8
FORMAT
 62
     0
370
    70
100
AcDbLine
 10
30.0
 20
861.0
 30
0.0
 11
30.0
 21
30.0
 31
0.0
  0
LINE
  5
C4
330
1F
100
AcDbEntity
  8
0
  6
SLD-実線
 62
     0
370
    35
100
AcDbLine
 10
780.0
 20
30.0
 30
0.0
 11
780.0
 21
0.0
 31
0.0
  0
LINE
  5
C5
330
1F
100
AcDbEntity
  8
0
  6
SLD-実線
 62
     0
370
    35
100
AcDbLine
 10
930.0
 20
861.0
 30
0.0
 11
930.0
 21
891.0
 31
0.0
  0
LINE
  5
C6
330
1F
100
AcDbEntity
  8
0
  6
SLD-実線
 62
     0
370
    35
100
AcDbLine
 10
929.9963563346
 20
30.0
 30
0.0
 11
929.9963563346
 21
0.0
 31
0.0
  0
LINE
  5
C7
330
1F
100
AcDbEntity
  8
0
  6
SLD-実線
 62
     0
370
    35
100
AcDbLine
 10
1080.0
 20
861.0
 30
0.0
 11
1080.0
 21
891.0
 31
0.0
  0
LINE
  5
C8
330
1F
100
AcDbEntity
  8
0
  6
SLD-実線
 62
     0
370
    35
100
AcDbLine
 10
1080.0117455356
 20
30.0
 30
0.0
 11
1080.0117455356
 21
0.0
 31
0.0
  0
LINE
  5
C9
330
1F
100
AcDbEntity
  8
0
  6
SLD-実線
 62
     0
370
    35
100
AcDbLine
 10
1230.0
 20
745.5
 30
0.0
 11
1260.0
 21
745.5
 31
0.0
  0
LINE
  5
CA
330
1F
100
AcDbEntity
  8
0
  6
SLD-実線
 62
     0
370
    35
100
AcDbLine
 10
30.0
 20
745.5
 30
0.0
 11
0.0
 21
745.5
 31
0.0
  0
LINE
  5
CB
330
1F
100
AcDbEntity
  8
0
  6
SLD-実線
 62
     0
370
    35
100
AcDbLine
 10
1230.0
 20
595.5
 30
0.0
 11
1260.0
 21
595.5
 31
0.0
  0
LINE
  5
CC
330
1F
100
AcDbEntity
  8
0
  6
SLD-実線
 62
     0
370
    35
100
AcDbLine
 10
30.0
 20
595.5
 30
0.0
 11
0.0
 21
595.5
 31
0.0
  0
LINE
  5
CD
330
1F
100
AcDbEntity
  8
0
  6
SLD-実線
 62
     0
370
    18
100
AcDbLine
 10
1068.6047527621
 20
41.8382648187
 30
0.0
 11
1070.9320112251
 21
38.5629711997
 31
0.0
  0
LINE
  5
CE
330
1F
100
AcDbEntity
  8
0
  6
SLD-実線
 62
     0
370
    35
100
AcDbLine
 10
45.0
 20
445.5
 30
0.0
 11
0.0
 21
445.5
 31
0.0
  0
LINE
  5
CF
330
1F
100
AcDbEntity
  8
0
  6
SLD-実線
 62
     0
370
    35
100
AcDbLine
 10
1230.0
 20
295.5
 30
0.0
 11
1260.0
 21
295.5
 31
0.0
  0
LINE
  5
D0
330
1F
100
AcDbEntity
  8
0
  6
SLD-実線
 62
     0
370
    35
100
AcDbLine
 10
30.0
 20
295.5
 30
0.0
 11
0.0
 21
295.5
 31
0.0
  0
LINE
  5
D1
330
1F
100
AcDbEntity
  8
0
  6
SLD-実線
 62
     0
370
    18
100
AcDbLine
 10
1070.9320112251
 20
38.5629711997
 30
0.0
 11
1069.7423370718
 21
38.5629711997
 31
0.0
  0
LINE
  5
D2
330
1F
100
AcDbEntity
  8
0
  6
SLD-実線
 62
     0
370
    18
100
AcDbLine
 10
1069.7423370718
 20
38.5629711997
 30
0.0
 11
1067.9563789016
 21
41.1651482824
 31
0.0
  0
LINE
  5
D3
330
1F
100
AcDbEntity
  8
0
  6
SLD-実線
 62
     0
370
    35
100
AcDbLine
 10
1230.0
 20
145.5
 30
0.0
 11
1260.0
 21
145.5
 31
0.0
  0
LINE
  5
D4
330
1F
100
AcDbEntity
  8
0
  6
SLD-実線
 62
     0
370
    35
100
AcDbLine
 10
30.0
 20
145.5
 30
0.0
 11
0.0
 21
145.5
 31
0.0
  0
LINE
  5
D5
330
1F
100
AcDbEntity
  8
0
  6
SLD-実線
 62
     0
370
    18
100
AcDbLine
 10
1067.9563789016
 20
41.1651482824
 30
0.0
 11
1067.1769122677
 21
40.3913247149
 31
0.0
  0
LINE
  5
D6
330
1F
100
AcDbEntity
  8
0
  6
SLD-実線
 62
     0
370
    18
100
AcDbLine
 10
1067.1769122677
 20
40.3913247149
 30
0.0
 11
1067.1769122677
 21
38.5629711997
 31
0.0
  0
LINE
  5
D7
330
1F
100
AcDbEntity
  8
0
  6
SLD-実線
 62
     0
370
    18
100
AcDbLine
 10
1067.1769122677
 20
38.5629711997
 30
0.0
 11
1066.2230893513
 21
38.5629711997
 31
0.0
  0
LINE
  5
D8
330
1F
100
AcDbEntity
  8
0
  6
SLD-実線
 62
     0
370
    18
100
AcDbLine
 10
1066.2230893513
 20
38.5629711997
 30
0.0
 11
1066.2230893513
 21
44.0109900786
 31
0.0
  0
LINE
  5
D9
330
1F
100
AcDbEntity
  8
0
  6
SLD-実線
 62
     0
370
    18
100
AcDbLine
 10
1073.397307774
 20
43.0739516673
 30
0.0
 11
1073.4132241151
 21
43.0739516673
 31
0.0
  0
LINE
  5
DA
330
1F
100
AcDbEntity
  8
0
  6
SLD-実線
 62
     0
370
    18
100
AcDbLine
 10
1073.4132241151
 20
43.0739516673
 30
0.0
 11
1073.4203141216
 21
43.0739516673
 31
0.0
  0
LINE
  5
DB
330
1F
100
AcDbEntity
  8
0
  6
SLD-実線
 62
     0
370
    18
100
AcDbLine
 10
1073.4203141216
 20
43.0739516673
 30
0.0
 11
1074.2369671162
 21
40.7293299231
 31
0.0
  0
LINE
  5
DC
330
1F
100
AcDbEntity
  8
0
  6
SLD-実線
 62
     0
370
    18
100
AcDbLine
 10
1074.2369671162
 20
40.7293299231
 30
0.0
 11
1072.5724072208
 21
40.7293299231
 31
0.0
  0
LINE
  5
DD
330
1F
100
AcDbEntity
  8
0
  6
SLD-実線
 62
     0
370
    18
100
AcDbLine
 10
1072.5724072208
 20
40.7293299231
 30
0.0
 11
1073.397307774
 21
43.0739516673
 31
0.0
  0
LINE
  5
DE
330
1F
100
AcDbEntity
  8
0
  6
SLD-実線
 62
     0
370
    18
100
AcDbLine
 10
1070.819294591
 20
38.5629711997
 30
0.0
 11
1071.8030691676
 21
38.5629711997
 31
0.0
  0
LINE
  5
DF
330
1F
100
AcDbEntity
  8
0
  6
SLD-実線
 62
     0
370
    18
100
AcDbLine
 10
1071.8030691676
 20
38.5629711997
 30
0.0
 11
1072.3141284123
 21
40.0035447671
 31
0.0
  0
LINE
  5
E0
330
1F
100
AcDbEntity
  8
0
  6
SLD-実線
 62
     0
370
    18
100
AcDbLine
 10
1072.3141284123
 20
40.0035447671
 30
0.0
 11
1074.4885900003
 21
40.0035447671
 31
0.0
  0
LINE
  5
E1
330
1F
100
AcDbEntity
  8
0
  6
SLD-実線
 62
     0
370
    18
100
AcDbLine
 10
1074.4885900003
 20
40.0035447671
 30
0.0
 11
1075.0000833269
 21
38.5629711997
 31
0.0
  0
LINE
  5
E2
330
1F
100
AcDbEntity
  8
0
  6
SLD-実線
 62
     0
370
    18
100
AcDbLine
 10
1075.0000833269
 20
38.5629711997
 30
0.0
 11
1076.0248063085
 21
38.5629711997
 31
0.0
  0
LINE
  5
E3
330
1F
100
AcDbEntity
  8
0
  6
SLD-実線
 62
     0
370
    18
100
AcDbLine
 10
1076.0248063085
 20
38.5629711997
 30
0.0
 11
1073.9241386658
 21
44.0109900786
 31
0.0
  0
LINE
  5
E4
330
1F
100
AcDbEntity
  8
0
  6
SLD-実線
 62
     0
370
    18
100
AcDbLine
 10
1073.9241386658
 20
44.0109900786
 30
0.0
 11
1072.910412429
 21
44.0109900786
 31
0.0
  0
LINE
  5
E5
330
1F
100
AcDbEntity
  8
0
  6
SLD-実線
 62
     0
370
    18
100
AcDbLine
 10
1072.910412429
 20
44.0109900786
 30
0.0
 11
1070.819294591
 21
38.5629711997
 31
0.0
  0
LINE
  5
E6
330
1F
100
AcDbEntity
  8
0
  6
SLD-実線
 62
     0
370
    18
100
AcDbLine
 10
1080.5058351159
 20
42.4014139071
 30
0.0
 11
1079.5499864834
 21
42.4014139071
 31
0.0
  0
LINE
  5
E7
330
1F
100
AcDbEntity
  8
0
  6
SLD-実線
 62
     0
370
    18
100
AcDbLine
 10
1076.2152236261
 20
40.3809067461
 30
0.0
 11
1077.1683230725
 21
40.3809067461
 31
0.0
  0
LINE
  5
E8
330
1F
100
AcDbEntity
  8
0
  6
SLD-実線
 62
     0
370
    18
100
AcDbLine
 10
1081.4647223227
 20
44.0109900786
 30
0.0
 11
1082.4220178954
 21
44.0109900786
 31
0.0
  0
LINE
  5
E9
330
1F
100
AcDbEntity
  8
0
  6
SLD-実線
 62
     0
370
    18
100
AcDbLine
 10
1082.4220178954
 20
44.0109900786
 30
0.0
 11
1082.4220178954
 21
41.8434738031
 31
0.0
  0
LINE
  5
EA
330
1F
100
AcDbEntity
  8
0
  6
SLD-実線
 62
     0
370
    18
100
AcDbLine
 10
1082.4220178954
 20
41.8434738031
 30
0.0
 11
1084.9020732333
 21
41.8434738031
 31
0.0
  0
LINE
  5
EB
330
1F
100
AcDbEntity
  8
0
  6
SLD-実線
 62
     0
370
    18
100
AcDbLine
 10
1084.9020732333
 20
41.8434738031
 30
0.0
 11
1084.9020732333
 21
44.0109900786
 31
0.0
  0
LINE
  5
EC
330
1F
100
AcDbEntity
  8
0
  6
SLD-実線
 62
     0
370
    18
100
AcDbLine
 10
1084.9020732333
 20
44.0109900786
 30
0.0
 11
1085.8545939037
 21
44.0109900786
 31
0.0
  0
LINE
  5
ED
330
1F
100
AcDbEntity
  8
0
  6
SLD-実線
 62
     0
370
    18
100
AcDbLine
 10
1085.8545939037
 20
44.0109900786
 30
0.0
 11
1085.8545939037
 21
38.5629711997
 31
0.0
  0
LINE
  5
EE
330
1F
100
AcDbEntity
  8
0
  6
SLD-実線
 62
     0
370
    18
100
AcDbLine
 10
1085.8545939037
 20
38.5629711997
 30
0.0
 11
1084.9020732333
 21
38.5629711997
 31
0.0
  0
LINE
  5
EF
330
1F
100
AcDbEntity
  8
0
  6
SLD-実線
 62
     0
370
    18
100
AcDbLine
 10
1084.9020732333
 20
38.5629711997
 30
0.0
 11
1084.9020732333
 21
41.0221906001
 31
0.0
  0
LINE
  5
F0
330
1F
100
AcDbEntity
  8
0
  6
SLD-実線
 62
     0
370
    18
100
AcDbLine
 10
1084.9020732333
 20
41.0221906001
 30
0.0
 11
1082.4220178954
 21
41.0221906001
 31
0.0
  0
LINE
  5
F1
330
1F
100
AcDbEntity
  8
0
  6
SLD-実線
 62
     0
370
    18
100
AcDbLine
 10
1082.4220178954
 20
41.0221906001
 30
0.0
 11
1082.4220178954
 21
38.5629711997
 31
0.0
  0
LINE
  5
F2
330
1F
100
AcDbEntity
  8
0
  6
SLD-実線
 62
     0
370
    18
100
AcDbLine
 10
1082.4220178954
 20
38.5629711997
 30
0.0
 11
1081.4647223227
 21
38.5629711997
 31
0.0
  0
LINE
  5
F3
330
1F
100
AcDbEntity
  8
0
  6
SLD-実線
 62
     0
370
    18
100
AcDbLine
 10
1081.4647223227
 20
38.5629711997
 30
0.0
 11
1081.4647223227
 21
44.0109900786
 31
0.0
  0
LINE
  5
F4
330
1F
100
AcDbEntity
  8
0
  6
SLD-実線
 62
     0
370
    18
100
AcDbLine
 10
1095.8761010626
 20
43.2331150788
 30
0.0
 11
1096.815743966
 21
43.2331150788
 31
0.0
  0
LINE
  5
F5
330
1F
100
AcDbEntity
  8
0
  6
SLD-実線
 62
     0
370
    18
100
AcDbLine
 10
1096.815743966
 20
39.3420037516
 30
0.0
 11
1095.8761010626
 21
39.3420037516
 31
0.0
  0
LINE
  5
F6
330
1F
100
AcDbEntity
  8
0
  6
SLD-実線
 62
     0
370
    18
100
AcDbLine
 10
1095.8761010626
 20
39.3420037516
 30
0.0
 11
1095.8761010626
 21
43.2331150788
 31
0.0
  0
LINE
  5
F7
330
1F
100
AcDbEntity
  8
0
  6
SLD-実線
 62
     0
370
    18
100
AcDbLine
 10
1094.9216993701
 20
38.5629711997
 30
0.0
 11
1097.1797940961
 21
38.5629711997
 31
0.0
  0
LINE
  5
F8
330
1F
100
AcDbEntity
  8
0
  6
SLD-実線
 62
     0
370
    18
100
AcDbLine
 10
1097.1797940961
 20
44.0109900786
 30
0.0
 11
1094.9216993701
 21
44.0109900786
 31
0.0
  0
LINE
  5
F9
330
1F
100
AcDbEntity
  8
0
  6
SLD-実線
 62
     0
370
    18
100
AcDbLine
 10
1094.9216993701
 20
44.0109900786
 30
0.0
 11
1094.9216993701
 21
38.5629711997
 31
0.0
  0
LINE
  5
FA
330
1F
100
AcDbEntity
  8
0
  6
SLD-実線
 62
     0
370
    18
100
AcDbLine
 10
1100.4333836136
 20
44.0109900786
 30
0.0
 11
1101.387785306
 21
44.0109900786
 31
0.0
  0
LINE
  5
FB
330
1F
100
AcDbEntity
  8
0
  6
SLD-実線
 62
     0
370
    18
100
AcDbLine
 10
1101.387785306
 20
44.0109900786
 30
0.0
 11
1101.387785306
 21
38.5629711997
 31
0.0
  0
LINE
  5
FC
330
1F
100
AcDbEntity
  8
0
  6
SLD-実線
 62
     0
370
    18
100
AcDbLine
 10
1101.387785306
 20
38.5629711997
 30
0.0
 11
1100.4333836136
 21
38.5629711997
 31
0.0
  0
LINE
  5
FD
330
1F
100
AcDbEntity
  8
0
  6
SLD-実線
 62
     0
370
    18
100
AcDbLine
 10
1100.4333836136
 20
38.5629711997
 30
0.0
 11
1100.4333836136
 21
44.0109900786
 31
0.0
  0
LINE
  5
FE
330
1F
100
AcDbEntity
  8
0
  6
SLD-実線
 62
     0
370
    18
100
AcDbLine
 10
1107.311268703
 20
38.5629711997
 30
0.0
 11
1106.6989236511
 21
38.5629711997
 31
0.0
  0
LINE
  5
FF
330
1F
100
AcDbEntity
  8
0
  6
SLD-実線
 62
     0
370
    18
100
AcDbLine
 10
1106.6989236511
 20
38.5629711997
 30
0.0
 11
1106.5545190287
 21
39.2036762777
 31
0.0
  0
LINE
  5
100
330
1F
100
AcDbEntity
  8
0
  6
SLD-実線
 62
     0
370
    18
100
AcDbLine
 10
1107.2490502785
 20
42.2798709384
 30
0.0
 11
1106.3166420756
 21
42.2798709384
 31
0.0
  0
LINE
  5
101
330
1F
100
AcDbEntity
  8
0
  6
SLD-実線
 62
     0
370
    18
100
AcDbLine
 10
1106.4402107605
 20
40.7079152096
 30
0.0
 11
1104.9877722843
 21
40.7079152096
 31
0.0
  0
LINE
  5
102
330
1F
100
AcDbEntity
  8
0
  6
SLD-実線
 62
     0
370
    18
100
AcDbLine
 10
1104.9877722843
 20
40.7079152096
 30
0.0
 11
1104.9877722843
 21
41.4331215896
 31
0.0
  0
LINE
  5
103
330
1F
100
AcDbEntity
  8
0
  6
SLD-実線
 62
     0
370
    18
100
AcDbLine
 10
1104.9877722843
 20
41.4331215896
 30
0.0
 11
1107.311268703
 21
41.4331215896
 31
0.0
  0
LINE
  5
104
330
1F
100
AcDbEntity
  8
0
  6
SLD-実線
 62
     0
370
    18
100
AcDbLine
 10
1107.311268703
 20
41.4331215896
 30
0.0
 11
1107.311268703
 21
38.5629711997
 31
0.0
  0
LINE
  5
105
330
1F
100
AcDbEntity
  8
0
  6
SLD-実線
 62
     0
370
    18
100
AcDbLine
 10
1108.3481459814
 20
44.0109900786
 30
0.0
 11
1109.3011007337
 21
44.0109900786
 31
0.0
  0
LINE
  5
106
330
1F
100
AcDbEntity
  8
0
  6
SLD-実線
 62
     0
370
    18
100
AcDbLine
 10
1109.3011007337
 20
44.0109900786
 30
0.0
 11
1109.3011007337
 21
38.5629711997
 31
0.0
  0
LINE
  5
107
330
1F
100
AcDbEntity
  8
0
  6
SLD-実線
 62
     0
370
    18
100
AcDbLine
 10
1109.3011007337
 20
38.5629711997
 30
0.0
 11
1108.3481459814
 21
38.5629711997
 31
0.0
  0
LINE
  5
108
330
1F
100
AcDbEntity
  8
0
  6
SLD-実線
 62
     0
370
    18
100
AcDbLine
 10
1108.3481459814
 20
38.5629711997
 30
0.0
 11
1108.3481459814
 21
44.0109900786
 31
0.0
  0
LINE
  5
109
330
1F
100
AcDbEntity
  8
0
  6
SLD-実線
 62
     0
370
    18
100
AcDbLine
 10
1109.9504874523
 20
44.0109900786
 30
0.0
 11
1114.3630759929
 21
44.0109900786
 31
0.0
  0
LINE
  5
10A
330
1F
100
AcDbEntity
  8
0
  6
SLD-実線
 62
     0
370
    18
100
AcDbLine
 10
1114.3630759929
 20
44.0109900786
 30
0.0
 11
1114.3630759929
 21
43.1885493236
 31
0.0
  0
LINE
  5
10B
330
1F
100
AcDbEntity
  8
0
  6
SLD-実線
 62
     0
370
    18
100
AcDbLine
 10
1114.3630759929
 20
43.1885493236
 30
0.0
 11
1112.6296417485
 21
43.1885493236
 31
0.0
  0
LINE
  5
10C
330
1F
100
AcDbEntity
  8
0
  6
SLD-実線
 62
     0
370
    18
100
AcDbLine
 10
1112.6296417485
 20
43.1885493236
 30
0.0
 11
1112.6296417485
 21
38.5629711997
 31
0.0
  0
LINE
  5
10D
330
1F
100
AcDbEntity
  8
0
  6
SLD-実線
 62
     0
370
    18
100
AcDbLine
 10
1112.6296417485
 20
38.5629711997
 30
0.0
 11
1111.6766869962
 21
38.5629711997
 31
0.0
  0
LINE
  5
10E
330
1F
100
AcDbEntity
  8
0
  6
SLD-実線
 62
     0
370
    18
100
AcDbLine
 10
1111.6766869962
 20
38.5629711997
 30
0.0
 11
1111.6766869962
 21
43.1885493236
 31
0.0
  0
LINE
  5
10F
330
1F
100
AcDbEntity
  8
0
  6
SLD-実線
 62
     0
370
    18
100
AcDbLine
 10
1111.6766869962
 20
43.1885493236
 30
0.0
 11
1109.9504874523
 21
43.1885493236
 31
0.0
  0
LINE
  5
110
330
1F
100
AcDbEntity
  8
0
  6
SLD-実線
 62
     0
370
    18
100
AcDbLine
 10
1109.9504874523
 20
43.1885493236
 30
0.0
 11
1109.9504874523
 21
44.0109900786
 31
0.0
  0
LINE
  5
111
330
1F
100
AcDbEntity
  8
0
  6
SLD-実線
 62
     0
370
    18
100
AcDbLine
 10
1114.9953888183
 20
44.0109900786
 30
0.0
 11
1118.9183328277
 21
44.0109900786
 31
0.0
  0
LINE
  5
112
330
1F
100
AcDbEntity
  8
0
  6
SLD-実線
 62
     0
370
    18
100
AcDbLine
 10
1118.9183328277
 20
44.0109900786
 30
0.0
 11
1118.9183328277
 21
43.1885493236
 31
0.0
  0
LINE
  5
113
330
1F
100
AcDbEntity
  8
0
  6
SLD-実線
 62
     0
370
    18
100
AcDbLine
 10
1118.9183328277
 20
43.1885493236
 30
0.0
 11
1115.9509480628
 21
43.1885493236
 31
0.0
  0
LINE
  5
114
330
1F
100
AcDbEntity
  8
0
  6
SLD-実線
 62
     0
370
    18
100
AcDbLine
 10
1115.9509480628
 20
43.1885493236
 30
0.0
 11
1115.9509480628
 21
41.758972501
 31
0.0
  0
LINE
  5
115
330
1F
100
AcDbEntity
  8
0
  6
SLD-実線
 62
     0
370
    18
100
AcDbLine
 10
1115.9509480628
 20
41.758972501
 30
0.0
 11
1118.6966616038
 21
41.758972501
 31
0.0
  0
LINE
  5
116
330
1F
100
AcDbEntity
  8
0
  6
SLD-実線
 62
     0
370
    18
100
AcDbLine
 10
1118.6966616038
 20
41.758972501
 30
0.0
 11
1118.6966616038
 21
40.9834126054
 31
0.0
  0
LINE
  5
117
330
1F
100
AcDbEntity
  8
0
  6
SLD-実線
 62
     0
370
    18
100
AcDbLine
 10
1118.6966616038
 20
40.9834126054
 30
0.0
 11
1115.9509480628
 21
40.9834126054
 31
0.0
  0
LINE
  5
118
330
1F
100
AcDbEntity
  8
0
  6
SLD-実線
 62
     0
370
    18
100
AcDbLine
 10
1115.9509480628
 20
40.9834126054
 30
0.0
 11
1115.9509480628
 21
39.3883058349
 31
0.0
  0
LINE
  5
119
330
1F
100
AcDbEntity
  8
0
  6
SLD-実線
 62
     0
370
    18
100
AcDbLine
 10
1115.9509480628
 20
39.3883058349
 30
0.0
 11
1118.9698438954
 21
39.3883058349
 31
0.0
  0
LINE
  5
11A
330
1F
100
AcDbEntity
  8
0
  6
SLD-実線
 62
     0
370
    18
100
AcDbLine
 10
1118.9698438954
 20
39.3883058349
 30
0.0
 11
1118.9698438954
 21
38.5629711997
 31
0.0
  0
LINE
  5
11B
330
1F
100
AcDbEntity
  8
0
  6
SLD-実線
 62
     0
370
    18
100
AcDbLine
 10
1118.9698438954
 20
38.5629711997
 30
0.0
 11
1114.9953888183
 21
38.5629711997
 31
0.0
  0
LINE
  5
11C
330
1F
100
AcDbEntity
  8
0
  6
SLD-実線
 62
     0
370
    18
100
AcDbLine
 10
1114.9953888183
 20
38.5629711997
 30
0.0
 11
1114.9953888183
 21
44.0109900786
 31
0.0
  0
LINE
  5
11D
330
1F
100
AcDbEntity
  8
0
  6
SLD-実線
 62
     0
370
    18
100
AcDbLine
 10
1123.5146827614
 20
40.6390408606
 30
0.0
 11
1124.4447758602
 21
40.6390408606
 31
0.0
  0
LINE
  5
11E
330
1F
100
AcDbEntity
  8
0
  6
SLD-実線
 62
     0
370
    18
100
AcDbLine
 10
1124.4395668758
 20
42.2798709384
 30
0.0
 11
1123.4842970193
 21
42.2798709384
 31
0.0
  0
LINE
  5
11F
330
1F
100
AcDbEntity
  8
0
  6
SLD-実線
 62
     0
370
    18
100
AcDbLine
 10
1131.1461342569
 20
40.6390408606
 30
0.0
 11
1132.0794106239
 21
40.6390408606
 31
0.0
  0
LINE
  5
120
330
1F
100
AcDbEntity
  8
0
  6
SLD-実線
 62
     0
370
    18
100
AcDbLine
 10
1132.0698608192
 20
42.2798709384
 30
0.0
 11
1131.1143015746
 21
42.2798709384
 31
0.0
  0
LINE
  5
121
330
1F
100
AcDbEntity
  8
0
  6
SLD-実線
 62
     0
370
    18
100
AcDbLine
 10
1138.6953995545
 20
39.5931925536
 30
0.0
 11
1139.7574535907
 21
39.5931925536
 31
0.0
  0
LINE
  5
122
330
1F
100
AcDbEntity
  8
0
  6
SLD-実線
 62
     0
370
    18
100
AcDbLine
 10
1139.7574535907
 20
39.5931925536
 30
0.0
 11
1139.7574535907
 21
38.5629711997
 31
0.0
  0
LINE
  5
123
330
1F
100
AcDbEntity
  8
0
  6
SLD-実線
 62
     0
370
    18
100
AcDbLine
 10
1139.7574535907
 20
38.5629711997
 30
0.0
 11
1138.6953995545
 21
38.5629711997
 31
0.0
  0
LINE
  5
124
330
1F
100
AcDbEntity
  8
0
  6
SLD-実線
 62
     0
370
    18
100
AcDbLine
 10
1138.6953995545
 20
38.5629711997
 30
0.0
 11
1138.6953995545
 21
39.5931925536
 31
0.0
  0
LINE
  5
125
330
1F
100
AcDbEntity
  8
0
  6
SLD-実線
 62
     0
370
    18
100
AcDbLine
 10
1140.8160349707
 20
39.5931925536
 30
0.0
 11
1141.8783783949
 21
39.5931925536
 31
0.0
  0
LINE
  5
126
330
1F
100
AcDbEntity
  8
0
  6
SLD-実線
 62
     0
370
    18
100
AcDbLine
 10
1141.8783783949
 20
39.5931925536
 30
0.0
 11
1141.8783783949
 21
38.5629711997
 31
0.0
  0
LINE
  5
127
330
1F
100
AcDbEntity
  8
0
  6
SLD-実線
 62
     0
370
    18
100
AcDbLine
 10
1140.8478676529
 20
37.3573807052
 30
0.0
 11
1140.8478676529
 21
37.8215590905
 31
0.0
  0
LINE
  5
128
330
1F
100
AcDbEntity
  8
0
  6
SLD-実線
 62
     0
370
    18
100
AcDbLine
 10
1141.3453256606
 20
38.5629711997
 30
0.0
 11
1140.8160349707
 21
38.5629711997
 31
0.0
  0
LINE
  5
129
330
1F
100
AcDbEntity
  8
0
  6
SLD-実線
 62
     0
370
    18
100
AcDbLine
 10
1140.8160349707
 20
38.5629711997
 30
0.0
 11
1140.8160349707
 21
39.5931925536
 31
0.0
  0
LINE
  5
12A
330
1F
100
AcDbEntity
  8
0
  6
SLD-実線
 62
     0
370
    18
100
AcDbLine
 10
1142.9928116628
 20
44.0109900786
 30
0.0
 11
1143.9483709074
 21
44.0109900786
 31
0.0
  0
LINE
  5
12B
330
1F
100
AcDbEntity
  8
0
  6
SLD-実線
 62
     0
370
    18
100
AcDbLine
 10
1143.9483709074
 20
44.0109900786
 30
0.0
 11
1143.9483709074
 21
39.3883058349
 31
0.0
  0
LINE
  5
12C
330
1F
100
AcDbEntity
  8
0
  6
SLD-実線
 62
     0
370
    18
100
AcDbLine
 10
1143.9483709074
 20
39.3883058349
 30
0.0
 11
1146.717524878
 21
39.3883058349
 31
0.0
  0
LINE
  5
12D
330
1F
100
AcDbEntity
  8
0
  6
SLD-実線
 62
     0
370
    18
100
AcDbLine
 10
1146.717524878
 20
39.3883058349
 30
0.0
 11
1146.717524878
 21
38.5629711997
 31
0.0
  0
LINE
  5
12E
330
1F
100
AcDbEntity
  8
0
  6
SLD-実線
 62
     0
370
    18
100
AcDbLine
 10
1146.717524878
 20
38.5629711997
 30
0.0
 11
1142.9928116628
 21
38.5629711997
 31
0.0
  0
LINE
  5
12F
330
1F
100
AcDbEntity
  8
0
  6
SLD-実線
 62
     0
370
    18
100
AcDbLine
 10
1142.9928116628
 20
38.5629711997
 30
0.0
 11
1142.9928116628
 21
44.0109900786
 31
0.0
  0
LINE
  5
130
330
1F
100
AcDbEntity
  8
0
  6
SLD-実線
 62
     0
370
    18
100
AcDbLine
 10
1146.1526394615
 20
44.0109900786
 30
0.0
 11
1150.564359838
 21
44.0109900786
 31
0.0
  0
LINE
  5
131
330
1F
100
AcDbEntity
  8
0
  6
SLD-実線
 62
     0
370
    18
100
AcDbLine
 10
1150.564359838
 20
44.0109900786
 30
0.0
 11
1150.564359838
 21
43.1885493236
 31
0.0
  0
LINE
  5
132
330
1F
100
AcDbEntity
  8
0
  6
SLD-実線
 62
     0
370
    18
100
AcDbLine
 10
1150.564359838
 20
43.1885493236
 30
0.0
 11
1148.8338194739
 21
43.1885493236
 31
0.0
  0
LINE
  5
133
330
1F
100
AcDbEntity
  8
0
  6
SLD-実線
 62
     0
370
    18
100
AcDbLine
 10
1148.8338194739
 20
43.1885493236
 30
0.0
 11
1148.8338194739
 21
38.5629711997
 31
0.0
  0
LINE
  5
134
330
1F
100
AcDbEntity
  8
0
  6
SLD-実線
 62
     0
370
    18
100
AcDbLine
 10
1148.8338194739
 20
38.5629711997
 30
0.0
 11
1147.8773920652
 21
38.5629711997
 31
0.0
  0
LINE
  5
135
330
1F
100
AcDbEntity
  8
0
  6
SLD-実線
 62
     0
370
    18
100
AcDbLine
 10
1147.8773920652
 20
38.5629711997
 30
0.0
 11
1147.8773920652
 21
43.1885493236
 31
0.0
  0
LINE
  5
136
330
1F
100
AcDbEntity
  8
0
  6
SLD-実線
 62
     0
370
    18
100
AcDbLine
 10
1147.8773920652
 20
43.1885493236
 30
0.0
 11
1146.1526394615
 21
43.1885493236
 31
0.0
  0
LINE
  5
137
330
1F
100
AcDbEntity
  8
0
  6
SLD-実線
 62
     0
370
    18
100
AcDbLine
 10
1146.1526394615
 20
43.1885493236
 30
0.0
 11
1146.1526394615
 21
44.0109900786
 31
0.0
  0
LINE
  5
138
330
1F
100
AcDbEntity
  8
0
  6
SLD-実線
 62
     0
370
    18
100
AcDbLine
 10
1152.1522319079
 20
43.2331150788
 30
0.0
 11
1153.0936111395
 21
43.2331150788
 31
0.0
  0
LINE
  5
139
330
1F
100
AcDbEntity
  8
0
  6
SLD-実線
 62
     0
370
    18
100
AcDbLine
 10
1153.0936111395
 20
39.3420037516
 30
0.0
 11
1152.1522319079
 21
39.3420037516
 31
0.0
  0
LINE
  5
13A
330
1F
100
AcDbEntity
  8
0
  6
SLD-実線
 62
     0
370
    18
100
AcDbLine
 10
1152.1522319079
 20
39.3420037516
 30
0.0
 11
1152.1522319079
 21
43.2331150788
 31
0.0
  0
LINE
  5
13B
330
1F
100
AcDbEntity
  8
0
  6
SLD-実線
 62
     0
370
    18
100
AcDbLine
 10
1151.1995665436
 20
38.5629711997
 30
0.0
 11
1153.4579506576
 21
38.5629711997
 31
0.0
  0
LINE
  5
13C
330
1F
100
AcDbEntity
  8
0
  6
SLD-実線
 62
     0
370
    18
100
AcDbLine
 10
1153.4579506576
 20
44.0109900786
 30
0.0
 11
1151.1995665436
 21
44.0109900786
 31
0.0
  0
LINE
  5
13D
330
1F
100
AcDbEntity
  8
0
  6
SLD-実線
 62
     0
370
    18
100
AcDbLine
 10
1151.1995665436
 20
44.0109900786
 30
0.0
 11
1151.1995665436
 21
38.5629711997
 31
0.0
  0
LINE
  5
13E
330
1F
100
AcDbEntity
  8
0
  6
SLD-実線
 62
     0
370
    18
100
AcDbLine
 10
1156.655398899
 20
38.2133810058
 30
0.0
 11
1157.715427219
 21
38.2133810058
 31
0.0
  0
LINE
  5
13F
330
1F
100
AcDbEntity
  8
0
  6
SLD-実線
 62
     0
370
    18
100
AcDbLine
 10
1157.715427219
 20
38.2133810058
 30
0.0
 11
1157.715427219
 21
37.1831596519
 31
0.0
  0
LINE
  5
140
330
1F
100
AcDbEntity
  8
0
  6
SLD-実線
 62
     0
370
    18
100
AcDbLine
 10
1157.715427219
 20
37.1831596519
 30
0.0
 11
1156.655398899
 21
37.1831596519
 31
0.0
  0
LINE
  5
141
330
1F
100
AcDbEntity
  8
0
  6
SLD-実線
 62
     0
370
    18
100
AcDbLine
 10
1156.655398899
 20
37.1831596519
 30
0.0
 11
1156.655398899
 21
38.2133810058
 31
0.0
  0
LINE
  5
142
330
1F
100
AcDbEntity
  8
0
  6
SLD-実線
 62
     0
370
    18
100
AcDbLine
 10
1060.0336583632
 20
51.9221350961
 30
0.0
 11
1060.0336583632
 21
67.8080904958
 31
0.0
  0
LINE
  5
143
330
1F
100
AcDbEntity
  8
0
  6
SLD-実線
 62
     0
370
    18
100
AcDbLine
 10
1057.6899047831
 20
52.6858130879
 30
0.0
 11
1062.8863007779
 21
50.722042974
 31
0.0
  0
LINE
  5
144
330
1F
100
AcDbEntity
  8
0
  6
SLD-実線
 62
     0
370
    18
100
AcDbLine
 10
1063.738548499
 20
68.8753535164
 30
0.0
 11
1057.6899047831
 21
68.8753535164
 31
0.0
  0
LINE
  5
145
330
1F
100
AcDbEntity
  8
0
  6
SLD-実線
 62
     0
370
    18
100
AcDbLine
 10
1057.6899047831
 20
68.8753535164
 30
0.0
 11
1057.6899047831
 21
52.6858130879
 31
0.0
  0
LINE
  5
146
330
1F
100
AcDbEntity
  8
0
  6
SLD-実線
 62
     0
370
    18
100
AcDbLine
 10
1078.3998137948
 20
50.6439082084
 30
0.0
 11
1078.3998137948
 21
63.3846499044
 31
0.0
  0
LINE
  5
147
330
1F
100
AcDbEntity
  8
0
  6
SLD-実線
 62
     0
370
    18
100
AcDbLine
 10
1080.5314459558
 20
63.3846499044
 30
0.0
 11
1080.5314459558
 21
50.6439082084
 31
0.0
  0
LINE
  5
148
330
1F
100
AcDbEntity
  8
0
  6
SLD-実線
 62
     0
370
    18
100
AcDbLine
 10
1099.6152836789
 20
52.2430664111
 30
0.0
 11
1099.6152836789
 21
59.0944724967
 31
0.0
  0
LINE
  5
149
330
1F
100
AcDbEntity
  8
0
  6
SLD-実線
 62
     0
370
    18
100
AcDbLine
 10
1101.9619311392
 20
59.0944724967
 30
0.0
 11
1101.9619311392
 21
51.5508502655
 31
0.0
  0
LINE
  5
14A
330
1F
100
AcDbEntity
  8
0
  6
SLD-実線
 62
     0
370
    18
100
AcDbLine
 10
1101.4543445508
 20
65.679062827
 30
0.0
 11
1101.1609050978
 21
65.679062827
 31
0.0
  0
LINE
  5
14B
330
1F
100
AcDbEntity
  8
0
  6
SLD-実線
 62
     0
370
    18
100
AcDbLine
 10
1106.5458373881
 20
50.6439082084
 30
0.0
 11
1106.5458373881
 21
63.3846499044
 31
0.0
  0
LINE
  5
14C
330
1F
100
AcDbEntity
  8
0
  6
SLD-実線
 62
     0
370
    18
100
AcDbLine
 10
1108.6783377131
 20
63.3846499044
 30
0.0
 11
1108.6783377131
 21
50.6439082084
 31
0.0
  0
LINE
  5
14D
330
1F
100
AcDbEntity
  8
0
  6
SLD-実線
 62
     0
370
    18
100
AcDbLine
 10
1117.6861186353
 20
50.5923971407
 30
0.0
 11
1117.6861186353
 21
67.5984288747
 31
0.0
  0
LINE
  5
14E
330
1F
100
AcDbEntity
  8
0
  6
SLD-実線
 62
     0
370
    18
100
AcDbLine
 10
1111.8497410326
 20
68.8753535164
 30
0.0
 11
1125.6037748833
 21
68.8753535164
 31
0.0
  0
LINE
  5
14F
330
1F
100
AcDbEntity
  8
0
  6
SLD-実線
 62
     0
370
    18
100
AcDbLine
 10
1120.0342130357
 20
67.5984288747
 30
0.0
 11
1120.0342130357
 21
50.5923971407
 31
0.0
  0
LINE
  5
150
330
1F
100
AcDbEntity
  8
0
  6
SLD-実線
 62
     0
370
    18
100
AcDbLine
 10
1130.8518266398
 20
60.9338227566
 30
0.0
 11
1134.9848663523
 21
60.9338227566
 31
0.0
  0
LINE
  5
151
330
1F
100
AcDbEntity
  8
0
  6
SLD-実線
 62
     0
370
    18
100
AcDbLine
 10
1134.9848663523
 20
59.7606437205
 30
0.0
 11
1130.8518266398
 21
59.7606437205
 31
0.0
  0
LINE
  5
152
330
1F
100
AcDbEntity
  8
0
  6
SLD-実線
 62
     0
370
    18
100
AcDbLine
 10
1130.8518266398
 20
59.7606437205
 30
0.0
 11
1130.8518266398
 21
51.976250656
 31
0.0
  0
LINE
  5
153
330
1F
100
AcDbEntity
  8
0
  6
SLD-実線
 62
     0
370
    18
100
AcDbLine
 10
1138.1296459739
 20
50.722042974
 30
0.0
 11
1128.5080730597
 21
50.722042974
 31
0.0
  0
LINE
  5
154
330
1F
100
AcDbEntity
  8
0
  6
SLD-実線
 62
     0
370
    18
100
AcDbLine
 10
1128.5080730597
 20
50.722042974
 30
0.0
 11
1128.5080730597
 21
68.8753535164
 31
0.0
  0
LINE
  5
155
330
1F
100
AcDbEntity
  8
0
  6
SLD-実線
 62
     0
370
    18
100
AcDbLine
 10
1128.5080730597
 20
68.8753535164
 30
0.0
 11
1137.9690356224
 21
68.8753535164
 31
0.0
  0
LINE
  5
156
330
1F
100
AcDbEntity
  8
0
  6
SLD-実線
 62
     0
370
    18
100
AcDbLine
 10
1135.5714558704
 20
67.5687666026
 30
0.0
 11
1132.9090860794
 21
67.6217246104
 31
0.0
  0
LINE
  5
157
330
1F
100
AcDbEntity
  8
0
  6
SLD-実線
 62
     0
370
    18
100
AcDbLine
 10
1132.9090860794
 20
67.6217246104
 30
0.0
 11
1130.8518266398
 21
67.6217246104
 31
0.0
  0
LINE
  5
158
330
1F
100
AcDbEntity
  8
0
  6
SLD-実線
 62
     0
370
    18
100
AcDbLine
 10
1130.8518266398
 20
67.6217246104
 30
0.0
 11
1130.8518266398
 21
60.9338227566
 31
0.0
  0
LINE
  5
159
330
1F
100
AcDbEntity
  8
0
  6
SLD-実線
 62
     0
370
    18
100
AcDbLine
 10
1155.6960776102
 20
65.9949298517
 30
0.0
 11
1155.5082647847
 21
65.9696083999
 31
0.0
  0
LINE
  5
15A
330
1F
100
AcDbEntity
  8
0
  6
SLD-実線
 62
     0
370
    18
100
AcDbLine
 10
1155.8827328836
 20
53.523319015
 30
0.0
 11
1155.7487462299
 21
51.8431321664
 31
0.0
  0
LINE
  5
15B
330
1F
100
AcDbEntity
  8
レイヤー_1
 62
     0
370
    35
100
AcDbLine
 10
780.0
 20
169.2549118452
 30
0.0
 11
1230.0
 21
169.2549118452
 31
0.0
  0
LINE
  5
15C
330
1F
100
AcDbEntity
  8
FORMAT
 62
     0
370
    50
100
AcDbLine
 10
1178.2887747337
 20
30.0
 30
0.0
 11
1178.2674676185
 21
79.4463382573
 31
0.0
  0
LINE
  5
15D
330
1F
100
AcDbEntity
  8
レイヤー_1
 62
     0
370
    35
100
AcDbLine
 10
780.0
 20
146.7549118452
 30
0.0
 11
1230.0
 21
146.7549118452
 31
0.0
  0
LINE
  5
15E
330
1F
100
AcDbEntity
  8
FORMAT
 62
     0
370
    50
100
AcDbLine
 10
780.0
 20
30.0
 30
0.0
 11
780.0
 21
214.2549118452
 31
0.0
  0
LINE
  5
15F
330
1F
100
AcDbEntity
  8
レイヤー_1
 62
     0
370
    35
100
AcDbLine
 10
780.0
 20
124.2549118452
 30
0.0
 11
1230.0
 21
124.2549118452
 31
0.0
  0
LINE
  5
160
330
1F
100
AcDbEntity
  8
レイヤー_1
 62
     0
370
    35
100
AcDbLine
 10
780.0
 20
101.7549118452
 30
0.0
 11
1230.0
 21
101.7549118452
 31
0.0
  0
LINE
  5
161
330
1F
100
AcDbEntity
  8
FORMAT
 62
     0
100
AcDbLine
 10
999.0
 20
58.3973064965
 30
0.0
 11
780.0
 21
58.3973064965
 31
0.0
  0
LINE
  5
162
330
1F
100
AcDbEntity
  8
FORMAT
 62
     0
370
    50
100
AcDbLine
 10
898.7765188899
 20
30.0
 30
0.0
 11
898.7552117748
 21
79.4463382573
 31
0.0
  0
LINE
  5
163
330
1F
100
AcDbEntity
  8
FORMAT
 62
     0
370
    50
100
AcDbLine
 10
630.0
 20
30.0
 30
0.0
 11
630.0
 21
214.2549118452
 31
0.0
  0
LINE
  5
164
330
1F
100
AcDbEntity
  8
FORMAT
 62
     0
100
AcDbLine
 10
780.0
 20
191.7549118452
 30
0.0
 11
630.0
 21
191.7549118452
 31
0.0
  0
LINE
  5
165
330
1F
100
AcDbEntity
  8
0
  6
SLD-実線
 62
     0
100
AcDbLine
 10
683.0332098849
 20
191.7549118452
 30
0.0
 11
683.0332098849
 21
30.0
 31
0.0
  0
LINE
  5
166
330
1F
100
AcDbEntity
  8
FORMAT
 62
     0
100
AcDbLine
 10
630.0
 20
71.841392013
 30
0.0
 11
780.0
 21
71.841392013
 31
0.0
  0
LINE
  5
167
330
1F
100
AcDbEntity
  8
FORMAT
 62
     0
100
AcDbLine
 10
630.0
 20
152.1401063398
 30
0.0
 11
780.0
 21
152.1401063398
 31
0.0
  0
LINE
  5
168
330
1F
100
AcDbEntity
  8
FORMAT
 62
     0
100
AcDbLine
 10
780.0
 20
112.441865549
 30
0.0
 11
630.0
 21
112.441865549
 31
0.0
  0
LINE
  5
169
330
1F
100
AcDbEntity
  8
レイヤー_1
 62
     0
370
    25
100
AcDbLine
 10
60.0
 20
861.0
 30
0.0
 11
60.0
 21
711.0
 31
0.0
  0
LINE
  5
16A
330
1F
100
AcDbEntity
  8
レイヤー_1
 62
     0
370
    25
100
AcDbLine
 10
210.0
 20
861.0
 30
0.0
 11
210.0
 21
711.0
 31
0.0
  0
LINE
  5
16B
330
1F
100
AcDbEntity
  8
レイヤー_1
 62
     0
370
    25
100
AcDbLine
 10
180.0
 20
861.0
 30
0.0
 11
180.0
 21
711.0
 31
0.0
  0
LINE
  5
16C
330
1F
100
AcDbEntity
  8
FORMAT
 62
     0
370
    35
100
AcDbLine
 10
780.0
 20
50.8687154474
 30
0.0
 11
630.0
 21
50.8687154474
 31
0.0
  0
LINE
  5
16D
330
1F
100
AcDbEntity
  8
FORMAT
 62
     0
100
AcDbLine
 10
630.0
 20
50.8687154474
 30
0.0
 11
30.0
 21
50.8687154474
 31
0.0
  0
LINE
  5
16E
330
1F
100
AcDbEntity
  8
FORMAT
 62
     0
370
    18
100
AcDbLine
 10
630.0
 20
71.841392013
 30
0.0
 11
30.0
 21
71.841392013
 31
0.0
  0
LINE
  5
16F
330
1F
100
AcDbEntity
  8
FORMAT
 62
     0
370
    18
100
AcDbLine
 10
630.0
 20
91.4548497921
 30
0.0
 11
30.0
 21
91.4548497921
 31
0.0
  0
LINE
  5
170
330
1F
100
AcDbEntity
  8
FORMAT
 62
     0
370
    18
100
AcDbLine
 10
630.0
 20
112.441865549
 30
0.0
 11
30.0
 21
112.441865549
 31
0.0
  0
LINE
  5
171
330
1F
100
AcDbEntity
  8
FORMAT
 62
     0
370
    18
100
AcDbLine
 10
630.0
 20
131.8027093284
 30
0.0
 11
30.0
 21
131.8027093284
 31
0.0
  0
LINE
  5
172
330
1F
100
AcDbEntity
  8
FORMAT
 62
     0
370
    18
100
AcDbLine
 10
630.0
 20
152.1401063398
 30
0.0
 11
30.0
 21
152.1401063398
 31
0.0
  0
LINE
  5
173
330
1F
100
AcDbEntity
  8
FORMAT
 62
     0
370
    18
100
AcDbLine
 10
630.0
 20
191.7549118452
 30
0.0
 11
30.0
 21
191.7549118452
 31
0.0
  0
LINE
  5
174
330
1F
100
AcDbEntity
  8
FORMAT
 62
     0
370
    18
100
AcDbLine
 10
630.0
 20
191.7549118452
 30
0.0
 11
30.0
 21
191.7549118452
 31
0.0
  0
LINE
  5
175
330
1F
100
AcDbEntity
  8
FORMAT
 62
     0
370
    18
100
AcDbLine
 10
60.0
 20
30.0
 30
0.0
 11
60.0
 21
214.2549118452
 31
0.0
  0
LINE
  5
176
330
1F
100
AcDbEntity
  8
FORMAT
 62
     0
370
    18
100
AcDbLine
 10
510.0831300113
 20
30.0
 30
0.0
 11
510.0831300113
 21
214.2549118452
 31
0.0
  0
LINE
  5
177
330
1F
100
AcDbEntity
  8
FORMAT
 62
     0
370
    18
100
AcDbLine
 10
480.0
 20
30.0
 30
0.0
 11
480.0
 21
214.2549118452
 31
0.0
  0
LINE
  5
178
330
1F
100
AcDbEntity
  8
0
  6
SLD-実線
 62
     0
370
    18
100
AcDbLine
 10
844.160292354
 20
50.4838049566
 30
0.0
 11
863.92375413
 21
53.4838049566
 31
0.0
  0
LINE
  5
179
330
1F
100
AcDbEntity
  8
0
  6
SLD-実線
 62
     0
370
    18
100
AcDbLine
 10
874.5198270099
 20
44.4838049566
 30
0.0
 11
806.1811097845
 21
44.4838049566
 31
0.0
  0
LINE
  5
17A
330
1F
100
AcDbEntity
  8
0
  6
SLD-実線
 62
     0
370
    18
100
AcDbLine
 10
820.689235265
 20
56.0984644726
 30
0.0
 11
820.689235265
 21
32.0984644726
 31
0.0
  0
LINE
  5
17B
330
1F
100
AcDbEntity
  8
0
  6
SLD-実線
 62
     0
370
    18
100
AcDbLine
 10
844.160292354
 20
38.4838049566
 30
0.0
 11
864.0428111287
 21
35.4838049566
 31
0.0
  0
LINE
  5
17C
330
1F
100
AcDbEntity
  8
レイヤー_1
 62
     0
370
    25
100
AcDbLine
 10
330.0
 20
861.0
 30
0.0
 11
330.0
 21
711.0
 31
0.0
  0
LINE
  5
17D
330
1F
100
AcDbEntity
  8
レイヤー_1
 62
     0
370
    25
100
AcDbLine
 10
30.0
 20
831.0
 30
0.0
 11
330.0
 21
831.0
 31
0.0
  0
LINE
  5
17E
330
1F
100
AcDbEntity
  8
0
  6
SLD-実線
 62
     0
370
    18
100
AcDbLine
 10
844.160292354
 20
50.4838049566
 30
0.0
 11
844.160292354
 21
38.4838049566
 31
0.0
  0
LINE
  5
17F
330
1F
100
AcDbEntity
  8
0
  6
SLD-実線
 62
     0
370
    18
100
AcDbLine
 10
864.0428111287
 20
35.4838049566
 30
0.0
 11
863.92375413
 21
53.4838049566
 31
0.0
  0
LINE
  5
180
330
1F
100
AcDbEntity
  8
レイヤー_1
 62
     0
370
    25
100
AcDbLine
 10
30.0
 20
801.0
 30
0.0
 11
330.0
 21
801.0
 31
0.0
  0
LINE
  5
181
330
1F
100
AcDbEntity
  8
レイヤー_1
 62
     0
370
    25
100
AcDbLine
 10
30.0
 20
771.0
 30
0.0
 11
330.0
 21
771.0
 31
0.0
  0
LINE
  5
182
330
1F
100
AcDbEntity
  8
レイヤー_1
 62
     0
370
    25
100
AcDbLine
 10
30.0
 20
741.0
 30
0.0
 11
330.0
 21
741.0
 31
0.0
  0
LINE
  5
183
330
1F
100
AcDbEntity
  8
レイヤー_1
 62
     0
370
    25
100
AcDbLine
 10
30.0
 20
711.0
 30
0.0
 11
330.0
 21
711.0
 31
0.0
  0
LINE
  5
184
330
1F
100
AcDbEntity
  8
0
  6
SLD-実線
 62
     0
370
    18
100
AcDbLine
 10
630.0
 20
172.4775033512
 30
0.0
 11
30.0
 21
172.4775033512
 31
0.0
  0
CIRCLE
  5
185
330
1F
100
AcDbEntity
  8
0
  6
SLD-実線
 62
     0
370
    18
100
AcDbCircle
 10
820.689235265
 20
44.4838049566
 30
0.0
 40
8.999999999999892
  0
CIRCLE
  5
186
330
1F
100
AcDbEntity
  8
0
  6
SLD-実線
 62
     0
370
    18
100
AcDbCircle
 10
820.689235265
 20
44.4838049566
 30
0.0
 40
5.999999999999818
  0
SPLINE
  5
187
330
1F
100
AcDbEntity
  8
0
  6
SLD-実線
 62
     0
370
    18
100
AcDbSpline
210
0.0
220
0.0
230
1.0
 70
     8
 71
     3
 72
     8
 73
     4
 74
     0
 42
0.000000001
 43
0.00000001
 40
0.0
 40
0.0
 40
0.0
 40
0.0
 40
1.0
 40
1.0
 40
1.0
 40
1.0
 10
1077.1683230725
 20
40.38090674612996
 30
0.0
 10
1077.1683230725
 20
39.53820882967392
 30
0.0
 10
1077.787613436928
 20
39.21004281413101
 30
0.0
 10
1078.550729647675
 20
39.21004281413101
 30
0.0
  0
SPLINE
  5
188
330
1F
100
AcDbEntity
  8
0
  6
SLD-実線
 62
     0
370
    18
100
AcDbSpline
210
0.0
220
0.0
230
1.0
 70
     8
 71
     3
 72
     8
 73
     4
 74
     0
 42
0.000000001
 43
0.00000001
 40
1.0
 40
1.0
 40
1.0
 40
1.0
 40
2.0
 40
2.0
 40
2.0
 40
2.0
 10
1078.550729647675
 20
39.21004281413101
 30
0.0
 10
1079.391401847986
 20
39.21004281413101
 30
0.0
 10
1079.701915194262
 20
39.62502523590232
 30
0.0
 10
1079.701915194262
 20
40.03653500142444
 30
0.0
  0
SPLINE
  5
189
330
1F
100
AcDbEntity
  8
0
  6
SLD-実線
 62
     0
370
    18
100
AcDbSpline
210
0.0
220
0.0
230
1.0
 70
     8
 71
     3
 72
     8
 73
     4
 74
     0
 42
0.000000001
 43
0.00000001
 40
2.0
 40
2.0
 40
2.0
 40
2.0
 40
3.0
 40
3.0
 40
3.0
 40
3.0
 10
1079.701915194262
 20
40.03653500142444
 30
0.0
 10
1079.701915194262
 20
40.4555688554864
 30
0.0
 10
1079.473877433903
 20
40.62572901169373
 30
0.0
 10
1079.252061515989
 20
40.70791520958988
 30
0.0
  0
SPLINE
  5
18A
330
1F
100
AcDbEntity
  8
0
  6
SLD-実線
 62
     0
370
    18
100
AcDbSpline
210
0.0
220
0.0
230
1.0
 70
     8
 71
     3
 72
     8
 73
     4
 74
     0
 42
0.000000001
 43
0.00000001
 40
3.0
 40
3.0
 40
3.0
 40
3.0
 40
4.0
 40
4.0
 40
4.0
 40
4.0
 10
1079.252061515989
 20
40.70791520958988
 30
0.0
 10
1078.870792798637
 20
40.85376677205342
 30
0.0
 10
1078.374781731052
 20
40.9492648189046
 30
0.0
 10
1077.626134921344
 20
41.15762419385249
 30
0.0
  0
SPLINE
  5
18B
330
1F
100
AcDbEntity
  8
0
  6
SLD-実線
 62
     0
370
    18
100
AcDbSpline
210
0.0
220
0.0
230
1.0
 70
     8
 71
     3
 72
     8
 73
     4
 74
     0
 42
0.000000001
 43
0.00000001
 40
4.0
 40
4.0
 40
4.0
 40
4.0
 40
5.0
 40
5.0
 40
5.0
 40
5.0
 10
1077.626134921344
 20
41.15762419385249
 30
0.0
 10
1076.696331210639
 20
41.40997054795597
 30
0.0
 10
1076.421557284926
 20
41.97659229260609
 30
0.0
 10
1076.421557284926
 20
42.53800505288231
 30
0.0
  0
SPLINE
  5
18C
330
1F
100
AcDbEntity
  8
0
  6
SLD-実線
 62
     0
370
    18
100
AcDbSpline
210
0.0
220
0.0
230
1.0
 70
     8
 71
     3
 72
     8
 73
     4
 74
     0
 42
0.000000001
 43
0.00000001
 40
5.0
 40
5.0
 40
5.0
 40
5.0
 40
6.0
 40
6.0
 40
6.0
 40
6.0
 10
1076.421557284926
 20
42.53800505288231
 30
0.0
 10
1076.421557284926
 20
43.63015544323429
 30
0.0
 10
1077.428482903164
 20
44.14410856810587
 30
0.0
 10
1078.412836255782
 20
44.14410856810587
 30
0.0
  0
SPLINE
  5
18D
330
1F
100
AcDbEntity
  8
0
  6
SLD-実線
 62
     0
370
    18
100
AcDbSpline
210
0.0
220
0.0
230
1.0
 70
     8
 71
     3
 72
     8
 73
     4
 74
     0
 42
0.000000001
 43
0.00000001
 40
6.0
 40
6.0
 40
6.0
 40
6.0
 40
7.0
 40
7.0
 40
7.0
 40
7.0
 10
1078.412836255782
 20
44.14410856810587
 30
0.0
 10
1079.549986483363
 20
44.14410856810587
 30
0.0
 10
1080.505835115936
 20
43.53813005263238
 30
0.0
 10
1080.505835115936
 20
42.40141390708318
 30
0.0
  0
SPLINE
  5
18E
330
1F
100
AcDbEntity
  8
0
  6
SLD-実線
 62
     0
370
    18
100
AcDbSpline
210
0.0
220
0.0
230
1.0
 70
     8
 71
     3
 72
     8
 73
     4
 74
     0
 42
0.000000001
 43
0.00000001
 40
8.0
 40
8.0
 40
8.0
 40
8.0
 40
9.0
 40
9.0
 40
9.0
 40
9.0
 10
1079.549986483363
 20
42.40141390708318
 30
0.0
 10
1079.503684400041
 20
43.10578434961536
 30
0.0
 10
1079.030390292086
 20
43.36507601621725
 30
0.0
 10
1078.374781731052
 20
43.36507601621725
 30
0.0
  0
SPLINE
  5
18F
330
1F
100
AcDbEntity
  8
0
  6
SLD-実線
 62
     0
370
    18
100
AcDbSpline
210
0.0
220
0.0
230
1.0
 70
     8
 71
     3
 72
     8
 73
     4
 74
     0
 42
0.000000001
 43
0.00000001
 40
9.0
 40
9.0
 40
9.0
 40
9.0
 40
10.0
 40
10.0
 40
10.0
 40
10.0
 10
1078.374781731052
 20
43.36507601621725
 30
0.0
 10
1077.932307447309
 20
43.36507601621725
 30
0.0
 10
1077.375090813333
 20
43.20359750063261
 30
0.0
 10
1077.375090813333
 20
42.6543390372283
 30
0.0
  0
SPLINE
  5
190
330
1F
100
AcDbEntity
  8
0
  6
SLD-実線
 62
     0
370
    18
100
AcDbSpline
210
0.0
220
0.0
230
1.0
 70
     8
 71
     3
 72
     8
 73
     4
 74
     0
 42
0.000000001
 43
0.00000001
 40
10.0
 40
10.0
 40
10.0
 40
10.0
 40
11.0
 40
11.0
 40
11.0
 40
11.0
 10
1077.375090813333
 20
42.6543390372283
 30
0.0
 10
1077.375090813333
 20
42.27234684982381
 30
0.0
 10
1077.634816561967
 20
42.05704216237758
 30
0.0
 10
1078.022885897807
 20
41.95170492282057
 30
0.0
  0
SPLINE
  5
191
330
1F
100
AcDbEntity
  8
0
  6
SLD-実線
 62
     0
370
    18
100
AcDbSpline
210
0.0
220
0.0
230
1.0
 70
     8
 71
     3
 72
     8
 73
     4
 74
     0
 42
0.000000001
 43
0.00000001
 40
11.0
 40
11.0
 40
11.0
 40
11.0
 40
12.0
 40
12.0
 40
12.0
 40
12.0
 10
1078.022885897807
 20
41.95170492282057
 30
0.0
 10
1078.109123527994
 20
41.92797510511825
 30
0.0
 10
1079.313267082381
 20
41.61775114686245
 30
0.0
 10
1079.595275708612
 20
41.53209229271719
 30
0.0
  0
SPLINE
  5
192
330
1F
100
AcDbEntity
  8
0
  6
SLD-実線
 62
     0
370
    18
100
AcDbSpline
210
0.0
220
0.0
230
1.0
 70
     8
 71
     3
 72
     8
 73
     4
 74
     0
 42
0.000000001
 43
0.00000001
 40
12.0
 40
12.0
 40
12.0
 40
12.0
 40
13.0
 40
13.0
 40
13.0
 40
13.0
 10
1079.595275708612
 20
41.53209229271719
 30
0.0
 10
1080.313102694109
 20
41.31794515735407
 30
0.0
 10
1080.655882804701
 20
40.70791520958988
 30
0.0
 10
1080.655882804701
 20
40.14187224098145
 30
0.0
  0
SPLINE
  5
193
330
1F
100
AcDbEntity
  8
0
  6
SLD-実線
 62
     0
370
    18
100
AcDbSpline
210
0.0
220
0.0
230
1.0
 70
     8
 71
     3
 72
     8
 73
     4
 74
     0
 42
0.000000001
 43
0.00000001
 40
13.0
 40
13.0
 40
13.0
 40
13.0
 40
14.0
 40
14.0
 40
14.0
 40
14.0
 10
1080.655882804701
 20
40.14187224098145
 30
0.0
 10
1080.655882804701
 20
38.92123356941157
 30
0.0
 10
1079.572703442992
 20
38.43158903828399
 30
0.0
 10
1078.489524081284
 20
38.43158903828399
 30
0.0
  0
SPLINE
  5
194
330
1F
100
AcDbEntity
  8
0
  6
SLD-実線
 62
     0
370
    18
100
AcDbSpline
210
0.0
220
0.0
230
1.0
 70
     8
 71
     3
 72
     8
 73
     4
 74
     0
 42
0.000000001
 43
0.00000001
 40
14.0
 40
14.0
 40
14.0
 40
14.0
 40
15.0
 40
15.0
 40
15.0
 40
15.0
 10
1078.489524081284
 20
38.43158903828399
 30
0.0
 10
1077.246313144095
 20
38.43158903828399
 30
0.0
 10
1076.23692772768
 20
39.02714958501005
 30
0.0
 10
1076.215223626123
 20
40.38090674612996
 30
0.0
  0
SPLINE
  5
195
330
1F
100
AcDbEntity
  8
0
  6
SLD-実線
 62
     0
370
    18
100
AcDbSpline
210
0.0
220
0.0
230
1.0
 70
     8
 71
     3
 72
    11
 73
     7
 74
     0
 42
0.000000001
 43
0.00000001
 40
2.0
 40
2.0
 40
2.0
 40
2.0
 40
3.0
 40
3.0
 40
3.0
 40
4.0
 40
4.0
 40
4.0
 40
4.0
 10
1089.320304840295
 20
39.21004281413101
 30
0.0
 10
1088.150019684338
 20
39.21004281413101
 30
0.0
 10
1087.663269033418
 20
40.24315804824776
 30
0.0
 10
1087.663269033418
 20
41.28611247507035
 30
0.0
 10
1087.663269033418
 20
42.33253955814209
 30
0.0
 10
1088.150019684338
 20
43.36507601621725
 30
0.0
 10
1089.320304840295
 20
43.36507601621725
 30
0.0
  0
SPLINE
  5
196
330
1F
100
AcDbEntity
  8
0
  6
SLD-実線
 62
     0
370
    18
100
AcDbSpline
210
0.0
220
0.0
230
1.0
 70
     8
 71
     3
 72
    11
 73
     7
 74
     0
 42
0.000000001
 43
0.00000001
 40
0.0
 40
0.0
 40
0.0
 40
0.0
 40
1.0
 40
1.0
 40
1.0
 40
2.0
 40
2.0
 40
2.0
 40
2.0
 10
1089.320304840295
 20
43.36507601621725
 30
0.0
 10
1090.487985504066
 20
43.36507601621725
 30
0.0
 10
1090.974736154986
 20
42.33253955814209
 30
0.0
 10
1090.974736154986
 20
41.28611247507035
 30
0.0
 10
1090.974736154986
 20
40.24315804824776
 30
0.0
 10
1090.487985504066
 20
39.21004281413101
 30
0.0
 10
1089.320304840295
 20
39.21004281413101
 30
0.0
  0
SPLINE
  5
197
330
1F
100
AcDbEntity
  8
0
  6
SLD-実線
 62
     0
370
    18
100
AcDbSpline
210
0.0
220
0.0
230
1.0
 70
     8
 71
     3
 72
    11
 73
     7
 74
     0
 42
0.000000001
 43
0.00000001
 40
2.0
 40
2.0
 40
2.0
 40
2.0
 40
3.0
 40
3.0
 40
3.0
 40
4.0
 40
4.0
 40
4.0
 40
4.0
 10
1089.320304840295
 20
38.43158903828399
 30
0.0
 10
1090.952453277388
 20
38.43158903828399
 30
0.0
 10
1091.930006011518
 20
39.7320988035839
 30
0.0
 10
1091.930006011518
 20
41.28611247507035
 30
0.0
 10
1091.930006011518
 20
42.84417757884742
 30
0.0
 10
1090.952453277388
 20
44.14410856810587
 30
0.0
 10
1089.320304840295
 20
44.14410856810587
 30
0.0
  0
SPLINE
  5
198
330
1F
100
AcDbEntity
  8
0
  6
SLD-実線
 62
     0
370
    18
100
AcDbSpline
210
0.0
220
0.0
230
1.0
 70
     8
 71
     3
 72
    11
 73
     7
 74
     0
 42
0.000000001
 43
0.00000001
 40
0.0
 40
0.0
 40
0.0
 40
0.0
 40
1.0
 40
1.0
 40
1.0
 40
2.0
 40
2.0
 40
2.0
 40
2.0
 10
1089.320304840295
 20
44.14410856810587
 30
0.0
 10
1087.685262522996
 20
44.14410856810587
 30
0.0
 10
1086.710314281052
 20
42.84417757884742
 30
0.0
 10
1086.710314281052
 20
41.28611247507035
 30
0.0
 10
1086.710314281052
 20
39.7320988035839
 30
0.0
 10
1087.685262522996
 20
38.43158903828399
 30
0.0
 10
1089.320304840295
 20
38.43158903828399
 30
0.0
  0
SPLINE
  5
199
330
1F
100
AcDbEntity
  8
0
  6
SLD-実線
 62
     0
370
    18
100
AcDbSpline
210
0.0
220
0.0
230
1.0
 70
     8
 71
     3
 72
     8
 73
     4
 74
     0
 42
0.000000001
 43
0.00000001
 40
1.0
 40
1.0
 40
1.0
 40
1.0
 40
2.0
 40
2.0
 40
2.0
 40
2.0
 10
1096.815743966026
 20
43.2331150787502
 30
0.0
 10
1098.309564929194
 20
43.2331150787502
 30
0.0
 10
1098.6316537963
 20
42.37999919354682
 30
0.0
 10
1098.6316537963
 20
41.28611247507035
 30
0.0
  0
SPLINE
  5
19A
330
1F
100
AcDbEntity
  8
0
  6
SLD-実線
 62
     0
370
    18
100
AcDbSpline
210
0.0
220
0.0
230
1.0
 70
     8
 71
     3
 72
     8
 73
     4
 74
     0
 42
0.000000001
 43
0.00000001
 40
2.0
 40
2.0
 40
2.0
 40
2.0
 40
3.0
 40
3.0
 40
3.0
 40
3.0
 10
1098.6316537963
 20
41.28611247507035
 30
0.0
 10
1098.6316537963
 20
40.19801351700904
 30
0.0
 10
1098.309564929194
 20
39.34200375159802
 30
0.0
 10
1096.815743966026
 20
39.34200375159802
 30
0.0
  0
SPLINE
  5
19B
330
1F
100
AcDbEntity
  8
0
  6
SLD-実線
 62
     0
370
    18
100
AcDbSpline
210
0.0
220
0.0
230
1.0
 70
     8
 71
     3
 72
     8
 73
     4
 74
     0
 42
0.000000001
 43
0.00000001
 40
1.0
 40
1.0
 40
1.0
 40
1.0
 40
2.0
 40
2.0
 40
2.0
 40
2.0
 10
1097.179794096143
 20
38.56297119970949
 30
0.0
 10
1098.860559720722
 20
38.56297119970949
 30
0.0
 10
1099.586055488771
 20
39.78303109523777
 30
0.0
 10
1099.586055488771
 20
41.28611247507035
 30
0.0
  0
SPLINE
  5
19C
330
1F
100
AcDbEntity
  8
0
  6
SLD-実線
 62
     0
370
    18
100
AcDbSpline
210
0.0
220
0.0
230
1.0
 70
     8
 71
     3
 72
     8
 73
     4
 74
     0
 42
0.000000001
 43
0.00000001
 40
2.0
 40
2.0
 40
2.0
 40
2.0
 40
3.0
 40
3.0
 40
3.0
 40
3.0
 10
1099.586055488771
 20
41.28611247507035
 30
0.0
 10
1099.586055488771
 20
42.79150895906894
 30
0.0
 10
1098.860559720722
 20
44.01099007855576
 30
0.0
 10
1097.179794096143
 20
44.01099007855576
 30
0.0
  0
SPLINE
  5
19D
330
1F
100
AcDbEntity
  8
0
  6
SLD-実線
 62
     0
370
    18
100
AcDbSpline
210
0.0
220
0.0
230
1.0
 70
     8
 71
     3
 72
     8
 73
     4
 74
     0
 42
0.000000001
 43
0.00000001
 40
2.0
 40
2.0
 40
2.0
 40
2.0
 40
3.0
 40
3.0
 40
3.0
 40
3.0
 10
1106.554519028695
 20
39.20367627767432
 30
0.0
 10
1106.042591619969
 20
38.62432146011087
 30
0.0
 10
1105.574361802377
 20
38.43158903828399
 30
0.0
 10
1104.91339956296
 20
38.43158903828399
 30
0.0
  0
SPLINE
  5
19E
330
1F
100
AcDbEntity
  8
0
  6
SLD-実線
 62
     0
370
    18
100
AcDbSpline
210
0.0
220
0.0
230
1.0
 70
     8
 71
     3
 72
     8
 73
     4
 74
     0
 42
0.000000001
 43
0.00000001
 40
3.0
 40
3.0
 40
3.0
 40
3.0
 40
4.0
 40
4.0
 40
4.0
 40
4.0
 10
1104.91339956296
 20
38.43158903828399
 30
0.0
 10
1103.27835724566
 20
38.43158903828399
 30
0.0
 10
1102.301962063612
 20
39.7320988035839
 30
0.0
 10
1102.301962063612
 20
41.28611247507035
 30
0.0
  0
SPLINE
  5
19F
330
1F
100
AcDbEntity
  8
0
  6
SLD-実線
 62
     0
370
    18
100
AcDbSpline
210
0.0
220
0.0
230
1.0
 70
     8
 71
     3
 72
     8
 73
     4
 74
     0
 42
0.000000001
 43
0.00000001
 40
4.0
 40
4.0
 40
4.0
 40
4.0
 40
5.0
 40
5.0
 40
5.0
 40
5.0
 10
1102.301962063612
 20
41.28611247507035
 30
0.0
 10
1102.301962063612
 20
42.84417757884742
 30
0.0
 10
1103.27835724566
 20
44.14410856810587
 30
0.0
 10
1104.91339956296
 20
44.14410856810587
 30
0.0
  0
SPLINE
  5
1A0
330
1F
100
AcDbEntity
  8
0
  6
SLD-実線
 62
     0
370
    18
100
AcDbSpline
210
0.0
220
0.0
230
1.0
 70
     8
 71
     3
 72
     8
 73
     4
 74
     0
 42
0.000000001
 43
0.00000001
 40
5.0
 40
5.0
 40
5.0
 40
5.0
 40
6.0
 40
6.0
 40
6.0
 40
6.0
 10
1104.91339956296
 20
44.14410856810587
 30
0.0
 10
1106.102205552246
 20
44.14410856810587
 30
0.0
 10
1107.104356268141
 20
43.51150635472238
 30
0.0
 10
1107.249050278522
 20
42.27987093836352
 30
0.0
  0
SPLINE
  5
1A1
330
1F
100
AcDbEntity
  8
0
  6
SLD-実線
 62
     0
370
    18
100
AcDbSpline
210
0.0
220
0.0
230
1.0
 70
     8
 71
     3
 72
     8
 73
     4
 74
     0
 42
0.000000001
 43
0.00000001
 40
7.0
 40
7.0
 40
7.0
 40
7.0
 40
8.0
 40
8.0
 40
8.0
 40
8.0
 10
1106.31664207563
 20
42.27987093836352
 30
0.0
 10
1106.226063625131
 20
42.99871078193382
 30
0.0
 10
1105.598959784142
 20
43.36507601621725
 30
0.0
 10
1104.91339956296
 20
43.36507601621725
 30
0.0
  0
SPLINE
  5
1A2
330
1F
100
AcDbEntity
  8
0
  6
SLD-実線
 62
     0
370
    18
100
AcDbSpline
210
0.0
220
0.0
230
1.0
 70
     8
 71
     3
 72
     8
 73
     4
 74
     0
 42
0.000000001
 43
0.00000001
 40
8.0
 40
8.0
 40
8.0
 40
8.0
 40
9.0
 40
9.0
 40
9.0
 40
9.0
 10
1104.91339956296
 20
43.36507601621725
 30
0.0
 10
1103.745140123147
 20
43.36507601621725
 30
0.0
 10
1103.256363756082
 20
42.33253955814209
 30
0.0
 10
1103.256363756082
 20
41.28611247507035
 30
0.0
  0
SPLINE
  5
1A3
330
1F
100
AcDbEntity
  8
0
  6
SLD-実線
 62
     0
370
    18
100
AcDbSpline
210
0.0
220
0.0
230
1.0
 70
     8
 71
     3
 72
     8
 73
     4
 74
     0
 42
0.000000001
 43
0.00000001
 40
9.0
 40
9.0
 40
9.0
 40
9.0
 40
10.0
 40
10.0
 40
10.0
 40
10.0
 10
1103.256363756082
 20
41.28611247507035
 30
0.0
 10
1103.256363756082
 20
40.24315804824776
 30
0.0
 10
1103.745140123147
 20
39.21004281413101
 30
0.0
 10
1104.91339956296
 20
39.21004281413101
 30
0.0
  0
SPLINE
  5
1A4
330
1F
100
AcDbEntity
  8
0
  6
SLD-実線
 62
     0
370
    18
100
AcDbSpline
210
0.0
220
0.0
230
1.0
 70
     8
 71
     3
 72
     8
 73
     4
 74
     0
 42
0.000000001
 43
0.00000001
 40
10.0
 40
10.0
 40
10.0
 40
10.0
 40
11.0
 40
11.0
 40
11.0
 40
11.0
 10
1104.91339956296
 20
39.21004281413101
 30
0.0
 10
1105.89095229709
 20
39.1984672933006
 30
0.0
 10
1106.424294419352
 20
39.78303109523777
 30
0.0
 10
1106.440210760494
 20
40.70791520958988
 30
0.0
  0
SPLINE
  5
1A5
330
1F
100
AcDbEntity
  8
0
  6
SLD-実線
 62
     0
370
    18
100
AcDbSpline
210
0.0
220
0.0
230
1.0
 70
     8
 71
     3
 72
     8
 73
     4
 74
     0
 42
0.000000001
 43
0.00000001
 40
0.0
 40
0.0
 40
0.0
 40
0.0
 40
1.0
 40
1.0
 40
1.0
 40
1.0
 10
1123.484297019255
 20
42.27987093836352
 30
0.0
 10
1123.323686667732
 20
42.90668539133191
 30
0.0
 10
1122.919122214708
 20
43.36507601621725
 30
0.0
 10
1122.12533087376
 20
43.36507601621725
 30
0.0
  0
SPLINE
  5
1A6
330
1F
100
AcDbEntity
  8
0
  6
SLD-実線
 62
     0
370
    18
100
AcDbSpline
210
0.0
220
0.0
230
1.0
 70
     8
 71
     3
 72
     8
 73
     4
 74
     0
 42
0.000000001
 43
0.00000001
 40
1.0
 40
1.0
 40
1.0
 40
1.0
 40
2.0
 40
2.0
 40
2.0
 40
2.0
 10
1122.12533087376
 20
43.36507601621725
 30
0.0
 10
1120.958807762073
 20
43.36507601621725
 30
0.0
 10
1120.469163230946
 20
42.33253955814209
 30
0.0
 10
1120.469163230946
 20
41.28611247507035
 30
0.0
  0
SPLINE
  5
1A7
330
1F
100
AcDbEntity
  8
0
  6
SLD-実線
 62
     0
370
    18
100
AcDbSpline
210
0.0
220
0.0
230
1.0
 70
     8
 71
     3
 72
     8
 73
     4
 74
     0
 42
0.000000001
 43
0.00000001
 40
2.0
 40
2.0
 40
2.0
 40
2.0
 40
3.0
 40
3.0
 40
3.0
 40
3.0
 10
1120.469163230946
 20
41.28611247507035
 30
0.0
 10
1120.469163230946
 20
40.24315804824776
 30
0.0
 10
1120.958807762073
 20
39.21004281413101
 30
0.0
 10
1122.12533087376
 20
39.21004281413101
 30
0.0
  0
SPLINE
  5
1A8
330
1F
100
AcDbEntity
  8
0
  6
SLD-実線
 62
     0
370
    18
100
AcDbSpline
210
0.0
220
0.0
230
1.0
 70
     8
 71
     3
 72
     8
 73
     4
 74
     0
 42
0.000000001
 43
0.00000001
 40
3.0
 40
3.0
 40
3.0
 40
3.0
 40
4.0
 40
4.0
 40
4.0
 40
4.0
 10
1122.12533087376
 20
39.21004281413101
 30
0.0
 10
1122.972369610528
 20
39.21004281413101
 30
0.0
 10
1123.435390443746
 20
39.84553890772217
 30
0.0
 10
1123.514682761434
 20
40.63904086064879
 30
0.0
  0
SPLINE
  5
1A9
330
1F
100
AcDbEntity
  8
0
  6
SLD-実線
 62
     0
370
    18
100
AcDbSpline
210
0.0
220
0.0
230
1.0
 70
     8
 71
     3
 72
     8
 73
     4
 74
     0
 42
0.000000001
 43
0.00000001
 40
5.0
 40
5.0
 40
5.0
 40
5.0
 40
6.0
 40
6.0
 40
6.0
 40
6.0
 10
1124.44477586016
 20
40.63904086064879
 30
0.0
 10
1124.365772930492
 20
39.33563721514133
 30
0.0
 10
1123.446097800514
 20
38.43158903828399
 30
0.0
 10
1122.12533087376
 20
38.43158903828399
 30
0.0
  0
SPLINE
  5
1AA
330
1F
100
AcDbEntity
  8
0
  6
SLD-実線
 62
     0
370
    18
100
AcDbSpline
210
0.0
220
0.0
230
1.0
 70
     8
 71
     3
 72
     8
 73
     4
 74
     0
 42
0.000000001
 43
0.00000001
 40
6.0
 40
6.0
 40
6.0
 40
6.0
 40
7.0
 40
7.0
 40
7.0
 40
7.0
 10
1122.12533087376
 20
38.43158903828399
 30
0.0
 10
1120.491156720523
 20
38.43158903828399
 30
0.0
 10
1119.513603986393
 20
39.7320988035839
 30
0.0
 10
1119.513603986393
 20
41.28611247507035
 30
0.0
  0
SPLINE
  5
1AB
330
1F
100
AcDbEntity
  8
0
  6
SLD-実線
 62
     0
370
    18
100
AcDbSpline
210
0.0
220
0.0
230
1.0
 70
     8
 71
     3
 72
     8
 73
     4
 74
     0
 42
0.000000001
 43
0.00000001
 40
7.0
 40
7.0
 40
7.0
 40
7.0
 40
8.0
 40
8.0
 40
8.0
 40
8.0
 10
1119.513603986393
 20
41.28611247507035
 30
0.0
 10
1119.513603986393
 20
42.84417757884742
 30
0.0
 10
1120.491156720523
 20
44.14410856810587
 30
0.0
 10
1122.12533087376
 20
44.14410856810587
 30
0.0
  0
SPLINE
  5
1AC
330
1F
100
AcDbEntity
  8
0
  6
SLD-実線
 62
     0
370
    18
100
AcDbSpline
210
0.0
220
0.0
230
1.0
 70
     8
 71
     3
 72
     8
 73
     4
 74
     0
 42
0.000000001
 43
0.00000001
 40
8.0
 40
8.0
 40
8.0
 40
8.0
 40
9.0
 40
9.0
 40
9.0
 40
9.0
 10
1122.12533087376
 20
44.14410856810587
 30
0.0
 10
1123.355519350016
 20
44.1354269274831
 30
0.0
 10
1124.323522279461
 20
43.45710140681924
 30
0.0
 10
1124.439566875786
 20
42.27987093836352
 30
0.0
  0
SPLINE
  5
1AD
330
1F
100
AcDbEntity
  8
0
  6
SLD-実線
 62
     0
370
    18
100
AcDbSpline
210
0.0
220
0.0
230
1.0
 70
     8
 71
     3
 72
     8
 73
     4
 74
     0
 42
0.000000001
 43
0.00000001
 40
0.0
 40
0.0
 40
0.0
 40
0.0
 40
1.0
 40
1.0
 40
1.0
 40
1.0
 10
1131.114301574639
 20
42.27987093836352
 30
0.0
 10
1130.956295715303
 20
42.90668539133191
 30
0.0
 10
1130.5520206503
 20
43.36507601621725
 30
0.0
 10
1129.757071757269
 20
43.36507601621725
 30
0.0
  0
SPLINE
  5
1AE
330
1F
100
AcDbEntity
  8
0
  6
SLD-実線
 62
     0
370
    18
100
AcDbSpline
210
0.0
220
0.0
230
1.0
 70
     8
 71
     3
 72
     8
 73
     4
 74
     0
 42
0.000000001
 43
0.00000001
 40
1.0
 40
1.0
 40
1.0
 40
1.0
 40
2.0
 40
2.0
 40
2.0
 40
2.0
 10
1129.757071757269
 20
43.36507601621725
 30
0.0
 10
1128.589391093499
 20
43.36507601621725
 30
0.0
 10
1128.100614726434
 20
42.33253955814209
 30
0.0
 10
1128.100614726434
 20
41.28611247507035
 30
0.0
  0
SPLINE
  5
1AF
330
1F
100
AcDbEntity
  8
0
  6
SLD-実線
 62
     0
370
    18
100
AcDbSpline
210
0.0
220
0.0
230
1.0
 70
     8
 71
     3
 72
     8
 73
     4
 74
     0
 42
0.000000001
 43
0.00000001
 40
2.0
 40
2.0
 40
2.0
 40
2.0
 40
3.0
 40
3.0
 40
3.0
 40
3.0
 10
1128.100614726434
 20
41.28611247507035
 30
0.0
 10
1128.100614726434
 20
40.24315804824776
 30
0.0
 10
1128.589391093499
 20
39.21004281413101
 30
0.0
 10
1129.757071757269
 20
39.21004281413101
 30
0.0
  0
SPLINE
  5
1B0
330
1F
100
AcDbEntity
  8
0
  6
SLD-実線
 62
     0
370
    18
100
AcDbSpline
210
0.0
220
0.0
230
1.0
 70
     8
 71
     3
 72
     8
 73
     4
 74
     0
 42
0.000000001
 43
0.00000001
 40
3.0
 40
3.0
 40
3.0
 40
3.0
 40
4.0
 40
4.0
 40
4.0
 40
4.0
 10
1129.757071757269
 20
39.21004281413101
 30
0.0
 10
1130.603531717996
 20
39.21004281413101
 30
0.0
 10
1131.070025207462
 20
39.84553890772217
 30
0.0
 10
1131.146134256922
 20
40.63904086064879
 30
0.0
  0
SPLINE
  5
1B1
330
1F
100
AcDbEntity
  8
0
  6
SLD-実線
 62
     0
370
    18
100
AcDbSpline
210
0.0
220
0.0
230
1.0
 70
     8
 71
     3
 72
     8
 73
     4
 74
     0
 42
0.000000001
 43
0.00000001
 40
5.0
 40
5.0
 40
5.0
 40
5.0
 40
6.0
 40
6.0
 40
6.0
 40
6.0
 10
1132.079410623876
 20
40.63904086064879
 30
0.0
 10
1132.001275858271
 20
39.33563721514133
 30
0.0
 10
1131.077838684022
 20
38.43158903828399
 30
0.0
 10
1129.757071757269
 20
38.43158903828399
 30
0.0
  0
SPLINE
  5
1B2
330
1F
100
AcDbEntity
  8
0
  6
SLD-実線
 62
     0
370
    18
100
AcDbSpline
210
0.0
220
0.0
230
1.0
 70
     8
 71
     3
 72
     8
 73
     4
 74
     0
 42
0.000000001
 43
0.00000001
 40
3.0
 40
3.0
 40
3.0
 40
3.0
 40
4.0
 40
4.0
 40
4.0
 40
4.0
 10
1022.28277022093
 20
41.00896467216944
 30
0.0
 10
1018.156241738889
 20
44.32998159842249
 30
0.0
 10
1015.514852579393
 20
49.4221979057432
 30
0.0
 10
1015.514852579393
 20
55.13587498764818
 30
0.0
  0
SPLINE
  5
1B3
330
1F
100
AcDbEntity
  8
0
  6
SLD-実線
 62
     0
370
    18
100
AcDbSpline
210
0.0
220
0.0
230
1.0
 70
     8
 71
     3
 72
    11
 73
     7
 74
     0
 42
0.000000001
 43
0.00000001
 40
1.0
 40
1.0
 40
1.0
 40
1.0
 40
2.0
 40
2.0
 40
2.0
 40
3.0
 40
3.0
 40
3.0
 40
3.0
 10
1022.28277022093
 20
69.26104897500227
 30
0.0
 10
1016.128210489396
 20
67.51546043377203
 30
0.0
 10
1011.616795939742
 20
61.85343911357292
 30
0.0
 10
1011.616795939742
 20
55.13587498764818
 30
0.0
 10
1011.616795939742
 20
48.41744269766101
 30
0.0
 10
1016.128210489396
 20
42.75455321339972
 30
0.0
 10
1022.28277022093
 20
41.00896467216944
 30
0.0
  0
SPLINE
  5
1B4
330
1F
100
AcDbEntity
  8
0
  6
SLD-実線
 62
     0
370
    18
100
AcDbSpline
210
0.0
220
0.0
230
1.0
 70
     8
 71
     3
 72
     8
 73
     4
 74
     0
 42
0.000000001
 43
0.00000001
 40
0.0
 40
0.0
 40
0.0
 40
0.0
 40
1.0
 40
1.0
 40
1.0
 40
1.0
 10
1015.514852579393
 20
55.13587498764818
 30
0.0
 10
1015.514852579393
 20
60.84839451747006
 30
0.0
 10
1018.156241738889
 20
65.93872980265576
 30
0.0
 10
1022.28277022093
 20
69.26104897500227
 30
0.0
  0
SPLINE
  5
1B5
330
1F
100
AcDbEntity
  8
0
  6
SLD-実線
 62
     0
370
    18
100
AcDbSpline
210
0.0
220
0.0
230
1.0
 70
     8
 71
     3
 72
    14
 73
    10
 74
     0
 42
0.000000001
 43
0.00000001
 40
5.0
 40
5.0
 40
5.0
 40
5.0
 40
6.0
 40
6.0
 40
6.0
 40
7.0
 40
7.0
 40
7.0
 40
8.0
 40
8.0
 40
8.0
 40
8.0
 10
1022.28277022093
 20
41.00896467216944
 30
0.0
 10
1025.392823280048
 20
38.50633706862835
 30
0.0
 10
1029.342246293384
 20
37.00962222525258
 30
0.0
 10
1033.642552281892
 20
37.00962222525258
 30
0.0
 10
1043.651905143973
 20
37.00962222525259
 30
0.0
 10
1051.76967320835
 20
45.1234835513491
 30
0.0
 10
1051.76967320835
 20
55.13587498764814
 30
0.0
 10
1051.76967320835
 20
65.14392560363571
 30
0.0
 10
1043.651905143973
 20
73.26097019796056
 30
0.0
 10
1033.642552281892
 20
73.26097019796055
 30
0.0
  0
SPLINE
  5
1B6
330
1F
100
AcDbEntity
  8
0
  6
SLD-実線
 62
     0
370
    18
100
AcDbSpline
210
0.0
220
0.0
230
1.0
 70
     8
 71
     3
 72
    17
 73
    13
 74
     0
 42
0.000000001
 43
0.00000001
 40
1.0
 40
1.0
 40
1.0
 40
1.0
 40
2.0
 40
2.0
 40
2.0
 40
3.0
 40
3.0
 40
3.0
 40
4.0
 40
4.0
 40
4.0
 40
5.0
 40
5.0
 40
5.0
 40
5.0
 10
1022.28277022093
 20
69.26104897500227
 30
0.0
 10
1023.560128944569
 20
69.62365216501581
 30
0.0
 10
1024.908387733295
 20
69.81898907902948
 30
0.0
 10
1026.300344113155
 20
69.81898907902948
 30
0.0
 10
1034.408707066857
 20
69.81898907902948
 30
0.0
 10
1040.983458204536
 20
63.24481671739168
 30
0.0
 10
1040.983458204536
 20
55.13587498764818
 30
0.0
 10
1040.983458204536
 20
47.02490754175919
 30
0.0
 10
1034.408707066857
 20
40.45333967230835
 30
0.0
 10
1026.300344113155
 20
40.45333967230835
 30
0.0
 10
1024.908387733295
 20
40.45333967230835
 30
0.0
 10
1023.560128944569
 20
40.64549331809364
 30
0.0
 10
1022.28277022093
 20
41.00896467216944
 30
0.0
  0
SPLINE
  5
1B7
330
1F
100
AcDbEntity
  8
0
  6
SLD-実線
 62
     0
370
    18
100
AcDbSpline
210
0.0
220
0.0
230
1.0
 70
     8
 71
     3
 72
     8
 73
     4
 74
     0
 42
0.000000001
 43
0.00000001
 40
0.0
 40
0.0
 40
0.0
 40
0.0
 40
1.0
 40
1.0
 40
1.0
 40
1.0
 10
1033.642552281892
 20
73.26097019796055
 30
0.0
 10
1029.342246293384
 20
73.26097019796052
 30
0.0
 10
1025.392823280048
 20
71.76309780250173
 30
0.0
 10
1022.28277022093
 20
69.26104897500227
 30
0.0
  0
SPLINE
  5
1B8
330
1F
100
AcDbEntity
  8
0
  6
SLD-実線
 62
     0
370
    18
100
AcDbSpline
210
0.0
220
0.0
230
1.0
 70
     8
 71
     3
 72
     8
 73
     4
 74
     0
 42
0.000000001
 43
0.00000001
 40
6.0
 40
6.0
 40
6.0
 40
6.0
 40
7.0
 40
7.0
 40
7.0
 40
7.0
 10
1129.757071757269
 20
38.43158903828399
 30
0.0
 10
1128.123765768095
 20
38.43158903828399
 30
0.0
 10
1127.147081198026
 20
39.7320988035839
 30
0.0
 10
1127.147081198026
 20
41.28611247507035
 30
0.0
  0
SPLINE
  5
1B9
330
1F
100
AcDbEntity
  8
0
  6
SLD-実線
 62
     0
370
    18
100
AcDbSpline
210
0.0
220
0.0
230
1.0
 70
     8
 71
     3
 72
     8
 73
     4
 74
     0
 42
0.000000001
 43
0.00000001
 40
7.0
 40
7.0
 40
7.0
 40
7.0
 40
8.0
 40
8.0
 40
8.0
 40
8.0
 10
1127.147081198026
 20
41.28611247507035
 30
0.0
 10
1127.147081198026
 20
42.84417757884742
 30
0.0
 10
1128.123765768095
 20
44.14410856810587
 30
0.0
 10
1129.757071757269
 20
44.14410856810587
 30
0.0
  0
SPLINE
  5
1BA
330
1F
100
AcDbEntity
  8
0
  6
SLD-実線
 62
     0
370
    18
100
AcDbSpline
210
0.0
220
0.0
230
1.0
 70
     8
 71
     3
 72
     8
 73
     4
 74
     0
 42
0.000000001
 43
0.00000001
 40
8.0
 40
8.0
 40
8.0
 40
8.0
 40
9.0
 40
9.0
 40
9.0
 40
9.0
 10
1129.757071757269
 20
44.14410856810587
 30
0.0
 10
1130.987549621545
 20
44.1354269274831
 30
0.0
 10
1131.954684386928
 20
43.45710140681924
 30
0.0
 10
1132.069860819191
 20
42.27987093836352
 30
0.0
  0
SPLINE
  5
1BB
330
1F
100
AcDbEntity
  8
0
  6
SLD-実線
 62
     0
370
    18
100
AcDbSpline
210
0.0
220
0.0
230
1.0
 70
     8
 71
     3
 72
    11
 73
     7
 74
     0
 42
0.000000001
 43
0.00000001
 40
2.0
 40
2.0
 40
2.0
 40
2.0
 40
3.0
 40
3.0
 40
3.0
 40
4.0
 40
4.0
 40
4.0
 40
4.0
 10
1135.268756000683
 20
39.21004281413101
 30
0.0
 10
1134.10020717285
 20
39.21004281413101
 30
0.0
 10
1133.611430805785
 20
40.24315804824776
 30
0.0
 10
1133.611430805785
 20
41.28611247507035
 30
0.0
 10
1133.611430805785
 20
42.33253955814209
 30
0.0
 10
1134.10020717285
 20
43.36507601621725
 30
0.0
 10
1135.268756000683
 20
43.36507601621725
 30
0.0
  0
SPLINE
  5
1BC
330
1F
100
AcDbEntity
  8
0
  6
SLD-実線
 62
     0
370
    18
100
AcDbSpline
210
0.0
220
0.0
230
1.0
 70
     8
 71
     3
 72
    11
 73
     7
 74
     0
 42
0.000000001
 43
0.00000001
 40
0.0
 40
0.0
 40
0.0
 40
0.0
 40
1.0
 40
1.0
 40
1.0
 40
2.0
 40
2.0
 40
2.0
 40
2.0
 10
1135.268756000683
 20
43.36507601621725
 30
0.0
 10
1136.43527911237
 20
43.36507601621725
 30
0.0
 10
1136.924923643498
 20
42.33253955814209
 30
0.0
 10
1136.924923643498
 20
41.28611247507035
 30
0.0
 10
1136.924923643498
 20
40.24315804824776
 30
0.0
 10
1136.43527911237
 20
39.21004281413101
 30
0.0
 10
1135.268756000683
 20
39.21004281413101
 30
0.0
  0
SPLINE
  5
1BD
330
1F
100
AcDbEntity
  8
0
  6
SLD-実線
 62
     0
370
    18
100
AcDbSpline
210
0.0
220
0.0
230
1.0
 70
     8
 71
     3
 72
    11
 73
     7
 74
     0
 42
0.000000001
 43
0.00000001
 40
2.0
 40
2.0
 40
2.0
 40
2.0
 40
3.0
 40
3.0
 40
3.0
 40
4.0
 40
4.0
 40
4.0
 40
4.0
 10
1135.268756000683
 20
38.43158903828399
 30
0.0
 10
1136.901772601838
 20
38.43158903828399
 30
0.0
 10
1137.87614206774
 20
39.7320988035839
 30
0.0
 10
1137.87614206774
 20
41.28611247507035
 30
0.0
 10
1137.87614206774
 20
42.84417757884742
 30
0.0
 10
1136.901772601838
 20
44.14410856810587
 30
0.0
 10
1135.268756000683
 20
44.14410856810587
 30
0.0
  0
SPLINE
  5
1BE
330
1F
100
AcDbEntity
  8
0
  6
SLD-実線
 62
     0
370
    18
100
AcDbSpline
210
0.0
220
0.0
230
1.0
 70
     8
 71
     3
 72
    11
 73
     7
 74
     0
 42
0.000000001
 43
0.00000001
 40
0.0
 40
0.0
 40
0.0
 40
0.0
 40
1.0
 40
1.0
 40
1.0
 40
2.0
 40
2.0
 40
2.0
 40
2.0
 10
1135.268756000683
 20
44.14410856810587
 30
0.0
 10
1133.633713683384
 20
44.14410856810587
 30
0.0
 10
1132.654424621129
 20
42.84417757884742
 30
0.0
 10
1132.654424621129
 20
41.28611247507035
 30
0.0
 10
1132.654424621129
 20
39.7320988035839
 30
0.0
 10
1133.633713683384
 20
38.43158903828399
 30
0.0
 10
1135.268756000683
 20
38.43158903828399
 30
0.0
  0
SPLINE
  5
1BF
330
1F
100
AcDbEntity
  8
0
  6
SLD-実線
 62
     0
370
    18
100
AcDbSpline
210
0.0
220
0.0
230
1.0
 70
     8
 71
     3
 72
     8
 73
     4
 74
     0
 42
0.000000001
 43
0.00000001
 40
2.0
 40
2.0
 40
2.0
 40
2.0
 40
3.0
 40
3.0
 40
3.0
 40
3.0
 10
1141.878378394864
 20
38.56297119970949
 30
0.0
 10
1141.871722470386
 20
37.93673552278278
 30
0.0
 10
1141.451820452262
 20
37.4806600020633
 30
0.0
 10
1140.847867652935
 20
37.3573807052192
 30
0.0
  0
SPLINE
  5
1C0
330
1F
100
AcDbEntity
  8
0
  6
SLD-実線
 62
     0
370
    18
100
AcDbSpline
210
0.0
220
0.0
230
1.0
 70
     8
 71
     3
 72
     8
 73
     4
 74
     0
 42
0.000000001
 43
0.00000001
 40
4.0
 40
4.0
 40
4.0
 40
4.0
 40
5.0
 40
5.0
 40
5.0
 40
5.0
 10
1140.847867652935
 20
37.82155909051972
 30
0.0
 10
1141.182400204934
 20
37.906060392582
 30
0.0
 10
1141.351402809058
 20
38.23654151229107
 30
0.0
 10
1141.345325660622
 20
38.56297119970949
 30
0.0
  0
SPLINE
  5
1C1
330
1F
100
AcDbEntity
  8
0
  6
SLD-実線
 62
     0
370
    18
100
AcDbSpline
210
0.0
220
0.0
230
1.0
 70
     8
 71
     3
 72
     8
 73
     4
 74
     0
 42
0.000000001
 43
0.00000001
 40
1.0
 40
1.0
 40
1.0
 40
1.0
 40
2.0
 40
2.0
 40
2.0
 40
2.0
 10
1153.093611139456
 20
43.2331150787502
 30
0.0
 10
1154.587432102624
 20
43.2331150787502
 30
0.0
 10
1154.906048313482
 20
42.37999919354682
 30
0.0
 10
1154.906048313482
 20
41.28611247507035
 30
0.0
  0
SPLINE
  5
1C2
330
1F
100
AcDbEntity
  8
0
  6
SLD-実線
 62
     0
370
    18
100
AcDbSpline
210
0.0
220
0.0
230
1.0
 70
     8
 71
     3
 72
     8
 73
     4
 74
     0
 42
0.000000001
 43
0.00000001
 40
2.0
 40
2.0
 40
2.0
 40
2.0
 40
3.0
 40
3.0
 40
3.0
 40
3.0
 10
1154.906048313482
 20
41.28611247507035
 30
0.0
 10
1154.906048313482
 20
40.19801351700904
 30
0.0
 10
1154.587432102624
 20
39.34200375159802
 30
0.0
 10
1153.093611139456
 20
39.34200375159802
 30
0.0
  0
SPLINE
  5
1C3
330
1F
100
AcDbEntity
  8
0
  6
SLD-実線
 62
     0
370
    18
100
AcDbSpline
210
0.0
220
0.0
230
1.0
 70
     8
 71
     3
 72
     8
 73
     4
 74
     0
 42
0.000000001
 43
0.00000001
 40
1.0
 40
1.0
 40
1.0
 40
1.0
 40
2.0
 40
2.0
 40
2.0
 40
2.0
 10
1153.457950657594
 20
38.56297119970949
 30
0.0
 10
1155.138426894154
 20
38.56297119970949
 30
0.0
 10
1155.864790826264
 20
39.78303109523777
 30
0.0
 10
1155.864790826264
 20
41.28611247507035
 30
0.0
  0
SPLINE
  5
1C4
330
1F
100
AcDbEntity
  8
0
  6
SLD-実線
 62
     0
370
    18
100
AcDbSpline
210
0.0
220
0.0
230
1.0
 70
     8
 71
     3
 72
     8
 73
     4
 74
     0
 42
0.000000001
 43
0.00000001
 40
2.0
 40
2.0
 40
2.0
 40
2.0
 40
3.0
 40
3.0
 40
3.0
 40
3.0
 10
1155.864790826264
 20
41.28611247507035
 30
0.0
 10
1155.864790826264
 20
42.79150895906894
 30
0.0
 10
1155.138426894154
 20
44.01099007855576
 30
0.0
 10
1153.457950657594
 20
44.01099007855576
 30
0.0
  0
SPLINE
  5
1C5
330
1F
100
AcDbEntity
  8
0
  6
SLD-実線
 62
     0
370
    18
100
AcDbSpline
210
0.0
220
0.0
230
1.0
 70
     8
 71
     3
 72
     8
 73
     4
 74
     0
 42
0.000000001
 43
0.00000001
 40
0.0
 40
0.0
 40
0.0
 40
0.0
 40
1.0
 40
1.0
 40
1.0
 40
1.0
 10
1060.033658363242
 20
67.80809049578357
 30
0.0
 10
1061.180792477538
 20
67.83702929785973
 30
0.0
 10
1062.29913248377
 20
67.91458528742369
 30
0.0
 10
1063.393453284277
 20
67.91458528742369
 30
0.0
  0
SPLINE
  5
1C6
330
1F
100
AcDbEntity
  8
0
  6
SLD-実線
 62
     0
370
    18
100
AcDbSpline
210
0.0
220
0.0
230
1.0
 70
     8
 71
     3
 72
     8
 73
     4
 74
     0
 42
0.000000001
 43
0.00000001
 40
1.0
 40
1.0
 40
1.0
 40
1.0
 40
2.0
 40
2.0
 40
2.0
 40
2.0
 10
1063.393453284277
 20
67.9145852874237
 30
0.0
 10
1069.363528152576
 20
67.91458528742363
 30
0.0
 10
1071.681670892882
 20
65.86354769028019
 30
0.0
 10
1071.681670892882
 20
60.21440413700498
 30
0.0
  0
SPLINE
  5
1C7
330
1F
100
AcDbEntity
  8
0
  6
SLD-実線
 62
     0
370
    18
100
AcDbSpline
210
0.0
220
0.0
230
1.0
 70
     8
 71
     3
 72
     8
 73
     4
 74
     0
 42
0.000000001
 43
0.00000001
 40
2.0
 40
2.0
 40
2.0
 40
2.0
 40
3.0
 40
3.0
 40
3.0
 40
3.0
 10
1071.681670892882
 20
60.21440413700495
 30
0.0
 10
1071.681670892882
 20
56.96095931359957
 30
0.0
 10
1070.721915522028
 20
54.00196680131846
 30
0.0
 10
1067.845543289675
 20
52.56515527824013
 30
0.0
  0
SPLINE
  5
1C8
330
1F
100
AcDbEntity
  8
0
  6
SLD-実線
 62
     0
370
    18
100
AcDbSpline
210
0.0
220
0.0
230
1.0
 70
     8
 71
     3
 72
     8
 73
     4
 74
     0
 42
0.000000001
 43
0.00000001
 40
3.0
 40
3.0
 40
3.0
 40
3.0
 40
4.0
 40
4.0
 40
4.0
 40
4.0
 10
1067.845543289675
 20
52.56515527824013
 30
0.0
 10
1065.685551102715
 20
51.47242611184665
 30
0.0
 10
1062.380161129583
 20
51.78930599457999
 30
0.0
 10
1060.033658363242
 20
51.92213509610922
 30
0.0
  0
SPLINE
  5
1C9
330
1F
100
AcDbEntity
  8
0
  6
SLD-実線
 62
     0
370
    18
100
AcDbSpline
210
0.0
220
0.0
230
1.0
 70
     8
 71
     3
 72
     8
 73
     4
 74
     0
 42
0.000000001
 43
0.00000001
 40
1.0
 40
1.0
 40
1.0
 40
1.0
 40
2.0
 40
2.0
 40
2.0
 40
2.0
 10
1062.886300777894
 20
50.72204297401346
 30
0.0
 10
1065.712030106614
 20
50.72204297401346
 30
0.0
 10
1068.66885220874
 20
50.77760547399956
 30
0.0
 10
1070.936352045412
 20
52.7489166714234
 30
0.0
  0
SPLINE
  5
1CA
330
1F
100
AcDbEntity
  8
0
  6
SLD-実線
 62
     0
370
    18
100
AcDbSpline
210
0.0
220
0.0
230
1.0
 70
     8
 71
     3
 72
     8
 73
     4
 74
     0
 42
0.000000001
 43
0.00000001
 40
2.0
 40
2.0
 40
2.0
 40
2.0
 40
3.0
 40
3.0
 40
3.0
 40
3.0
 10
1070.936352045412
 20
52.7489166714234
 30
0.0
 10
1072.935010410798
 20
54.50550195744262
 30
0.0
 10
1074.294265944312
 20
56.90988232793522
 30
0.0
 10
1074.294265944312
 20
60.61462776971734
 30
0.0
  0
SPLINE
  5
1CB
330
1F
100
AcDbEntity
  8
0
  6
SLD-実線
 62
     0
370
    18
100
AcDbSpline
210
0.0
220
0.0
230
1.0
 70
     8
 71
     3
 72
     8
 73
     4
 74
     0
 42
0.000000001
 43
0.00000001
 40
3.0
 40
3.0
 40
3.0
 40
3.0
 40
4.0
 40
4.0
 40
4.0
 40
4.0
 10
1074.294265944312
 20
60.61462776971734
 30
0.0
 10
1074.294265944312
 20
63.14503662325146
 30
0.0
 10
1073.44158414114
 20
65.6249472671627
 30
0.0
 10
1071.442491693723
 20
67.27749755971836
 30
0.0
  0
SPLINE
  5
1CC
330
1F
100
AcDbEntity
  8
0
  6
SLD-実線
 62
     0
370
    18
100
AcDbSpline
210
0.0
220
0.0
230
1.0
 70
     8
 71
     3
 72
     8
 73
     4
 74
     0
 42
0.000000001
 43
0.00000001
 40
4.0
 40
4.0
 40
4.0
 40
4.0
 40
5.0
 40
5.0
 40
5.0
 40
5.0
 10
1071.442491693723
 20
67.27749755971836
 30
0.0
 10
1069.202049636992
 20
69.14072233138795
 30
0.0
 10
1066.512187984018
 20
68.87535351635012
 30
0.0
 10
1063.738548499034
 20
68.87535351635012
 30
0.0
  0
SPLINE
  5
1CD
330
1F
100
AcDbEntity
  8
0
  6
SLD-実線
 62
     0
370
    18
100
AcDbSpline
210
0.0
220
0.0
230
1.0
 70
     8
 71
     3
 72
     8
 73
     4
 74
     0
 42
0.000000001
 43
0.00000001
 40
0.0
 40
0.0
 40
0.0
 40
0.0
 40
1.0
 40
1.0
 40
1.0
 40
1.0
 10
1080.531445955774
 20
50.64390820840802
 30
0.0
 10
1080.133248039207
 20
50.67111068235948
 30
0.0
 10
1079.81130386611
 20
50.72204297401344
 30
0.0
 10
1079.466208651353
 20
50.72204297401344
 30
0.0
  0
SPLINE
  5
1CE
330
1F
100
AcDbEntity
  8
0
  6
SLD-実線
 62
     0
370
    18
100
AcDbSpline
210
0.0
220
0.0
230
1.0
 70
     8
 71
     3
 72
     8
 73
     4
 74
     0
 42
0.000000001
 43
0.00000001
 40
1.0
 40
1.0
 40
1.0
 40
1.0
 40
2.0
 40
2.0
 40
2.0
 40
2.0
 10
1079.466208651353
 20
50.72204297401344
 30
0.0
 10
1079.093476880613
 20
50.72204297401344
 30
0.0
 10
1078.745053703616
 20
50.67111068235948
 30
0.0
 10
1078.399813794848
 20
50.64390820840802
 30
0.0
  0
SPLINE
  5
1CF
330
1F
100
AcDbEntity
  8
0
  6
SLD-実線
 62
     0
370
    18
100
AcDbSpline
210
0.0
220
0.0
230
1.0
 70
     8
 71
     3
 72
     8
 73
     4
 74
     0
 42
0.000000001
 43
0.00000001
 40
3.0
 40
3.0
 40
3.0
 40
3.0
 40
4.0
 40
4.0
 40
4.0
 40
4.0
 10
1078.399813794848
 20
63.38464990444156
 30
0.0
 10
1078.745053703616
 20
63.35976253465609
 30
0.0
 10
1079.093476880613
 20
63.30174023649354
 30
0.0
 10
1079.466208651353
 20
63.30174023649354
 30
0.0
  0
SPLINE
  5
1D0
330
1F
100
AcDbEntity
  8
0
  6
SLD-実線
 62
     0
370
    18
100
AcDbSpline
210
0.0
220
0.0
230
1.0
 70
     8
 71
     3
 72
     8
 73
     4
 74
     0
 42
0.000000001
 43
0.00000001
 40
4.0
 40
4.0
 40
4.0
 40
4.0
 40
5.0
 40
5.0
 40
5.0
 40
5.0
 10
1079.466208651353
 20
63.30174023649354
 30
0.0
 10
1079.81130386611
 20
63.30174023649354
 30
0.0
 10
1080.133248039207
 20
63.35976253465609
 30
0.0
 10
1080.531445955774
 20
63.38464990444156
 30
0.0
  0
SPLINE
  5
1D1
330
1F
100
AcDbEntity
  8
0
  6
SLD-実線
 62
     0
370
    18
100
AcDbSpline
210
0.0
220
0.0
230
1.0
 70
     8
 71
     3
 72
    11
 73
     7
 74
     0
 42
0.000000001
 43
0.00000001
 40
2.0
 40
2.0
 40
2.0
 40
2.0
 40
3.0
 40
3.0
 40
3.0
 40
4.0
 40
4.0
 40
4.0
 40
4.0
 10
1079.466208651353
 20
69.30437125712824
 30
0.0
 10
1080.18389094284
 20
69.30437125712824
 30
0.0
 10
1080.824017244763
 20
68.69043457108384
 30
0.0
 10
1080.824017244763
 20
67.9425112314271
 30
0.0
 10
1080.824017244763
 20
67.19415380973922
 30
0.0
 10
1080.18389094284
 20
66.5839791679646
 30
0.0
 10
1079.466208651353
 20
66.5839791679646
 30
0.0
  0
SPLINE
  5
1D2
330
1F
100
AcDbEntity
  8
0
  6
SLD-実線
 62
     0
370
    18
100
AcDbSpline
210
0.0
220
0.0
230
1.0
 70
     8
 71
     3
 72
    11
 73
     7
 74
     0
 42
0.000000001
 43
0.00000001
 40
0.0
 40
0.0
 40
0.0
 40
0.0
 40
1.0
 40
1.0
 40
1.0
 40
2.0
 40
2.0
 40
2.0
 40
2.0
 10
1079.466208651353
 20
66.5839791679646
 30
0.0
 10
1078.719008781748
 20
66.5839791679646
 30
0.0
 10
1078.104348625651
 20
67.19415380973922
 30
0.0
 10
1078.104348625651
 20
67.9425112314271
 30
0.0
 10
1078.104348625651
 20
68.69043457108384
 30
0.0
 10
1078.719008781748
 20
69.30437125712824
 30
0.0
 10
1079.466208651353
 20
69.30437125712824
 30
0.0
  0
SPLINE
  5
1D3
330
1F
100
AcDbEntity
  8
0
  6
SLD-実線
 62
     0
370
    18
100
AcDbSpline
210
0.0
220
0.0
230
1.0
 70
     8
 71
     3
 72
     8
 73
     4
 74
     0
 42
0.000000001
 43
0.00000001
 40
0.0
 40
0.0
 40
0.0
 40
0.0
 40
1.0
 40
1.0
 40
1.0
 40
1.0
 10
1101.160905097752
 20
65.67906282704503
 30
0.0
 10
1099.667952298646
 20
67.38370296333758
 30
0.0
 10
1097.427799629935
 20
68.2624296883783
 30
0.0
 10
1095.163627755501
 20
68.2624296883783
 30
0.0
  0
SPLINE
  5
1D4
330
1F
100
AcDbEntity
  8
0
  6
SLD-実線
 62
     0
370
    18
100
AcDbSpline
210
0.0
220
0.0
230
1.0
 70
     8
 71
     3
 72
     8
 73
     4
 74
     0
 42
0.000000001
 43
0.00000001
 40
1.0
 40
1.0
 40
1.0
 40
1.0
 40
2.0
 40
2.0
 40
2.0
 40
2.0
 10
1095.163627755501
 20
68.2624296883783
 30
0.0
 10
1090.631232574343
 20
68.2624296883783
 30
0.0
 10
1087.487899892837
 20
65.27811572428074
 30
0.0
 10
1087.487899892837
 20
59.8963667021886
 30
0.0
  0
SPLINE
  5
1D5
330
1F
100
AcDbEntity
  8
0
  6
SLD-実線
 62
     0
370
    18
100
AcDbSpline
210
0.0
220
0.0
230
1.0
 70
     8
 71
     3
 72
     8
 73
     4
 74
     0
 42
0.000000001
 43
0.00000001
 40
2.0
 40
2.0
 40
2.0
 40
2.0
 40
3.0
 40
3.0
 40
3.0
 40
3.0
 10
1087.487899892837
 20
59.8963667021886
 30
0.0
 10
1087.487899892837
 20
54.61431185324877
 30
0.0
 10
1090.204964019762
 20
51.33670313010979
 30
0.0
 10
1095.45590965647
 20
51.33670313010979
 30
0.0
  0
SPLINE
  5
1D6
330
1F
100
AcDbEntity
  8
0
  6
SLD-実線
 62
     0
370
    18
100
AcDbSpline
210
0.0
220
0.0
230
1.0
 70
     8
 71
     3
 72
     8
 73
     4
 74
     0
 42
0.000000001
 43
0.00000001
 40
3.0
 40
3.0
 40
3.0
 40
3.0
 40
4.0
 40
4.0
 40
4.0
 40
4.0
 10
1095.45590965647
 20
51.33670313010979
 30
0.0
 10
1096.897061999859
 20
51.33670313010979
 30
0.0
 10
1098.390593575007
 20
51.60554460139677
 30
0.0
 10
1099.615283678867
 20
52.24306641113313
 30
0.0
  0
SPLINE
  5
1D7
330
1F
100
AcDbEntity
  8
0
  6
SLD-実線
 62
     0
370
    18
100
AcDbSpline
210
0.0
220
0.0
230
1.0
 70
     8
 71
     3
 72
     8
 73
     4
 74
     0
 42
0.000000001
 43
0.00000001
 40
5.0
 40
5.0
 40
5.0
 40
5.0
 40
6.0
 40
6.0
 40
6.0
 40
6.0
 10
1099.615283678867
 20
59.09447249665997
 30
0.0
 10
1099.988883613669
 20
59.06596777661495
 30
0.0
 10
1100.389107246383
 20
59.01243099277425
 30
0.0
 10
1100.789041491074
 20
59.01243099277425
 30
0.0
  0
SPLINE
  5
1D8
330
1F
100
AcDbEntity
  8
0
  6
SLD-実線
 62
     0
370
    18
100
AcDbSpline
210
0.0
220
0.0
230
1.0
 70
     8
 71
     3
 72
     8
 73
     4
 74
     0
 42
0.000000001
 43
0.00000001
 40
6.0
 40
6.0
 40
6.0
 40
6.0
 40
7.0
 40
7.0
 40
7.0
 40
7.0
 10
1100.789041491074
 20
59.01243099277425
 30
0.0
 10
1101.159747545668
 20
59.01243099277425
 30
0.0
 10
1101.535373196617
 20
59.06596777661495
 30
0.0
 10
1101.961931139218
 20
59.09447249665997
 30
0.0
  0
SPLINE
  5
1D9
330
1F
100
AcDbEntity
  8
0
  6
SLD-実線
 62
     0
370
    18
100
AcDbSpline
210
0.0
220
0.0
230
1.0
 70
     8
 71
     3
 72
     8
 73
     4
 74
     0
 42
0.000000001
 43
0.00000001
 40
8.0
 40
8.0
 40
8.0
 40
8.0
 40
9.0
 40
9.0
 40
9.0
 40
9.0
 10
1101.961931139218
 20
51.55085026547295
 30
0.0
 10
1099.641907376777
 20
50.75156055213107
 30
0.0
 10
1097.19021206489
 20
50.32384505744638
 30
0.0
 10
1094.709577950927
 20
50.32384505744638
 30
0.0
  0
SPLINE
  5
1DA
330
1F
100
AcDbEntity
  8
0
  6
SLD-実線
 62
     0
370
    18
100
AcDbSpline
210
0.0
220
0.0
230
1.0
 70
     8
 71
     3
 72
     8
 73
     4
 74
     0
 42
0.000000001
 43
0.00000001
 40
9.0
 40
9.0
 40
9.0
 40
9.0
 40
10.0
 40
10.0
 40
10.0
 40
10.0
 10
1094.709577950927
 20
50.32384505744638
 30
0.0
 10
1087.966837067196
 20
50.32384505744638
 30
0.0
 10
1084.8766070875
 20
54.34981120227316
 30
0.0
 10
1084.8766070875
 20
59.7606437204517
 30
0.0
  0
SPLINE
  5
1DB
330
1F
100
AcDbEntity
  8
0
  6
SLD-実線
 62
     0
370
    18
100
AcDbSpline
210
0.0
220
0.0
230
1.0
 70
     8
 71
     3
 72
     8
 73
     4
 74
     0
 42
0.000000001
 43
0.00000001
 40
10.0
 40
10.0
 40
10.0
 40
10.0
 40
11.0
 40
11.0
 40
11.0
 40
11.0
 10
1084.8766070875
 20
59.7606437204517
 30
0.0
 10
1084.8766070875
 20
65.99492985170562
 30
0.0
 10
1089.354163238724
 20
69.27413020895878
 30
0.0
 10
1095.269254383079
 20
69.27413020895878
 30
0.0
  0
SPLINE
  5
1DC
330
1F
100
AcDbEntity
  8
0
  6
SLD-実線
 62
     0
370
    18
100
AcDbSpline
210
0.0
220
0.0
230
1.0
 70
     8
 71
     3
 72
     8
 73
     4
 74
     0
 42
0.000000001
 43
0.00000001
 40
11.0
 40
11.0
 40
11.0
 40
11.0
 40
12.0
 40
12.0
 40
12.0
 40
12.0
 10
1095.269254383079
 20
69.27413020895878
 30
0.0
 10
1099.24370946021
 20
69.27413020895878
 30
0.0
 10
1101.479521308609
 20
68.10456852305325
 30
0.0
 10
1102.067557766796
 20
67.73140267028192
 30
0.0
  0
SPLINE
  5
1DD
330
1F
100
AcDbEntity
  8
0
  6
SLD-実線
 62
     0
370
    18
100
AcDbSpline
210
0.0
220
0.0
230
1.0
 70
     8
 71
     3
 72
     8
 73
     4
 74
     0
 42
0.000000001
 43
0.00000001
 40
12.0
 40
12.0
 40
12.0
 40
12.0
 40
13.0
 40
13.0
 40
13.0
 40
13.0
 10
1102.067557766796
 20
67.73140267028192
 30
0.0
 10
1101.827076321543
 20
67.06262695430333
 30
0.0
 10
1101.640999824195
 20
66.36968733859116
 30
0.0
 10
1101.454344550804
 20
65.67906282704503
 30
0.0
  0
SPLINE
  5
1DE
330
1F
100
AcDbEntity
  8
0
  6
SLD-実線
 62
     0
370
    18
100
AcDbSpline
210
0.0
220
0.0
230
1.0
 70
     8
 71
     3
 72
     8
 73
     4
 74
     0
 42
0.000000001
 43
0.00000001
 40
0.0
 40
0.0
 40
0.0
 40
0.0
 40
1.0
 40
1.0
 40
1.0
 40
1.0
 10
1108.67833771306
 20
50.64390820840802
 30
0.0
 10
1108.278114080347
 20
50.67111068235948
 30
0.0
 10
1107.958050929386
 20
50.72204297401344
 30
0.0
 10
1107.611942856556
 20
50.72204297401344
 30
0.0
  0
SPLINE
  5
1DF
330
1F
100
AcDbEntity
  8
0
  6
SLD-実線
 62
     0
370
    18
100
AcDbSpline
210
0.0
220
0.0
230
1.0
 70
     8
 71
     3
 72
     8
 73
     4
 74
     0
 42
0.000000001
 43
0.00000001
 40
1.0
 40
1.0
 40
1.0
 40
1.0
 40
2.0
 40
2.0
 40
2.0
 40
2.0
 10
1107.611942856556
 20
50.72204297401344
 30
0.0
 10
1107.236027817587
 20
50.72204297401344
 30
0.0
 10
1106.889919744757
 20
50.67111068235948
 30
0.0
 10
1106.545837388072
 20
50.64390820840802
 30
0.0
  0
SPLINE
  5
1E0
330
1F
100
AcDbEntity
  8
0
  6
SLD-実線
 62
     0
370
    18
100
AcDbSpline
210
0.0
220
0.0
230
1.0
 70
     8
 71
     3
 72
     8
 73
     4
 74
     0
 42
0.000000001
 43
0.00000001
 40
3.0
 40
3.0
 40
3.0
 40
3.0
 40
4.0
 40
4.0
 40
4.0
 40
4.0
 10
1106.545837388072
 20
63.38464990444156
 30
0.0
 10
1106.889919744757
 20
63.35976253465609
 30
0.0
 10
1107.236027817587
 20
63.30174023649354
 30
0.0
 10
1107.611942856556
 20
63.30174023649354
 30
0.0
  0
SPLINE
  5
1E1
330
1F
100
AcDbEntity
  8
0
  6
SLD-実線
 62
     0
370
    18
100
AcDbSpline
210
0.0
220
0.0
230
1.0
 70
     8
 71
     3
 72
     8
 73
     4
 74
     0
 42
0.000000001
 43
0.00000001
 40
4.0
 40
4.0
 40
4.0
 40
4.0
 40
5.0
 40
5.0
 40
5.0
 40
5.0
 10
1107.611942856556
 20
63.30174023649354
 30
0.0
 10
1107.958050929386
 20
63.30174023649354
 30
0.0
 10
1108.278114080347
 20
63.35976253465609
 30
0.0
 10
1108.67833771306
 20
63.38464990444156
 30
0.0
  0
SPLINE
  5
1E2
330
1F
100
AcDbEntity
  8
0
  6
SLD-実線
 62
     0
370
    18
100
AcDbSpline
210
0.0
220
0.0
230
1.0
 70
     8
 71
     3
 72
    11
 73
     7
 74
     0
 42
0.000000001
 43
0.00000001
 40
2.0
 40
2.0
 40
2.0
 40
2.0
 40
3.0
 40
3.0
 40
3.0
 40
4.0
 40
4.0
 40
4.0
 40
4.0
 10
1107.611942856556
 20
69.30437125712824
 30
0.0
 10
1108.329625148043
 20
69.30437125712824
 30
0.0
 10
1108.970909002049
 20
68.69043457108384
 30
0.0
 10
1108.970909002049
 20
67.9425112314271
 30
0.0
 10
1108.970909002049
 20
67.19415380973922
 30
0.0
 10
1108.329625148043
 20
66.5839791679646
 30
0.0
 10
1107.611942856556
 20
66.5839791679646
 30
0.0
  0
SPLINE
  5
1E3
330
1F
100
AcDbEntity
  8
0
  6
SLD-実線
 62
     0
370
    18
100
AcDbSpline
210
0.0
220
0.0
230
1.0
 70
     8
 71
     3
 72
    11
 73
     7
 74
     0
 42
0.000000001
 43
0.00000001
 40
0.0
 40
0.0
 40
0.0
 40
0.0
 40
1.0
 40
1.0
 40
1.0
 40
2.0
 40
2.0
 40
2.0
 40
2.0
 10
1107.611942856556
 20
66.5839791679646
 30
0.0
 10
1106.865900539034
 20
66.5839791679646
 30
0.0
 10
1106.250372218875
 20
67.19415380973922
 30
0.0
 10
1106.250372218875
 20
67.9425112314271
 30
0.0
 10
1106.250372218875
 20
68.69043457108384
 30
0.0
 10
1106.865900539034
 20
69.30437125712824
 30
0.0
 10
1107.611942856556
 20
69.30437125712824
 30
0.0
  0
SPLINE
  5
1E4
330
1F
100
AcDbEntity
  8
0
  6
SLD-実線
 62
     0
370
    18
100
AcDbSpline
210
0.0
220
0.0
230
1.0
 70
     8
 71
     3
 72
     8
 73
     4
 74
     0
 42
0.000000001
 43
0.00000001
 40
0.0
 40
0.0
 40
0.0
 40
0.0
 40
1.0
 40
1.0
 40
1.0
 40
1.0
 10
1120.034213035742
 20
50.59239714071247
 30
0.0
 10
1119.60765509314
 20
50.62075716674713
 30
0.0
 10
1119.233186994275
 20
50.67111068235948
 30
0.0
 10
1118.860455223535
 20
50.67111068235948
 30
0.0
  0
SPLINE
  5
1E5
330
1F
100
AcDbEntity
  8
0
  6
SLD-実線
 62
     0
370
    18
100
AcDbSpline
210
0.0
220
0.0
230
1.0
 70
     8
 71
     3
 72
     8
 73
     4
 74
     0
 42
0.000000001
 43
0.00000001
 40
1.0
 40
1.0
 40
1.0
 40
1.0
 40
2.0
 40
2.0
 40
2.0
 40
2.0
 10
1118.860455223535
 20
50.67111068235948
 30
0.0
 10
1118.461389142906
 20
50.67111068235948
 30
0.0
 10
1118.058850406027
 20
50.62075716674713
 30
0.0
 10
1117.686118635287
 20
50.59239714071247
 30
0.0
  0
SPLINE
  5
1E6
330
1F
100
AcDbEntity
  8
0
  6
SLD-実線
 62
     0
370
    18
100
AcDbSpline
210
0.0
220
0.0
230
1.0
 70
     8
 71
     3
 72
     8
 73
     4
 74
     0
 42
0.000000001
 43
0.00000001
 40
3.0
 40
3.0
 40
3.0
 40
3.0
 40
4.0
 40
4.0
 40
4.0
 40
4.0
 10
1117.686118635287
 20
67.59842887474225
 30
0.0
 10
1114.995388818252
 20
67.59842887474225
 30
0.0
 10
1113.37105385772
 20
67.43637158311616
 30
0.0
 10
1111.84974103258
 20
67.27749755971836
 30
0.0
  0
SPLINE
  5
1E7
330
1F
100
AcDbEntity
  8
0
  6
SLD-実線
 62
     0
370
    18
100
AcDbSpline
210
0.0
220
0.0
230
1.0
 70
     8
 71
     3
 72
     8
 73
     4
 74
     0
 42
0.000000001
 43
0.00000001
 40
4.0
 40
4.0
 40
4.0
 40
4.0
 40
5.0
 40
5.0
 40
5.0
 40
5.0
 10
1111.84974103258
 20
67.27749755971836
 30
0.0
 10
1111.874628402365
 20
67.54460270288071
 30
0.0
 10
1111.929612126309
 20
67.80809049578357
 30
0.0
 10
1111.929612126309
 20
68.07649788503936
 30
0.0
  0
SPLINE
  5
1E8
330
1F
100
AcDbEntity
  8
0
  6
SLD-実線
 62
     0
370
    18
100
AcDbSpline
210
0.0
220
0.0
230
1.0
 70
     8
 71
     3
 72
     8
 73
     4
 74
     0
 42
0.000000001
 43
0.00000001
 40
5.0
 40
5.0
 40
5.0
 40
5.0
 40
6.0
 40
6.0
 40
6.0
 40
6.0
 10
1111.929612126309
 20
68.07649788503936
 30
0.0
 10
1111.929612126309
 20
68.34259017012917
 30
0.0
 10
1111.874628402365
 20
68.58220345131932
 30
0.0
 10
1111.84974103258
 20
68.87535351635012
 30
0.0
  0
SPLINE
  5
1E9
330
1F
100
AcDbEntity
  8
0
  6
SLD-実線
 62
     0
370
    18
100
AcDbSpline
210
0.0
220
0.0
230
1.0
 70
     8
 71
     3
 72
     8
 73
     4
 74
     0
 42
0.000000001
 43
0.00000001
 40
7.0
 40
7.0
 40
7.0
 40
7.0
 40
8.0
 40
8.0
 40
8.0
 40
8.0
 10
1125.603774883308
 20
68.87535351635012
 30
0.0
 10
1125.57425730519
 20
68.58220345131932
 30
0.0
 10
1125.523614401557
 20
68.34259017012917
 30
0.0
 10
1125.523614401557
 20
68.07649788503936
 30
0.0
  0
SPLINE
  5
1EA
330
1F
100
AcDbEntity
  8
0
  6
SLD-実線
 62
     0
370
    18
100
AcDbSpline
210
0.0
220
0.0
230
1.0
 70
     8
 71
     3
 72
     8
 73
     4
 74
     0
 42
0.000000001
 43
0.00000001
 40
8.0
 40
8.0
 40
8.0
 40
8.0
 40
9.0
 40
9.0
 40
9.0
 40
9.0
 10
1125.523614401557
 20
68.07649788503936
 30
0.0
 10
1125.523614401557
 20
67.80809049578357
 30
0.0
 10
1125.57425730519
 20
67.54460270288071
 30
0.0
 10
1125.603774883308
 20
67.27749755971836
 30
0.0
  0
SPLINE
  5
1EB
330
1F
100
AcDbEntity
  8
0
  6
SLD-実線
 62
     0
370
    18
100
AcDbSpline
210
0.0
220
0.0
230
1.0
 70
     8
 71
     3
 72
     8
 73
     4
 74
     0
 42
0.000000001
 43
0.00000001
 40
9.0
 40
9.0
 40
9.0
 40
9.0
 40
10.0
 40
10.0
 40
10.0
 40
10.0
 10
1125.603774883308
 20
67.27749755971836
 30
0.0
 10
1124.269406719579
 20
67.43637158311616
 30
0.0
 10
1122.40632664192
 20
67.59842887474225
 30
0.0
 10
1120.034213035742
 20
67.59842887474225
 30
0.0
  0
SPLINE
  5
1EC
330
1F
100
AcDbEntity
  8
0
  6
SLD-実線
 62
     0
370
    18
100
AcDbSpline
210
0.0
220
0.0
230
1.0
 70
     8
 71
     3
 72
     8
 73
     4
 74
     0
 42
0.000000001
 43
0.00000001
 40
1.0
 40
1.0
 40
1.0
 40
1.0
 40
2.0
 40
2.0
 40
2.0
 40
2.0
 10
1134.984866352317
 20
60.93382275661676
 30
0.0
 10
1135.782419737534
 20
60.93382275661676
 30
0.0
 10
1136.55682208109
 20
61.03944938419448
 30
0.0
 10
1137.355822406412
 20
61.06650716413564
 30
0.0
  0
SPLINE
  5
1ED
330
1F
100
AcDbEntity
  8
0
  6
SLD-実線
 62
     0
370
    18
100
AcDbSpline
210
0.0
220
0.0
230
1.0
 70
     8
 71
     3
 72
     8
 73
     4
 74
     0
 42
0.000000001
 43
0.00000001
 40
2.0
 40
2.0
 40
2.0
 40
2.0
 40
3.0
 40
3.0
 40
3.0
 40
3.0
 10
1137.355822406412
 20
61.06650716413564
 30
0.0
 10
1137.332381976729
 20
60.85308349882442
 30
0.0
 10
1137.277398252785
 20
60.61462776971734
 30
0.0
 10
1137.277398252785
 20
60.3754485705584
 30
0.0
  0
SPLINE
  5
1EE
330
1F
100
AcDbEntity
  8
0
  6
SLD-実線
 62
     0
370
    18
100
AcDbSpline
210
0.0
220
0.0
230
1.0
 70
     8
 71
     3
 72
     8
 73
     4
 74
     0
 42
0.000000001
 43
0.00000001
 40
3.0
 40
3.0
 40
3.0
 40
3.0
 40
4.0
 40
4.0
 40
4.0
 40
4.0
 10
1137.277398252785
 20
60.3754485705584
 30
0.0
 10
1137.277398252785
 20
60.1589863310292
 30
0.0
 10
1137.332381976729
 20
59.91778141572497
 30
0.0
 10
1137.355822406412
 20
59.62709114887047
 30
0.0
  0
SPLINE
  5
1EF
330
1F
100
AcDbEntity
  8
0
  6
SLD-実線
 62
     0
370
    18
100
AcDbSpline
210
0.0
220
0.0
230
1.0
 70
     8
 71
     3
 72
     8
 73
     4
 74
     0
 42
0.000000001
 43
0.00000001
 40
4.0
 40
4.0
 40
4.0
 40
4.0
 40
5.0
 40
5.0
 40
5.0
 40
5.0
 10
1137.355822406412
 20
59.62709114887047
 30
0.0
 10
1136.55682208109
 20
59.65762158506081
 30
0.0
 10
1135.782419737534
 20
59.7606437204517
 30
0.0
 10
1134.984866352317
 20
59.7606437204517
 30
0.0
  0
SPLINE
  5
1F0
330
1F
100
AcDbEntity
  8
0
  6
SLD-実線
 62
     0
370
    18
100
AcDbSpline
210
0.0
220
0.0
230
1.0
 70
     8
 71
     3
 72
     8
 73
     4
 74
     0
 42
0.000000001
 43
0.00000001
 40
7.0
 40
7.0
 40
7.0
 40
7.0
 40
8.0
 40
8.0
 40
8.0
 40
8.0
 10
1130.851826639808
 20
51.97625065599156
 30
0.0
 10
1132.478476704506
 20
51.92213509610922
 30
0.0
 10
1134.076477355148
 20
52.03123437993609
 30
0.0
 10
1135.679397602143
 20
52.08361361169394
 30
0.0
  0
SPLINE
  5
1F1
330
1F
100
AcDbEntity
  8
0
  6
SLD-実線
 62
     0
370
    18
100
AcDbSpline
210
0.0
220
0.0
230
1.0
 70
     8
 71
     3
 72
     8
 73
     4
 74
     0
 42
0.000000001
 43
0.00000001
 40
8.0
 40
8.0
 40
8.0
 40
8.0
 40
9.0
 40
9.0
 40
9.0
 40
9.0
 10
1135.679397602143
 20
52.08361361169394
 30
0.0
 10
1136.50357468527
 20
52.11110547366624
 30
0.0
 10
1137.304890114757
 20
52.19155534343774
 30
0.0
 10
1138.129645973926
 20
52.32351628090475
 30
0.0
  0
SPLINE
  5
1F2
330
1F
100
AcDbEntity
  8
0
  6
SLD-実線
 62
     0
370
    18
100
AcDbSpline
210
0.0
220
0.0
230
1.0
 70
     8
 71
     3
 72
     8
 73
     4
 74
     0
 42
0.000000001
 43
0.00000001
 40
9.0
 40
9.0
 40
9.0
 40
9.0
 40
10.0
 40
10.0
 40
10.0
 40
10.0
 10
1138.129645973926
 20
52.32351628090475
 30
0.0
 10
1138.103890440079
 20
52.03123437993609
 30
0.0
 10
1138.051511208321
 20
51.78930599457999
 30
0.0
 10
1138.051511208321
 20
51.52191146339688
 30
0.0
  0
SPLINE
  5
1F3
330
1F
100
AcDbEntity
  8
0
  6
SLD-実線
 62
     0
370
    18
100
AcDbSpline
210
0.0
220
0.0
230
1.0
 70
     8
 71
     3
 72
     8
 73
     4
 74
     0
 42
0.000000001
 43
0.00000001
 40
10.0
 40
10.0
 40
10.0
 40
10.0
 40
11.0
 40
11.0
 40
11.0
 40
11.0
 10
1138.051511208321
 20
51.52191146339688
 30
0.0
 10
1138.051511208321
 20
51.25798958846278
 30
0.0
 10
1138.103890440079
 20
50.99001628123815
 30
0.0
 10
1138.129645973926
 20
50.72204297401344
 30
0.0
  0
SPLINE
  5
1F4
330
1F
100
AcDbEntity
  8
0
  6
SLD-実線
 62
     0
370
    18
100
AcDbSpline
210
0.0
220
0.0
230
1.0
 70
     8
 71
     3
 72
     8
 73
     4
 74
     0
 42
0.000000001
 43
0.00000001
 40
14.0
 40
14.0
 40
14.0
 40
14.0
 40
15.0
 40
15.0
 40
15.0
 40
15.0
 10
1137.969035622404
 20
68.87535351635012
 30
0.0
 10
1137.945884580743
 20
68.58220345131932
 30
0.0
 10
1137.890032692736
 20
68.34259017012917
 30
0.0
 10
1137.890032692736
 20
68.07649788503936
 30
0.0
  0
SPLINE
  5
1F5
330
1F
100
AcDbEntity
  8
0
  6
SLD-実線
 62
     0
370
    18
100
AcDbSpline
210
0.0
220
0.0
230
1.0
 70
     8
 71
     3
 72
     8
 73
     4
 74
     0
 42
0.000000001
 43
0.00000001
 40
15.0
 40
15.0
 40
15.0
 40
15.0
 40
16.0
 40
16.0
 40
16.0
 40
16.0
 10
1137.890032692736
 20
68.07649788503936
 30
0.0
 10
1137.890032692736
 20
67.80809049578357
 30
0.0
 10
1137.945884580743
 20
67.54460270288071
 30
0.0
 10
1137.969035622404
 20
67.27749755971836
 30
0.0
  0
SPLINE
  5
1F6
330
1F
100
AcDbEntity
  8
0
  6
SLD-実線
 62
     0
370
    18
100
AcDbSpline
210
0.0
220
0.0
230
1.0
 70
     8
 71
     3
 72
     8
 73
     4
 74
     0
 42
0.000000001
 43
0.00000001
 40
16.0
 40
16.0
 40
16.0
 40
16.0
 40
17.0
 40
17.0
 40
17.0
 40
17.0
 10
1137.969035622404
 20
67.27749755971836
 30
0.0
 10
1137.170903461145
 20
67.43637158311616
 30
0.0
 10
1136.368719867596
 20
67.5166767588773
 30
0.0
 10
1135.571455870399
 20
67.56876660261432
 30
0.0
  0
SPLINE
  5
1F7
330
1F
100
AcDbEntity
  8
0
  6
SLD-実線
 62
     0
370
    18
100
AcDbSpline
210
0.0
220
0.0
230
1.0
 70
     8
 71
     3
 72
     8
 73
     4
 74
     0
 42
0.000000001
 43
0.00000001
 40
0.0
 40
0.0
 40
0.0
 40
0.0
 40
1.0
 40
1.0
 40
1.0
 40
1.0
 10
1155.748746229938
 20
51.84313216644149
 30
0.0
 10
1154.071163873587
 20
50.72204297401344
 30
0.0
 10
1151.885126764759
 20
50.32384505744638
 30
0.0
 10
1149.858253067349
 20
50.32384505744638
 30
0.0
  0
SPLINE
  5
1F8
330
1F
100
AcDbEntity
  8
0
  6
SLD-実線
 62
     0
370
    18
100
AcDbSpline
210
0.0
220
0.0
230
1.0
 70
     8
 71
     3
 72
     8
 73
     4
 74
     0
 42
0.000000001
 43
0.00000001
 40
1.0
 40
1.0
 40
1.0
 40
1.0
 40
2.0
 40
2.0
 40
2.0
 40
2.0
 10
1149.858253067349
 20
50.32384505744638
 30
0.0
 10
1143.996119930793
 20
50.32384505744638
 30
0.0
 10
1140.475135882194
 20
54.0277223351662
 30
0.0
 10
1140.475135882194
 20
59.86757259412292
 30
0.0
  0
SPLINE
  5
1F9
330
1F
100
AcDbEntity
  8
0
  6
SLD-実線
 62
     0
370
    18
100
AcDbSpline
210
0.0
220
0.0
230
1.0
 70
     8
 71
     3
 72
     8
 73
     4
 74
     0
 42
0.000000001
 43
0.00000001
 40
2.0
 40
2.0
 40
2.0
 40
2.0
 40
3.0
 40
3.0
 40
3.0
 40
3.0
 10
1140.475135882194
 20
59.86757259412292
 30
0.0
 10
1140.475135882194
 20
65.86354769028017
 30
0.0
 10
1144.899299943588
 20
69.27413020895878
 30
0.0
 10
1150.525292455202
 20
69.27413020895878
 30
0.0
  0
SPLINE
  5
1FA
330
1F
100
AcDbEntity
  8
0
  6
SLD-実線
 62
     0
370
    18
100
AcDbSpline
210
0.0
220
0.0
230
1.0
 70
     8
 71
     3
 72
     8
 73
     4
 74
     0
 42
0.000000001
 43
0.00000001
 40
3.0
 40
3.0
 40
3.0
 40
3.0
 40
4.0
 40
4.0
 40
4.0
 40
4.0
 10
1150.525292455202
 20
69.27413020895878
 30
0.0
 10
1152.469979954716
 20
69.27413020895878
 30
0.0
 10
1154.470229954216
 20
68.82442122469621
 30
0.0
 10
1156.255464654291
 20
68.05074235119166
 30
0.0
  0
SPLINE
  5
1FB
330
1F
100
AcDbEntity
  8
0
  6
SLD-実線
 62
     0
370
    18
100
AcDbSpline
210
0.0
220
0.0
230
1.0
 70
     8
 71
     3
 72
     8
 73
     4
 74
     0
 42
0.000000001
 43
0.00000001
 40
4.0
 40
4.0
 40
4.0
 40
4.0
 40
5.0
 40
5.0
 40
5.0
 40
5.0
 10
1156.255464654291
 20
68.05074235119166
 30
0.0
 10
1155.987201959045
 20
67.38370296333758
 30
0.0
 10
1155.830064263772
 20
66.69047395960466
 30
0.0
 10
1155.69607761016
 20
65.99492985170562
 30
0.0
  0
SPLINE
  5
1FC
330
1F
100
AcDbEntity
  8
0
  6
SLD-実線
 62
     0
370
    18
100
AcDbSpline
210
0.0
220
0.0
230
1.0
 70
     8
 71
     3
 72
     8
 73
     4
 74
     0
 42
0.000000001
 43
0.00000001
 40
6.0
 40
6.0
 40
6.0
 40
6.0
 40
7.0
 40
7.0
 40
7.0
 40
7.0
 10
1155.508264784686
 20
65.96960839988904
 30
0.0
 10
1155.135533013945
 20
66.45129476044568
 30
0.0
 10
1153.162485488397
 20
68.2624296883783
 30
0.0
 10
1150.418797663562
 20
68.2624296883783
 30
0.0
  0
SPLINE
  5
1FD
330
1F
100
AcDbEntity
  8
0
  6
SLD-実線
 62
     0
370
    18
100
AcDbSpline
210
0.0
220
0.0
230
1.0
 70
     8
 71
     3
 72
     8
 73
     4
 74
     0
 42
0.000000001
 43
0.00000001
 40
7.0
 40
7.0
 40
7.0
 40
7.0
 40
8.0
 40
8.0
 40
8.0
 40
8.0
 10
1150.418797663562
 20
68.2624296883783
 30
0.0
 10
1145.513960099684
 20
68.2624296883783
 30
0.0
 10
1143.087730933624
 20
64.28985563338188
 30
0.0
 10
1143.087730933624
 20
59.7606437204517
 30
0.0
  0
SPLINE
  5
1FE
330
1F
100
AcDbEntity
  8
0
  6
SLD-実線
 62
     0
370
    18
100
AcDbSpline
210
0.0
220
0.0
230
1.0
 70
     8
 71
     3
 72
     8
 73
     4
 74
     0
 42
0.000000001
 43
0.00000001
 40
8.0
 40
8.0
 40
8.0
 40
8.0
 40
9.0
 40
9.0
 40
9.0
 40
9.0
 10
1143.087730933624
 20
59.7606437204517
 30
0.0
 10
1143.087730933624
 20
54.64035677511721
 30
0.0
 10
1146.018652807891
 20
51.36390560406129
 30
0.0
 10
1150.229827286005
 20
51.36390560406129
 30
0.0
  0
SPLINE
  5
1FF
330
1F
100
AcDbEntity
  8
0
  6
SLD-実線
 62
     0
370
    18
100
AcDbSpline
210
0.0
220
0.0
230
1.0
 70
     8
 71
     3
 72
     8
 73
     4
 74
     0
 42
0.000000001
 43
0.00000001
 40
9.0
 40
9.0
 40
9.0
 40
9.0
 40
10.0
 40
10.0
 40
10.0
 40
10.0
 10
1150.229827286005
 20
51.36390560406129
 30
0.0
 10
1153.109527480598
 20
51.36390560406129
 30
0.0
 10
1155.347654433164
 20
53.07071615050962
 30
0.0
 10
1155.882732883551
 20
53.52331901497985
 30
0.0
  0
MTEXT
  5
20B
330
1F
100
AcDbEntity
  8
0
  6
Continuous
 62
     0
370
     0
100
AcDbMText
 10
1243.8411190825
 20
76.4431972451
 30
0.0
 40
10.5
 41
0.0
 71
     2
 72
     1
  1
F
  7
SLDTEXTSTYLE1
 73
     1
 44
1.0
  0
MTEXT
  5
20C
330
1F
100
AcDbEntity
  8
0
  6
Continuous
 62
     0
370
     0
100
AcDbMText
 10
1240.0443567312
 20
824.6801005277
 30
0.0
 40
10.5
 41
0.0
 71
     2
 72
     1
  1
A
  7
SLDTEXTSTYLE1
 73
     1
 44
1.0
  0
MTEXT
  5
20D
330
1F
100
AcDbEntity
  8
0
  6
Continuous
 62
     0
370
     0
100
AcDbMText
 10
1241.9830285036
 20
527.04374138
 30
0.0
 40
10.5
 41
0.0
 71
     2
 72
     1
  1
C
  7
SLDTEXTSTYLE1
 73
     1
 44
1.0
  0
MTEXT
  5
20E
330
1F
100
AcDbEntity
  8
0
  6
Continuous
 62
     0
370
     0
100
AcDbMText
 10
1243.5616745656
 20
227.04374138
 30
0.0
 40
10.5
 41
0.0
 71
     2
 72
     1
  1
E
  7
SLDTEXTSTYLE1
 73
     1
 44
1.0
  0
MTEXT
  5
20F
330
1F
100
AcDbEntity
  8
0
  6
Continuous
 62
     0
370
     0
100
AcDbMText
 10
1240.3424035036
 20
677.04374138
 30
0.0
 40
10.5
 41
0.0
 71
     2
 72
     1
  1
B
  7
SLDTEXTSTYLE1
 73
     1
 44
1.0
  0
MTEXT
  5
210
330
1F
100
AcDbEntity
  8
0
  6
Continuous
 62
     0
370
     0
100
AcDbMText
 10
1241.9720907682
 20
377.04374138
 30
0.0
 40
10.5
 41
0.0
 71
     2
 72
     1
  1
D
  7
SLDTEXTSTYLE1
 73
     1
 44
1.0
  0
MTEXT
  5
211
330
1F
100
AcDbEntity
  8
0
  6
Continuous
 62
     0
370
     0
100
AcDbMText
 10
258.8696828385
 20
875.7715478718
 30
0.0
 40
10.5
 41
0.0
 71
     2
 72
     1
  1
2
  7
SLDTEXTSTYLE1
 73
     1
 44
1.0
  0
MTEXT
  5
212
330
1F
100
AcDbEntity
  8
0
  6
Continuous
 62
     0
370
     0
100
AcDbMText
 10
94.3481395412
 20
875.7715478718
 30
0.0
 40
10.5
 41
0.0
 71
     2
 72
     1
  1
1
  7
SLDTEXTSTYLE1
 73
     1
 44
1.0
  0
MTEXT
  5
213
330
1F
100
AcDbEntity
  8
0
  6
Continuous
 62
     0
370
     0
100
AcDbMText
 10
1009.3255265507
 20
875.7715478718
 30
0.0
 40
10.5
 41
0.0
 71
     2
 72
     1
  1
7
  7
SLDTEXTSTYLE1
 73
     1
 44
1.0
  0
MTEXT
  5
214
330
1F
100
AcDbEntity
  8
0
  6
Continuous
 62
     0
370
     0
100
AcDbMText
 10
708.2135198436
 20
875.7715478718
 30
0.0
 40
10.5
 41
0.0
 71
     2
 72
     1
  1
5
  7
SLDTEXTSTYLE1
 73
     1
 44
1.0
  0
MTEXT
  5
215
330
1F
100
AcDbEntity
  8
0
  6
Continuous
 62
     0
370
     0
100
AcDbMText
 10
409.3676779442
 20
875.7715478718
 30
0.0
 40
10.5
 41
0.0
 71
     2
 72
     1
  1
3
  7
SLDTEXTSTYLE1
 73
     1
 44
1.0
  0
MTEXT
  5
216
330
1F
100
AcDbEntity
  8
0
  6
Continuous
 62
     0
370
     0
100
AcDbMText
 10
1174.2398491812
 20
875.5725892556
 30
0.0
 40
10.5
 41
0.0
 71
     2
 72
     1
  1
8
  7
SLDTEXTSTYLE1
 73
     1
 44
1.0
  0
MTEXT
  5
217
330
1F
100
AcDbEntity
  8
0
  6
Continuous
 62
     0
370
     0
100
AcDbMText
 10
859.1220977735
 20
875.7715478718
 30
0.0
 40
10.5
 41
0.0
 71
     2
 72
     1
  1
6
  7
SLDTEXTSTYLE1
 73
     1
 44
1.0
  0
MTEXT
  5
218
330
1F
100
AcDbEntity
  8
0
  6
Continuous
 62
     0
370
     0
100
AcDbMText
 10
559.0701446421
 20
875.7715478718
 30
0.0
 40
10.5
 41
0.0
 71
     2
 72
     1
  1
4
  7
SLDTEXTSTYLE1
 73
     1
 44
1.0
  0
MTEXT
  5
219
330
1F
100
AcDbEntity
  8
0
  6
Continuous
 62
     0
370
     0
100
AcDbMText
 10
18.5459648531
 20
377.04374138
 30
0.0
 40
10.5
 41
0.0
 71
     2
 72
     1
  1
D
  7
SLDTEXTSTYLE1
 73
     1
 44
1.0
  0
MTEXT
  5
21A
330
1F
100
AcDbEntity
  8
0
  6
Continuous
 62
     0
370
     0
100
AcDbMText
 10
18.5569025885
 20
527.04374138
 30
0.0
 40
10.5
 41
0.0
 71
     2
 72
     1
  1
C
  7
SLDTEXTSTYLE1
 73
     1
 44
1.0
  0
MTEXT
  5
21B
330
1F
100
AcDbEntity
  8
0
  6
Continuous
 62
     0
370
     0
100
AcDbMText
 10
16.9162775885
 20
677.4081233512
 30
0.0
 40
10.5
 41
0.0
 71
     2
 72
     1
  1
B
  7
SLDTEXTSTYLE1
 73
     1
 44
1.0
  0
MTEXT
  5
21C
330
1F
100
AcDbEntity
  8
0
  6
Continuous
 62
     0
370
     0
100
AcDbMText
 10
18.6845067518
 20
227.04374138
 30
0.0
 40
10.5
 41
0.0
 71
     2
 72
     1
  1
E
  7
SLDTEXTSTYLE1
 73
     1
 44
1.0
  0
MTEXT
  5
21D
330
1F
100
AcDbEntity
  8
0
  6
Continuous
 62
     0
370
     0
100
AcDbMText
 10
1170.3569860897
 20
24.7806040157
 30
0.0
 40
10.5
 41
0.0
 71
     2
 72
     1
  1
8
  7
SLDTEXTSTYLE1
 73
     1
 44
1.0
  0
MTEXT
  5
21E
330
1F
100
AcDbEntity
  8
0
  6
Continuous
 62
     0
370
     0
100
AcDbMText
 10
405.2263861587
 20
24.9795626319
 30
0.0
 40
10.5
 41
0.0
 71
     2
 72
     1
  1
3
  7
SLDTEXTSTYLE1
 73
     1
 44
1.0
  0
MTEXT
  5
21F
330
1F
100
AcDbEntity
  8
0
  6
Continuous
 62
     0
370
     0
100
AcDbMText
 10
554.9398438158
 20
24.9795631558
 30
0.0
 40
10.5
 41
0.0
 71
     2
 72
     1
  1
4
  7
SLDTEXTSTYLE1
 73
     1
 44
1.0
  0
MTEXT
  5
220
330
1F
100
AcDbEntity
  8
0
  6
Continuous
 62
     0
370
     0
100
AcDbMText
 10
704.9680988621
 20
24.9795626319
 30
0.0
 40
10.5
 41
0.0
 71
     2
 72
     1
  1
5
  7
SLDTEXTSTYLE1
 73
     1
 44
1.0
  0
MTEXT
  5
221
330
1F
100
AcDbEntity
  8
0
  6
Continuous
 62
     0
370
     0
100
AcDbMText
 10
854.9917969471
 20
24.9795626319
 30
0.0
 40
10.5
 41
0.0
 71
     2
 72
     1
  1
6
  7
SLDTEXTSTYLE1
 73
     1
 44
1.0
  0
MTEXT
  5
222
330
1F
100
AcDbEntity
  8
0
  6
Continuous
 62
     0
370
     0
100
AcDbMText
 10
1004.9799480792
 20
24.9795626319
 30
0.0
 40
10.5
 41
0.0
 71
     2
 72
     1
  1
7
  7
SLDTEXTSTYLE1
 73
     1
 44
1.0
  0
MTEXT
  5
223
330
1F
100
AcDbEntity
  8
0
  6
Continuous
 62
     0
370
     0
100
AcDbMText
 10
16.6182308161
 20
824.8708250286
 30
0.0
 40
10.5
 41
0.0
 71
     2
 72
     1
  1
A
  7
SLDTEXTSTYLE1
 73
     1
 44
1.0
  0
MTEXT
  5
224
330
1F
100
AcDbEntity
  8
0
  6
Continuous
 62
     0
370
     0
100
AcDbMText
 10
254.9526042156
 20
24.9795626319
 30
0.0
 40
10.5
 41
0.0
 71
     2
 72
     1
  1
2
  7
SLDTEXTSTYLE1
 73
     1
 44
1.0
  0
MTEXT
  5
225
330
1F
100
AcDbEntity
  8
0
  6
Continuous
 62
     0
370
     0
100
AcDbMText
 10
90.2178387148
 20
24.9795626319
 30
0.0
 40
10.5
 41
0.0
 71
     2
 72
     1
  1
1
  7
SLDTEXTSTYLE1
 73
     1
 44
1.0
  0
MTEXT
  5
226
330
1F
100
AcDbEntity
  8
0
  6
Continuous
 62
     0
370
     0
100
AcDbMText
 10
18.6662774591
 20
79.5428433772
 30
0.0
 40
10.5
 41
0.0
 71
     2
 72
     1
  1
F
  7
SLDTEXTSTYLE1
 73
     1
 44
1.0
  0
MTEXT
  5
228
330
1F
100
AcDbEntity
  8
0
  6
Continuous
 62
     0
370
     0
100
AcDbMText
 10
1188.5026379055
 20
63.6570625088
 30
0.0
 40
15.875
 41
0.0
 71
     1
 72
     1
  1
1/1
  7
SLDTEXTSTYLE2
 73
     1
 44
1.0
  0
MTEXT
  5
22A
330
1F
100
AcDbEntity
  8
0
  6
Continuous
 62
     0
370
     0
100
AcDbMText
 10
915.8683683825
 20
72.8477743964
 30
0.0
 40
7.9375
 41
0.0
 71
     1
 72
     1
  1
尺度 / SCALE
  7
SLDTEXTSTYLE3
 73
     1
 44
1.0
  0
MTEXT
  5
22B
330
1F
100
AcDbEntity
  8
0
  6
Continuous
 62
     0
370
     0
100
AcDbMText
 10
787.0932093157
 20
72.8477743964
 30
0.0
 40
7.5
 41
0.0
 71
     1
 72
     1
  1
投影法 / PROJECTION
  7
SLDTEXTSTYLE3
 73
     1
 44
1.0
  0
MTEXT
  5
22C
330
1F
100
AcDbEntity
  8
0
  6
Continuous
 62
     0
370
     0
100
AcDbMText
 10
675.4453608808
 20
206.9800416916
 30
0.0
 40
7.9375
 41
0.0
 71
     1
 72
     1
  1
名前 / NAME
  7
SLDTEXTSTYLE3
 73
     1
 44
1.0
  0
MTEXT
  5
22D
330
1F
100
AcDbEntity
  8
0
  6
Continuous
 62
     0
370
     0
100
AcDbMText
 10
646.7751436036
 20
177.052376306
 30
0.0
 40
7.9375
 41
0.0
 71
     1
 72
     1
  1
検認
  7
SLDTEXTSTYLE3
 73
     1
 44
1.0
  0
MTEXT
  5
22E
330
1F
100
AcDbEntity
  8
0
  6
Continuous
 62
     0
370
     0
100
AcDbMText
 10
646.7521764905
 20
137.3502516144
 30
0.0
 40
7.9375
 41
0.0
 71
     1
 72
     1
  1
検認
  7
SLDTEXTSTYLE3
 73
     1
 44
1.0
  0
MTEXT
  5
22F
330
1F
100
AcDbEntity
  8
0
  6
Continuous
 62
     0
370
     0
100
AcDbMText
 10
646.7053223502
 20
96.2344485031
 30
0.0
 40
7.9375
 41
0.0
 71
     1
 72
     1
  1
設計
  7
SLDTEXTSTYLE3
 73
     1
 44
1.0
  0
MTEXT
  5
230
330
1F
100
AcDbEntity
  8
0
  6
Continuous
 62
     0
370
     0
100
AcDbMText
 10
646.9855244838
 20
45.0103583008
 30
0.0
 40
7.9375
 41
0.0
 71
     1
 72
     1
  1
日付
  7
SLDTEXTSTYLE3
 73
     1
 44
1.0
  0
MTEXT
  5
231
330
1F
100
AcDbEntity
  8
0
  6
Continuous
 62
     0
370
     0
100
AcDbMText
 10
646.7751436036
 20
66.3145246747
 30
0.0
 40
7.9375
 41
0.0
 71
     1
 72
     1
  1
製図
  7
SLDTEXTSTYLE3
 73
     1
 44
1.0
  0
MTEXT
  5
232
330
1F
100
AcDbEntity
  8
0
  6
Continuous
 62
     0
370
     0
100
AcDbMText
 10
41.2070541741
 20
45.0103583008
 30
0.0
 40
7.9375
 41
0.0
 71
     1
 72
     1
  1
NO.
  7
SLDTEXTSTYLE0
 73
     1
 44
1.0
  0
MTEXT
  5
233
330
1F
100
AcDbEntity
  8
0
  6
Continuous
 62
     0
370
     0
100
AcDbMText
 10
174.5213337118
 20
45.0103583008
 30
0.0
 40
7.9375
 41
0.0
 71
     1
 72
     1
  1
改定履歴 / REVISION HISTORY
  7
SLDTEXTSTYLE3
 73
     1
 44
1.0
  0
MTEXT
  5
234
330
1F
100
AcDbEntity
  8
0
  6
Continuous
 62
     0
370
     0
100
AcDbMText
 10
484.0705876625
 20
45.0103583008
 30
0.0
 40
7.9375
 41
0.0
 71
     1
 72
     1
  1
日付
  7
SLDTEXTSTYLE3
 73
     1
 44
1.0
  0
MTEXT
  5
235
330
1F
100
AcDbEntity
  8
0
  6
Continuous
 62
     0
370
     0
100
AcDbMText
 10
539.3326693553
 20
45.0103583008
 30
0.0
 40
7.9375
 41
0.0
 71
     1
 72
     1
  1
名前 / NAME
  7
SLDTEXTSTYLE3
 73
     1
 44
1.0
  0
MTEXT
  5
236
330
1F
100
AcDbEntity
  8
0
  6
Continuous
 62
     0
370
     0
100
AcDbMText
 10
1112.9064586918
 20
207.1935537949
 30
0.0
 40
7.9375
 41
0.0
 71
     2
 72
     1
  1
品番 / PART NO.
  7
SLDTEXTSTYLE3
 73
     1
 44
1.0
  0
MTEXT
  5
237
330
1F
100
AcDbEntity
  8
レイヤー_1
 62
     0
100
AcDbMText
 10
1114.1108610492
 20
184.6935537949
 30
0.0
 40
7.9375
 41
0.0
 71
     2
 72
     1
  1
HBB-C53C/S
  7
SLDTEXTSTYLE0
 73
     1
 44
1.0
  0
MTEXT
  5
238
330
1F
100
AcDbEntity
  8
レイヤー_1
 62
     0
100
AcDbMText
 10
1114.1365889396
 20
162.1935537949
 30
0.0
 40
7.9375
 41
0.0
 71
     2
 72
     1
  1
色 / COLOR
  7
SLDTEXTSTYLE3
 73
     1
 44
1.0
  0
MTEXT
  5
239
330
1F
100
AcDbEntity
  8
レイヤー_1
 62
     0
100
AcDbMText
 10
1110.0134950738
 20
139.6935537949
 30
0.0
 40
7.9375
 41
0.0
 71
     2
 72
     1
  1
チャコールグリーン/シルバー
  7
SLDTEXTSTYLE3
 73
     1
 44
1.0
  0
MTEXT
  5
23A
330
1F
100
AcDbEntity
  8
レイヤー_1
 62
     0
100
AcDbMText
 10
1111.0497817855
 20
117.1935537949
 30
0.0
 40
7.9375
 41
0.0
 71
     2
 72
     1
  1
品名 / DRAWING NAME
  7
SLDTEXTSTYLE3
 73
     1
 44
1.0
  0
MTEXT
  5
23B
330
1F
100
AcDbEntity
  8
レイヤー_1
 62
     0
100
AcDbMText
 10
1110.3524933766
 20
94.6935537949
 30
0.0
 40
7.9375
 41
0.0
 71
     2
 72
     1
  1
ガーデンアップライト　GEMS
  7
SLDTEXTSTYLE3
 73
     1
 44
1.0
  0
MTEXT
  5
23C
330
1F
100
AcDbEntity
  8
レイヤー_1
 62
     0
100
AcDbMText
 10
888.2119932584
 20
184.4651998477
 30
0.0
 40
7.9375
 41
0.0
 71
     2
 72
     1
  1
4.5W
  7
SLDTEXTSTYLE0
 73
     1
 44
1.0
  0
MTEXT
  5
23D
330
1F
100
AcDbEntity
  8
レイヤー_1
 62
     0
100
AcDbMText
 10
885.8224749342
 20
161.9651998477
 30
0.0
 40
7.9375
 41
0.0
 71
     2
 72
     1
  1
光源 / LIGHT
  7
SLDTEXTSTYLE3
 73
     1
 44
1.0
  0
MTEXT
  5
23E
330
1F
100
AcDbEntity
  8
レイヤー_1
 62
     0
100
AcDbMText
 10
880.6612661928
 20
139.4651998477
 30
0.0
 40
7.9375
 41
0.0
 71
     2
 72
     1
  1
ローボルトLED電球　GEMS 白～電
  7
SLDTEXTSTYLE3
 73
     1
 44
1.0
  0
MTEXT
  5
23F
330
1F
100
AcDbEntity
  8
レイヤー_1
 62
     0
100
AcDbMText
 10
885.273097299
 20
116.9651998477
 30
0.0
 40
7.9375
 41
0.0
 71
     2
 72
     1
  1
重量 / WEIGHT
  7
SLDTEXTSTYLE3
 73
     1
 44
1.0
  0
MTEXT
  5
240
330
1F
100
AcDbEntity
  8
レイヤー_1
 62
     0
100
AcDbMText
 10
887.5872846022
 20
94.4651998477
 30
0.0
 40
7.9375
 41
0.0
 71
     2
 72
     1
  1
約0.7kg
  7
SLDTEXTSTYLE3
 73
     1
 44
1.0
  0
MTEXT
  5
241
330
1F
100
AcDbEntity
  8
レイヤー_1
 62
     0
100
AcDbMText
 10
726.5556636352
 20
45.1633049487
 30
0.0
 40
9.525
 41
0.0
 71
     2
 72
     1
  1
2019/09/06
  7
SLDTEXTSTYLE0
 73
     1
 44
1.0
  0
MTEXT
  5
242
330
1F
100
AcDbEntity
  8
レイヤー_1
 62
     0
100
AcDbMText
 10
729.829886346
 20
66.0840009551
 30
0.0
 40
9.525
 41
0.0
 71
     2
 72
     1
  1
青木
  7
SLDTEXTSTYLE3
 73
     1
 44
1.0
  0
MTEXT
  5
243
330
1F
100
AcDbEntity
  8
レイヤー_1
 62
     0
100
AcDbMText
 10
729.829886346
 20
96.0883711927
 30
0.0
 40
9.525
 41
0.0
 71
     2
 72
     1
  1
小林
  7
SLDTEXTSTYLE3
 73
     1
 44
1.0
  0
MTEXT
  5
244
330
1F
100
AcDbEntity
  8
レイヤー_1
 62
     0
100
AcDbMText
 10
729.829886346
 20
136.2377283561
 30
0.0
 40
9.525
 41
0.0
 71
     2
 72
     1
  1
小林
  7
SLDTEXTSTYLE3
 73
     1
 44
1.0
  0
MTEXT
  5
245
330
1F
100
AcDbEntity
  8
レイヤー_1
 62
     0
100
AcDbMText
 10
730.6732456442
 20
176.6764563174
 30
0.0
 40
9.525
 41
0.0
 71
     2
 72
     1
  1
原
  7
SLDTEXTSTYLE3
 73
     1
 44
1.0
  0
MTEXT
  5
246
330
1F
100
AcDbEntity
  8
レイヤー_1
 62
     0
100
AcDbMText
 10
947.7990578806
 20
48.9187986157
 30
0.0
 40
9.525
 41
0.0
 71
     2
 72
     1
  1
1:3
  7
SLDTEXTSTYLE0
 73
     1
 44
1.0
  0
MTEXT
  5
247
330
1F
100
AcDbEntity
  8
レイヤー_1
 62
     0
100
AcDbMText
 10
45.1057287846
 20
851.3116062435
 30
0.0
 40
10.5
 41
0.0
 71
     2
 72
     1
  1
No.
  7
SLDTEXTSTYLE0
 73
     1
 44
1.0
  0
MTEXT
  5
248
330
1F
100
AcDbEntity
  8
レイヤー_1
 62
     0
100
AcDbMText
 10
119.8796873242
 20
851.5176507605
 30
0.0
 40
10.5
 41
0.0
 71
     2
 72
     1
  1
部品名
  7
SLDTEXTSTYLE3
 73
     1
 44
1.0
  0
MTEXT
  5
249
330
1F
100
AcDbEntity
  8
レイヤー_1
 62
     0
100
AcDbMText
 10
194.9197920151
 20
851.3116062435
 30
0.0
 40
10.5
 41
0.0
 71
     2
 72
     1
  1
個数
  7
SLDTEXTSTYLE3
 73
     1
 44
1.0
  0
MTEXT
  5
24A
330
1F
100
AcDbEntity
  8
レイヤー_1
 62
     0
100
AcDbMText
 10
269.9197920151
 20
851.5176507605
 30
0.0
 40
10.5
 41
0.0
 71
     2
 72
     1
  1
材質
  7
SLDTEXTSTYLE3
 73
     1
 44
1.0
  0
MTEXT
  5
24B
330
1F
100
AcDbEntity
  8
レイヤー_1
 62
     0
100
AcDbMText
 10
194.8979167538
 20
821.3116062435
 30
0.0
 40
10.5
 41
0.0
 71
     2
 72
     1
  1
1
  7
SLDTEXTSTYLE0
 73
     1
 44
1.0
  0
MTEXT
  5
24C
330
1F
100
AcDbEntity
  8
レイヤー_1
 62
     0
100
AcDbMText
 10
119.9197920151
 20
821.5176507605
 30
0.0
 40
10.5
 41
0.0
 71
     2
 72
     1
  1
本体
  7
SLDTEXTSTYLE3
 73
     1
 44
1.0
  0
MTEXT
  5
24D
330
1F
100
AcDbEntity
  8
レイヤー_1
 62
     0
100
AcDbMText
 10
44.8979167538
 20
821.3116062435
 30
0.0
 40
10.5
 41
0.0
 71
     2
 72
     1
  1
1
  7
SLDTEXTSTYLE0
 73
     1
 44
1.0
  0
MTEXT
  5
24E
330
1F
100
AcDbEntity
  8
レイヤー_1
 62
     0
100
AcDbMText
 10
269.7302093022
 20
821.5176507605
 30
0.0
 40
10.5
 41
0.0
 71
     2
 72
     1
  1
ADC12
  7
SLDTEXTSTYLE0
 73
     1
 44
1.0
  0
MTEXT
  5
24F
330
1F
100
AcDbEntity
  8
レイヤー_1
 62
     0
100
AcDbMText
 10
44.8979167538
 20
791.3116062435
 30
0.0
 40
10.5
 41
0.0
 71
     2
 72
     1
  1
2
  7
SLDTEXTSTYLE0
 73
     1
 44
1.0
  0
MTEXT
  5
250
330
1F
100
AcDbEntity
  8
レイヤー_1
 62
     0
100
AcDbMText
 10
194.8979167538
 20
791.3116062435
 30
0.0
 40
10.5
 41
0.0
 71
     2
 72
     1
  1
1
  7
SLDTEXTSTYLE0
 73
     1
 44
1.0
  0
MTEXT
  5
251
330
1F
100
AcDbEntity
  8
レイヤー_1
 62
     0
100
AcDbMText
 10
269.8213546313
 20
791.5176507605
 30
0.0
 40
10.5
 41
0.0
 71
     2
 72
     1
  1
ガラス
  7
SLDTEXTSTYLE3
 73
     1
 44
1.0
  0
MTEXT
  5
252
330
1F
100
AcDbEntity
  8
レイヤー_1
 62
     0
100
AcDbMText
 10
120.0437496901
 20
791.5176507605
 30
0.0
 40
10.5
 41
0.0
 71
     2
 72
     1
  1
カバー
  7
SLDTEXTSTYLE3
 73
     1
 44
1.0
  0
MTEXT
  5
253
330
1F
100
AcDbEntity
  8
レイヤー_1
 62
     0
100
AcDbMText
 10
880.0677845627
 20
206.9666983036
 30
0.0
 40
7.9375
 41
0.0
 71
     2
 72
     1
  1
消費電力 / POWER CONSUMPTION
  7
SLDTEXTSTYLE3
 73
     1
 44
1.0
  0
MTEXT
  5
254
330
1F
100
AcDbEntity
  8
レイヤー_1
 62
     0
100
AcDbMText
 10
269.7302093022
 20
761.5176507605
 30
0.0
 40
10.5
 41
0.0
 71
     2
 72
     1
  1
ADC12
  7
SLDTEXTSTYLE0
 73
     1
 44
1.0
  0
MTEXT
  5
255
330
1F
100
AcDbEntity
  8
レイヤー_1
 62
     0
100
AcDbMText
 10
194.8979167538
 20
761.3116062435
 30
0.0
 40
10.5
 41
0.0
 71
     2
 72
     1
  1
1
  7
SLDTEXTSTYLE0
 73
     1
 44
1.0
  0
MTEXT
  5
256
330
1F
100
AcDbEntity
  8
レイヤー_1
 62
     0
100
AcDbMText
 10
119.9927092865
 20
761.5176507605
 30
0.0
 40
10.5
 41
0.0
 71
     2
 72
     1
  1
フード
  7
SLDTEXTSTYLE3
 73
     1
 44
1.0
  0
MTEXT
  5
257
330
1F
100
AcDbEntity
  8
レイヤー_1
 62
     0
100
AcDbMText
 10
44.8979167538
 20
761.3116062435
 30
0.0
 40
10.5
 41
0.0
 71
     2
 72
     1
  1
3
  7
SLDTEXTSTYLE0
 73
     1
 44
1.0
  0
MTEXT
  5
258
330
1F
100
AcDbEntity
  8
レイヤー_1
 62
     0
100
AcDbMText
 10
119.9161461443
 20
731.5176507605
 30
0.0
 40
10.5
 41
0.0
 71
     2
 72
     1
  1
スパイク
  7
SLDTEXTSTYLE3
 73
     1
 44
1.0
  0
MTEXT
  5
259
330
1F
100
AcDbEntity
  8
レイヤー_1
 62
     0
100
AcDbMText
 10
194.8979167538
 20
731.3116062435
 30
0.0
 40
10.5
 41
0.0
 71
     2
 72
     1
  1
1
  7
SLDTEXTSTYLE0
 73
     1
 44
1.0
  0
MTEXT
  5
25A
330
1F
100
AcDbEntity
  8
レイヤー_1
 62
     0
100
AcDbMText
 10
44.8979167538
 20
731.3116062435
 30
0.0
 40
10.5
 41
0.0
 71
     2
 72
     1
  1
4
  7
SLDTEXTSTYLE0
 73
     1
 44
1.0
  0
MTEXT
  5
25B
330
1F
100
AcDbEntity
  8
レイヤー_1
 62
     0
100
AcDbMText
 10
269.806770891
 20
731.5176507605
 30
0.0
 40
10.5
 41
0.0
 71
     2
 72
     1
  1
ABS樹脂
  7
SLDTEXTSTYLE3
 73
     1
 44
1.0
  0
LINE
  5
25C
330
1F
100
AcDbEntity
  8
0
  6
SLD-実線
 62
     0
370
    35
100
AcDbLine
 10
798.3960614993
 20
513.0341894163
 30
0.0
 11
798.8960615812
 21
513.0341894163
 31
0.0
  0
LINE
  5
25D
330
1F
100
AcDbEntity
  8
0
  6
SLD-実線
 62
     0
370
    35
100
AcDbLine
 10
790.3960611193
 20
514.0341895802
 30
0.0
 11
798.3960614993
 21
513.0341894163
 31
0.0
  0
LINE
  5
25E
330
1F
100
AcDbEntity
  8
0
  6
SLD-実線
 62
     0
370
    35
100
AcDbLine
 10
839.3960617004
 20
440.8993491141
 30
0.0
 11
839.3960617004
 21
444.8993497698
 31
0.0
  0
LINE
  5
25F
330
1F
100
AcDbEntity
  8
0
  6
SLD-実線
 62
     0
370
    35
100
AcDbLine
 10
799.3960607319
 20
444.8993497698
 30
0.0
 11
799.3960607319
 21
440.8993491141
 31
0.0
  0
LINE
  5
260
330
1F
100
AcDbEntity
  8
0
  6
SLD-実線
 62
     0
370
    35
100
AcDbLine
 10
807.3960611119
 20
440.8993491141
 30
0.0
 11
807.3960611119
 21
424.8993464915
 31
0.0
  0
LINE
  5
261
330
1F
100
AcDbEntity
  8
0
  6
SLD-実線
 62
     0
370
    35
100
AcDbLine
 10
831.3960603891
 20
424.8993464915
 30
0.0
 11
831.3960603891
 21
440.8993491141
 31
0.0
  0
LINE
  5
262
330
1F
100
AcDbEntity
  8
0
  6
SLD-実線
 62
     0
370
    35
100
AcDbLine
 10
817.396061354
 20
510.3993483989
 30
0.0
 11
816.896061272
 21
510.8993475495
 31
0.0
  0
LINE
  5
263
330
1F
100
AcDbEntity
  8
0
  6
SLD-実線
 62
     0
370
    35
100
AcDbLine
 10
809.896061056
 20
510.8993475495
 30
0.0
 11
809.396060974
 21
510.3993483989
 31
0.0
  0
LINE
  5
264
330
1F
100
AcDbEntity
  8
0
  6
SLD-実線
 62
     0
370
    35
100
AcDbLine
 10
809.396060974
 20
510.3993483989
 30
0.0
 11
809.396060974
 21
501.3993487863
 31
0.0
  0
LINE
  5
265
330
1F
100
AcDbEntity
  8
0
  6
SLD-実線
 62
     0
370
    35
100
AcDbLine
 10
817.396061354
 20
501.3993487863
 30
0.0
 11
817.396061354
 21
510.3993483989
 31
0.0
  0
LINE
  5
266
330
1F
100
AcDbEntity
  8
0
  6
SLD-実線
 62
     0
370
    35
100
AcDbLine
 10
809.396060974
 20
501.3993487863
 30
0.0
 11
809.896061056
 21
500.899347773
 31
0.0
  0
LINE
  5
267
330
1F
100
AcDbEntity
  8
0
  6
SLD-実線
 62
     0
370
    35
100
AcDbLine
 10
816.896061272
 20
500.899347773
 30
0.0
 11
817.396061354
 21
501.3993487863
 31
0.0
  0
LINE
  5
268
330
1F
100
AcDbEntity
  8
0
  6
SLD-実線
 62
     0
370
    35
100
AcDbLine
 10
815.1777190842
 20
510.8993475495
 30
0.0
 11
815.1777190842
 21
511.8993477134
 31
0.0
  0
LINE
  5
269
330
1F
100
AcDbEntity
  8
0
  6
SLD-実線
 62
     0
370
    35
100
AcDbLine
 10
815.1777190842
 20
514.9206056429
 30
0.0
 11
815.1777190842
 21
516.9400650246
 31
0.0
  0
LINE
  5
26A
330
1F
100
AcDbEntity
  8
0
  6
SLD-実線
 62
     0
370
    35
100
AcDbLine
 10
811.6144032438
 20
516.9400650246
 30
0.0
 11
811.6144032438
 21
514.9206056429
 31
0.0
  0
LINE
  5
26B
330
1F
100
AcDbEntity
  8
0
  6
SLD-実線
 62
     0
370
    35
100
AcDbLine
 10
811.6144032438
 20
511.8993477134
 30
0.0
 11
811.6144032438
 21
510.8993475495
 31
0.0
  0
LINE
  5
26C
330
1F
100
AcDbEntity
  8
0
  6
SLD-実線
 62
     0
370
    35
100
AcDbLine
 10
799.3960607319
 20
508.8993472217
 30
0.0
 11
809.396060974
 21
508.8993472217
 31
0.0
  0
LINE
  5
26D
330
1F
100
AcDbEntity
  8
0
  6
SLD-実線
 62
     0
370
    35
100
AcDbLine
 10
798.8960615812
 20
509.8993483169
 30
0.0
 11
799.3960607319
 21
508.8993472217
 31
0.0
  0
LINE
  5
26E
330
1F
100
AcDbEntity
  8
0
  6
SLD-実線
 62
     0
370
    35
100
AcDbLine
 10
829.3939403711
 20
508.8993472217
 30
0.0
 11
831.3960603891
 21
508.8993472217
 31
0.0
  0
LINE
  5
26F
330
1F
100
AcDbEntity
  8
0
  6
SLD-実線
 62
     0
370
    35
100
AcDbLine
 10
831.3960603891
 20
508.8993472217
 30
0.0
 11
832.3960605531
 21
510.8993475495
 31
0.0
  0
LINE
  5
270
330
1F
100
AcDbEntity
  8
0
  6
SLD-実線
 62
     0
370
    35
100
AcDbLine
 10
829.396061924
 20
444.8993497698
 30
0.0
 11
829.396061924
 21
508.900673425
 31
0.0
  0
LINE
  5
271
330
1F
100
AcDbEntity
  8
0
  6
SLD-実線
 62
     0
370
    35
100
AcDbLine
 10
809.396060974
 20
501.3993487863
 30
0.0
 11
809.396060974
 21
444.8993497698
 31
0.0
  0
LINE
  5
272
330
1F
100
AcDbEntity
  8
0
  6
SLD-実線
 62
     0
370
    35
100
AcDbLine
 10
798.3960614993
 20
513.2867408155
 30
0.0
 11
798.3960614993
 21
513.0341894163
 31
0.0
  0
LINE
  5
273
330
1F
100
AcDbEntity
  8
0
  6
SLD-実線
 62
     0
370
    35
100
AcDbLine
 10
798.3960614993
 20
513.2867408155
 30
0.0
 11
798.3960614993
 21
515.6004646031
 31
0.0
  0
LINE
  5
274
330
1F
100
AcDbEntity
  8
0
  6
SLD-実線
 62
     0
370
    35
100
AcDbLine
 10
798.3960614993
 20
517.7417800931
 30
0.0
 11
798.3960614993
 21
519.8993480934
 31
0.0
  0
LINE
  5
275
330
1F
100
AcDbEntity
  8
0
  6
SLD-実線
 62
     0
370
    35
100
AcDbLine
 10
790.3960611193
 20
514.3092175184
 30
0.0
 11
790.3960611193
 21
514.0341895802
 31
0.0
  0
SPLINE
  5
276
330
1F
100
AcDbEntity
  8
0
  6
SLD-実線
 62
     0
370
    35
100
AcDbSpline
210
0.0
220
0.0
230
1.0
 70
     8
 71
     3
 72
     9
 73
     5
 74
     0
 42
0.000000001
 43
0.00000001
 40
0.0
 40
0.0
 40
0.0
 40
0.0
 40
0.4593912649565837
 40
1.0
 40
1.0
 40
1.0
 40
1.0
 10
790.3960611193014
 20
514.3092175183909
 30
0.0
 10
791.6210757517886
 20
514.1524199203697
 30
0.0
 10
794.287679855815
 20
513.8111039007103
 30
0.0
 10
796.954406033601
 20
513.4707429295431
 30
0.0
 10
798.3960614992809
 20
513.2867408154624
 30
0.0
  0
LINE
  5
277
330
1F
100
AcDbEntity
  8
0
  6
SLD-実線
 62
     0
370
    35
100
AcDbLine
 10
790.3960611193
 20
524.403316498
 30
0.0
 11
790.3960611193
 21
521.9582224434
 31
0.0
  0
LINE
  5
278
330
1F
100
AcDbEntity
  8
0
  6
SLD-実線
 62
     0
370
    35
100
AcDbLine
 10
790.3960611193
 20
519.5675439371
 30
0.0
 11
790.3960611193
 21
514.3092175184
 31
0.0
  0
LINE
  5
279
330
1F
100
AcDbEntity
  8
0
  6
SLD-実線
 62
     0
370
    35
100
AcDbLine
 10
799.3960607319
 20
444.8993497698
 30
0.0
 11
839.3960617004
 21
444.8993497698
 31
0.0
  0
LINE
  5
27A
330
1F
100
AcDbEntity
  8
0
  6
SLD-実線
 62
     0
370
    35
100
AcDbLine
 10
799.3960607319
 20
440.8993491141
 30
0.0
 11
839.3960617004
 21
440.8993491141
 31
0.0
  0
LINE
  5
27B
330
1F
100
AcDbEntity
  8
0
  6
SLD-実線
 62
     0
370
    35
100
AcDbLine
 10
820.8960609964
 20
344.8993408291
 30
0.0
 11
817.8960609703
 21
344.8993408291
 31
0.0
  0
LINE
  5
27C
330
1F
100
AcDbEntity
  8
0
  6
SLD-実線
 62
     0
370
    35
100
AcDbLine
 10
820.8960609964
 20
440.8993491141
 30
0.0
 11
820.8960609964
 21
344.8993408291
 31
0.0
  0
LINE
  5
27D
330
1F
100
AcDbEntity
  8
0
  6
SLD-実線
 62
     0
370
    35
100
AcDbLine
 10
817.8960609703
 20
440.8993491141
 30
0.0
 11
817.8960609703
 21
344.8993408291
 31
0.0
  0
LINE
  5
27E
330
1F
100
AcDbEntity
  8
0
  6
SLD-実線
 62
     0
370
    35
100
AcDbLine
 10
817.8960609703
 20
384.5245235769
 30
0.0
 11
807.8960611938
 21
384.5245235769
 31
0.0
  0
LINE
  5
27F
330
1F
100
AcDbEntity
  8
0
  6
SLD-実線
 62
     0
370
    35
100
AcDbLine
 10
807.8960611938
 20
440.8993491141
 30
0.0
 11
807.8960611938
 21
384.5245235769
 31
0.0
  0
LINE
  5
280
330
1F
100
AcDbEntity
  8
0
  6
SLD-実線
 62
     0
370
    35
100
AcDbLine
 10
830.8960612385
 20
440.8993491141
 30
0.0
 11
830.8960612385
 21
384.5245235769
 31
0.0
  0
LINE
  5
281
330
1F
100
AcDbEntity
  8
0
  6
SLD-実線
 62
     0
370
    35
100
AcDbLine
 10
830.8960612385
 20
384.5245235769
 30
0.0
 11
820.8960609964
 21
384.5245235769
 31
0.0
  0
LINE
  5
282
330
1F
100
AcDbEntity
  8
0
  6
SLD-実線
 62
     0
370
    35
100
AcDbLine
 10
820.8960609964
 20
294.8993438093
 30
0.0
 11
817.8960609703
 21
294.8993438093
 31
0.0
  0
LINE
  5
283
330
1F
100
AcDbEntity
  8
0
  6
SLD-実線
 62
     0
370
    35
100
AcDbLine
 10
820.8960609964
 20
344.8993408291
 30
0.0
 11
820.8960609964
 21
294.8993438093
 31
0.0
  0
LINE
  5
284
330
1F
100
AcDbEntity
  8
0
  6
SLD-実線
 62
     0
370
    35
100
AcDbLine
 10
817.8960609703
 20
344.8993408291
 30
0.0
 11
817.8960609703
 21
294.8993438093
 31
0.0
  0
LINE
  5
285
330
1F
100
AcDbEntity
  8
0
  6
SLD-実線
 62
     0
370
    35
100
AcDbLine
 10
830.8960612385
 20
424.8993464915
 30
0.0
 11
831.3960603891
 21
424.8993464915
 31
0.0
  0
LINE
  5
286
330
1F
100
AcDbEntity
  8
0
  6
SLD-実線
 62
     0
370
    35
100
AcDbLine
 10
807.3960611119
 20
424.8993464915
 30
0.0
 11
807.8960611938
 21
424.8993464915
 31
0.0
  0
LINE
  5
287
330
1F
100
AcDbEntity
  8
0
  6
SLD-実線
 62
     0
370
    35
100
AcDbLine
 10
830.8960612385
 20
376.6567104666
 30
0.0
 11
820.8960609964
 21
376.6567104666
 31
0.0
  0
LINE
  5
288
330
1F
100
AcDbEntity
  8
0
  6
SLD-実線
 62
     0
370
    35
100
AcDbLine
 10
830.8960612385
 20
384.5245235769
 30
0.0
 11
830.8960612385
 21
376.6567104666
 31
0.0
  0
LINE
  5
289
330
1F
100
AcDbEntity
  8
0
  6
SLD-実線
 62
     0
370
    35
100
AcDbLine
 10
817.8960609703
 20
376.6567104666
 30
0.0
 11
807.8960611938
 21
376.6567104666
 31
0.0
  0
LINE
  5
28A
330
1F
100
AcDbEntity
  8
0
  6
SLD-実線
 62
     0
370
    35
100
AcDbLine
 10
807.8960611938
 20
384.5245235769
 30
0.0
 11
807.8960611938
 21
376.6567104666
 31
0.0
  0
LINE
  5
28B
330
1F
100
AcDbEntity
  8
0
  6
SLD-実線
 62
     0
370
    35
100
AcDbLine
 10
830.8960612385
 20
344.8993408291
 30
0.0
 11
820.8960609964
 21
294.8993438093
 31
0.0
  0
LINE
  5
28C
330
1F
100
AcDbEntity
  8
0
  6
SLD-実線
 62
     0
370
    35
100
AcDbLine
 10
830.8960612385
 20
376.6567104666
 30
0.0
 11
830.8960612385
 21
344.8993408291
 31
0.0
  0
LINE
  5
28D
330
1F
100
AcDbEntity
  8
0
  6
SLD-実線
 62
     0
370
    35
100
AcDbLine
 10
807.8960611938
 20
344.8993408291
 30
0.0
 11
817.8960609703
 21
294.8993438093
 31
0.0
  0
LINE
  5
28E
330
1F
100
AcDbEntity
  8
0
  6
SLD-実線
 62
     0
370
    35
100
AcDbLine
 10
807.8960611938
 20
376.6567104666
 30
0.0
 11
807.8960611938
 21
344.8993408291
 31
0.0
  0
LINE
  5
28F
330
1F
100
AcDbEntity
  8
0
  6
SLD-実線
 62
     0
370
    35
100
AcDbLine
 10
817.396061354
 20
510.3993483989
 30
0.0
 11
809.396060974
 21
510.3993483989
 31
0.0
  0
LINE
  5
290
330
1F
100
AcDbEntity
  8
0
  6
SLD-実線
 62
     0
370
    35
100
AcDbLine
 10
809.896061056
 20
510.8993475495
 30
0.0
 11
816.896061272
 21
510.8993475495
 31
0.0
  0
LINE
  5
291
330
1F
100
AcDbEntity
  8
0
  6
SLD-実線
 62
     0
370
    35
100
AcDbLine
 10
814.6460611361
 20
501.3993487863
 30
0.0
 11
817.396061354
 21
501.3993487863
 31
0.0
  0
LINE
  5
292
330
1F
100
AcDbEntity
  8
0
  6
SLD-実線
 62
     0
370
    35
100
AcDbLine
 10
814.6460611361
 20
504.8993484287
 30
0.0
 11
814.6460611361
 21
501.3993487863
 31
0.0
  0
LINE
  5
293
330
1F
100
AcDbEntity
  8
0
  6
SLD-実線
 62
     0
370
    35
100
AcDbLine
 10
812.1460611919
 20
501.3993487863
 30
0.0
 11
812.1460611919
 21
504.8993484287
 31
0.0
  0
LINE
  5
294
330
1F
100
AcDbEntity
  8
0
  6
SLD-実線
 62
     0
370
    35
100
AcDbLine
 10
809.396060974
 20
501.3993487863
 30
0.0
 11
812.1460611919
 21
501.3993487863
 31
0.0
  0
LINE
  5
295
330
1F
100
AcDbEntity
  8
0
  6
SLD-実線
 62
     0
370
    35
100
AcDbLine
 10
814.6460611361
 20
504.8993484287
 30
0.0
 11
812.1460611919
 21
504.8993484287
 31
0.0
  0
LINE
  5
296
330
1F
100
AcDbEntity
  8
0
  6
SLD-実線
 62
     0
370
    35
100
AcDbLine
 10
812.1460611919
 20
500.899347773
 30
0.0
 11
809.896061056
 21
500.899347773
 31
0.0
  0
LINE
  5
297
330
1F
100
AcDbEntity
  8
0
  6
SLD-実線
 62
     0
370
    35
100
AcDbLine
 10
812.1460611919
 20
501.3993487863
 30
0.0
 11
812.1460611919
 21
500.899347773
 31
0.0
  0
LINE
  5
298
330
1F
100
AcDbEntity
  8
0
  6
SLD-実線
 62
     0
370
    35
100
AcDbLine
 10
816.896061272
 20
500.899347773
 30
0.0
 11
814.6460611361
 21
500.899347773
 31
0.0
  0
LINE
  5
299
330
1F
100
AcDbEntity
  8
0
  6
SLD-実線
 62
     0
370
    35
100
AcDbLine
 10
814.6460611361
 20
500.899347773
 30
0.0
 11
814.6460611361
 21
501.3993487863
 31
0.0
  0
ELLIPSE
  5
29A
330
1F
100
AcDbEntity
  8
0
  6
SLD-実線
 62
     0
370
    35
100
AcDbEllipse
 10
813.396061164
 20
556.2864053968
 30
0.0
 11
0.0
 21
41.70417740505445
 31
0.0
210
0.0
220
0.0
230
1.0
 40
0.9999569304000001
 41
0.0
 42
6.283185307179586
  0
CIRCLE
  5
29B
330
1F
100
AcDbEntity
  8
0
  6
SLD-実線
 62
     0
370
    35
100
AcDbCircle
 10
813.396061164
 20
555.8993479816
 30
0.0
 40
43.0
  0
ARC
  5
29C
330
1F
100
AcDbEntity
  8
0
  6
SLD-実線
 62
     0
370
    35
100
AcDbCircle
 10
813.396061164
 20
555.8993479816
 30
0.0
 40
41.00000000000004
100
AcDbArc
 50
70.4779643416
 51
109.5220356584
  0
ARC
  5
29D
330
1F
100
AcDbEntity
  8
0
  6
SLD-実線
 62
     0
370
    35
100
AcDbCircle
 10
813.396061164
 20
555.8993479816
 30
0.0
 40
41.04363500382956
100
AcDbArc
 50
109.5225438117
 51
129.1026495868
  0
ARC
  5
29E
330
1F
100
AcDbEntity
  8
0
  6
SLD-実線
 62
     0
370
    35
100
AcDbCircle
 10
813.396061164
 20
555.8993479816
 30
0.0
 40
41.00000000000004
100
AcDbArc
 50
129.1016944869
 51
267.5094235537
  0
ARC
  5
29F
330
1F
100
AcDbEntity
  8
0
  6
SLD-実線
 62
     0
370
    35
100
AcDbCircle
 10
813.396061164
 20
555.8993479816
 30
0.0
 40
41.00000000000009
100
AcDbArc
 50
272.4905764463
 51
50.8983055131
  0
ARC
  5
2A0
330
1F
100
AcDbEntity
  8
0
  6
SLD-実線
 62
     0
370
    35
100
AcDbCircle
 10
813.396061164
 20
555.8993479816
 30
0.0
 40
41.04363500382967
100
AcDbArc
 50
50.8973504132
 51
70.4774561883
  0
LINE
  5
2A1
330
1F
100
AcDbEntity
  8
0
  6
SLD-実線
 62
     0
370
    35
100
AcDbLine
 10
809.396060974
 20
511.8993477134
 30
0.0
 11
817.396061354
 21
511.8993477134
 31
0.0
  0
LINE
  5
2A2
330
1F
100
AcDbEntity
  8
0
  6
SLD-実線
 62
     0
370
    35
100
AcDbLine
 10
809.396060974
 20
513.0857986568
 30
0.0
 11
809.396060974
 21
511.8993477134
 31
0.0
  0
LINE
  5
2A3
330
1F
100
AcDbEntity
  8
0
  6
SLD-実線
 62
     0
370
    35
100
AcDbLine
 10
817.396061354
 20
513.0857986568
 30
0.0
 11
817.396061354
 21
511.8993477134
 31
0.0
  0
ARC
  5
2A4
330
1F
100
AcDbEntity
  8
0
  6
SLD-実線
 62
     0
370
    35
100
AcDbCircle
 10
813.396061164
 20
555.8993479816
 30
0.0
 40
40.00826240632141
100
AcDbArc
 50
109.5101874404
 51
129.0794251097
  0
LINE
  5
2A5
330
1F
100
AcDbEntity
  8
0
  6
SLD-実線
 62
     0
370
    35
100
AcDbLine
 10
799.6801923482
 20
594.5833840577
 30
0.0
 11
800.0343231006
 21
593.6104201881
 31
0.0
  0
LINE
  5
2A6
330
1F
100
AcDbEntity
  8
0
  6
SLD-実線
 62
     0
370
    35
100
AcDbLine
 10
788.1749685376
 20
586.9566754608
 30
0.0
 11
787.5093597441
 21
587.7499126999
 31
0.0
  0
ARC
  5
2A7
330
1F
100
AcDbEntity
  8
0
  6
SLD-実線
 62
     0
370
    35
100
AcDbCircle
 10
813.396061164
 20
555.8993479816
 30
0.0
 40
40.00826240632157
100
AcDbArc
 50
50.92057489030001
 51
70.4898125596
  0
LINE
  5
2A8
330
1F
100
AcDbEntity
  8
0
  6
SLD-実線
 62
     0
370
    35
100
AcDbLine
 10
826.7577992274
 20
593.6104201881
 30
0.0
 11
827.1119299798
 21
594.5833840577
 31
0.0
  0
LINE
  5
2A9
330
1F
100
AcDbEntity
  8
0
  6
SLD-実線
 62
     0
370
    35
100
AcDbLine
 10
839.282762584
 20
587.7499126999
 30
0.0
 11
838.6171537905
 21
586.9566754608
 31
0.0
  0
LINE
  5
2AA
330
1F
100
AcDbEntity
  8
0
  6
SLD-実線
 62
     0
370
    35
100
AcDbLine
 10
826.4129397912
 20
592.6629298536
 30
0.0
 11
826.7577992274
 21
593.6104201881
 31
0.0
  0
LINE
  5
2AB
330
1F
100
AcDbEntity
  8
0
  6
SLD-実線
 62
     0
370
    35
100
AcDbLine
 10
838.6171537905
 20
586.9566754608
 30
0.0
 11
837.9689681797
 21
586.1841992645
 31
0.0
  0
LINE
  5
2AC
330
1F
100
AcDbEntity
  8
0
  6
SLD-実線
 62
     0
370
    35
100
AcDbLine
 10
800.0343231006
 20
593.6104201881
 30
0.0
 11
800.3791825368
 21
592.6629298536
 31
0.0
  0
LINE
  5
2AD
330
1F
100
AcDbEntity
  8
0
  6
SLD-実線
 62
     0
370
    35
100
AcDbLine
 10
788.8231541483
 20
586.1841992645
 30
0.0
 11
788.1749685376
 21
586.9566754608
 31
0.0
  0
CIRCLE
  5
2AE
330
1F
100
AcDbEntity
  8
0
  6
SLD-実線
 62
     0
370
    35
100
AcDbCircle
 10
813.396061164
 20
555.8993479816
 30
0.0
 40
38.0
  0
CIRCLE
  5
2AF
330
1F
100
AcDbEntity
  8
0
  6
SLD-実線
 62
     0
370
    35
100
AcDbCircle
 10
813.396061164
 20
555.8993479816
 30
0.0
 40
39.0
  0
CIRCLE
  5
2B0
330
1F
100
AcDbEntity
  8
0
  6
SLD-実線
 62
     0
370
    35
100
AcDbCircle
 10
813.396061164
 20
555.8993479816
 30
0.0
 40
36.0
  0
CIRCLE
  5
2B1
330
1F
100
AcDbEntity
  8
0
  6
SLD-実線
 62
     0
370
    35
100
AcDbCircle
 10
813.396061164
 20
555.8993479816
 30
0.0
 40
27.49999999999989
  0
CIRCLE
  5
2B2
330
1F
100
AcDbEntity
  8
0
  6
SLD-実線
 62
     0
370
    35
100
AcDbCircle
 10
813.396061164
 20
555.8993479816
 30
0.0
 40
35.74999999999989
  0
LINE
  5
2B3
330
1F
100
AcDbEntity
  8
0
  6
SLD-実線
 62
     0
370
    35
100
AcDbLine
 10
799.3960607319
 20
508.9071628807
 30
0.0
 11
799.3960607319
 21
508.8993472217
 31
0.0
  0
LINE
  5
2B4
330
1F
100
AcDbEntity
  8
0
  6
SLD-実線
 62
     0
370
    35
100
AcDbLine
 10
800.3960608958
 20
508.9071628807
 30
0.0
 11
799.3960607319
 21
508.9071628807
 31
0.0
  0
LINE
  5
2B5
330
1F
100
AcDbEntity
  8
0
  6
SLD-実線
 62
     0
370
    35
100
AcDbLine
 10
800.3960608958
 20
509.0632953851
 30
0.0
 11
800.3960608958
 21
508.9071628807
 31
0.0
  0
LINE
  5
2B6
330
1F
100
AcDbEntity
  8
0
  6
SLD-実線
 62
     0
370
    35
100
AcDbLine
 10
800.3960608958
 20
509.0632953851
 30
0.0
 11
799.6960611536
 21
509.0632953851
 31
0.0
  0
LINE
  5
2B7
330
1F
100
AcDbEntity
  8
0
  6
SLD-実線
 62
     0
370
    35
100
AcDbLine
 10
799.6960611536
 20
509.2369442044
 30
0.0
 11
799.6960611536
 21
509.0632953851
 31
0.0
  0
LINE
  5
2B8
330
1F
100
AcDbEntity
  8
0
  6
SLD-実線
 62
     0
370
    35
100
AcDbLine
 10
800.3960608958
 20
509.2369442044
 30
0.0
 11
799.6960611536
 21
509.2369442044
 31
0.0
  0
LINE
  5
2B9
330
1F
100
AcDbEntity
  8
0
  6
SLD-実線
 62
     0
370
    35
100
AcDbLine
 10
800.3960608958
 20
509.7005994229
 30
0.0
 11
800.3960608958
 21
509.2369442044
 31
0.0
  0
LINE
  5
2BA
330
1F
100
AcDbEntity
  8
0
  6
SLD-実線
 62
     0
370
    35
100
AcDbLine
 10
800.3960608958
 20
509.7005994229
 30
0.0
 11
799.6960611536
 21
509.7005994229
 31
0.0
  0
LINE
  5
2BB
330
1F
100
AcDbEntity
  8
0
  6
SLD-実線
 62
     0
370
    35
100
AcDbLine
 10
799.6960611536
 20
510.0426192565
 30
0.0
 11
799.6960611536
 21
509.7005994229
 31
0.0
  0
LINE
  5
2BC
330
1F
100
AcDbEntity
  8
0
  6
SLD-実線
 62
     0
370
    35
100
AcDbLine
 10
800.3960608958
 20
510.0426192565
 30
0.0
 11
799.6960611536
 21
510.0426192565
 31
0.0
  0
LINE
  5
2BD
330
1F
100
AcDbEntity
  8
0
  6
SLD-実線
 62
     0
370
    35
100
AcDbLine
 10
800.3960608958
 20
510.7997090725
 30
0.0
 11
800.3960608958
 21
510.0426192565
 31
0.0
  0
LINE
  5
2BE
330
1F
100
AcDbEntity
  8
0
  6
SLD-実線
 62
     0
370
    35
100
AcDbLine
 10
800.3960608958
 20
510.7997090725
 30
0.0
 11
799.3960607319
 21
510.7997090725
 31
0.0
  0
LINE
  5
2BF
330
1F
100
AcDbEntity
  8
0
  6
SLD-実線
 62
     0
370
    35
100
AcDbLine
 10
799.3960607319
 20
511.2997091545
 30
0.0
 11
799.3960607319
 21
510.7997090725
 31
0.0
  0
LINE
  5
2C0
330
1F
100
AcDbEntity
  8
0
  6
SLD-実線
 62
     0
370
    35
100
AcDbLine
 10
800.3960608958
 20
511.2997091545
 30
0.0
 11
799.3960607319
 21
511.2997091545
 31
0.0
  0
LINE
  5
2C1
330
1F
100
AcDbEntity
  8
0
  6
SLD-実線
 62
     0
370
    35
100
AcDbLine
 10
800.3960608958
 20
512.3272289692
 30
0.0
 11
800.3960608958
 21
511.2997091545
 31
0.0
  0
LINE
  5
2C2
330
1F
100
AcDbEntity
  8
0
  6
SLD-実線
 62
     0
370
    35
100
AcDbLine
 10
800.3960608958
 20
512.3272289692
 30
0.0
 11
799.6960611536
 21
512.3272289692
 31
0.0
  0
LINE
  5
2C3
330
1F
100
AcDbEntity
  8
0
  6
SLD-実線
 62
     0
370
    35
100
AcDbLine
 10
799.6960611536
 20
512.9700166343
 30
0.0
 11
799.6960611536
 21
512.3272289692
 31
0.0
  0
LINE
  5
2C4
330
1F
100
AcDbEntity
  8
0
  6
SLD-実線
 62
     0
370
    35
100
AcDbLine
 10
800.3960608958
 20
512.9700166343
 30
0.0
 11
799.6960611536
 21
512.9700166343
 31
0.0
  0
LINE
  5
2C5
330
1F
100
AcDbEntity
  8
0
  6
SLD-実線
 62
     0
370
    35
100
AcDbLine
 10
800.3960608958
 20
514.2367466522
 30
0.0
 11
800.3960608958
 21
512.9700166343
 31
0.0
  0
LINE
  5
2C6
330
1F
100
AcDbEntity
  8
0
  6
SLD-実線
 62
     0
370
    35
100
AcDbLine
 10
800.3960608958
 20
514.2367466522
 30
0.0
 11
799.6960611536
 21
514.2367466522
 31
0.0
  0
LINE
  5
2C7
330
1F
100
AcDbEntity
  8
0
  6
SLD-実線
 62
     0
370
    35
100
AcDbLine
 10
800.3960608958
 20
517.3362678086
 30
0.0
 11
799.4716636358
 21
517.3362678086
 31
0.0
  0
LINE
  5
2C8
330
1F
100
AcDbEntity
  8
0
  6
SLD-実線
 62
     0
370
    35
100
AcDbLine
 10
800.3960608958
 20
518.9598522319
 30
0.0
 11
800.3960608958
 21
517.3362678086
 31
0.0
  0
LINE
  5
2C9
330
1F
100
AcDbEntity
  8
0
  6
SLD-実線
 62
     0
370
    35
100
AcDbLine
 10
800.3960608958
 20
518.9598522319
 30
0.0
 11
799.6960611536
 21
518.9598522319
 31
0.0
  0
LINE
  5
2CA
330
1F
100
AcDbEntity
  8
0
  6
SLD-実線
 62
     0
370
    35
100
AcDbLine
 10
799.6960611536
 20
519.3848300895
 30
0.0
 11
799.6960611536
 21
518.9598522319
 31
0.0
  0
LINE
  5
2CB
330
1F
100
AcDbEntity
  8
0
  6
SLD-実線
 62
     0
370
    35
100
AcDbLine
 10
799.6960611536
 20
518.9598522319
 30
0.0
 11
799.3960607319
 21
519.165168347
 31
0.0
  0
LINE
  5
2CC
330
1F
100
AcDbEntity
  8
0
  6
SLD-実線
 62
     0
370
    35
100
AcDbLine
 10
799.3960607319
 20
519.165168347
 30
0.0
 11
799.3960607319
 21
519.4987983612
 31
0.0
  0
LINE
  5
2CD
330
1F
100
AcDbEntity
  8
0
  6
SLD-実線
 62
     0
370
    35
100
AcDbLine
 10
800.3960608958
 20
517.3362678086
 30
0.0
 11
799.3960607319
 21
518.3368263004
 31
0.0
  0
LINE
  5
2CE
330
1F
100
AcDbEntity
  8
0
  6
SLD-実線
 62
     0
370
    35
100
AcDbLine
 10
799.3960607319
 20
518.3368263004
 30
0.0
 11
799.3960607319
 21
519.1579426808
 31
0.0
  0
LINE
  5
2CF
330
1F
100
AcDbEntity
  8
0
  6
SLD-実線
 62
     0
370
    35
100
AcDbLine
 10
799.3960607319
 20
518.8371700404
 30
0.0
 11
798.8960615812
 21
518.8371700404
 31
0.0
  0
LINE
  5
2D0
330
1F
100
AcDbEntity
  8
0
  6
SLD-実線
 62
     0
370
    35
100
AcDbLine
 10
798.8960615812
 20
517.8365286609
 30
0.0
 11
799.2514542757
 21
517.4809501676
 31
0.0
  0
LINE
  5
2D1
330
1F
100
AcDbEntity
  8
0
  6
SLD-実線
 62
     0
370
    35
100
AcDbLine
 10
798.8960615812
 20
517.8365286609
 30
0.0
 11
798.8960615812
 21
518.8371700404
 31
0.0
  0
LINE
  5
2D2
330
1F
100
AcDbEntity
  8
0
  6
SLD-実線
 62
     0
370
    35
100
AcDbLine
 10
798.8960615812
 20
517.5489893353
 30
0.0
 11
798.8960615812
 21
517.8365286609
 31
0.0
  0
LINE
  5
2D3
330
1F
100
AcDbEntity
  8
0
  6
SLD-実線
 62
     0
370
    35
100
AcDbLine
 10
799.3960607319
 20
513.8993480412
 30
0.0
 11
798.8960615812
 21
513.8993480412
 31
0.0
  0
LINE
  5
2D4
330
1F
100
AcDbEntity
  8
0
  6
SLD-実線
 62
     0
370
    35
100
AcDbLine
 10
799.3960607319
 20
514.6226150153
 30
0.0
 11
799.3960607319
 21
515.2422453446
 31
0.0
  0
LINE
  5
2D5
330
1F
100
AcDbEntity
  8
0
  6
SLD-実線
 62
     0
370
    35
100
AcDbLine
 10
799.6960611536
 20
514.2367466522
 30
0.0
 11
799.3960607319
 21
514.6226150153
 31
0.0
  0
LINE
  5
2D6
330
1F
100
AcDbEntity
  8
0
  6
SLD-実線
 62
     0
370
    35
100
AcDbLine
 10
800.3960608958
 20
512.9700166343
 30
0.0
 11
799.3960607319
 21
514.5029614849
 31
0.0
  0
LINE
  5
2D7
330
1F
100
AcDbEntity
  8
0
  6
SLD-実線
 62
     0
370
    35
100
AcDbLine
 10
799.3960607319
 20
514.5029614849
 30
0.0
 11
799.3960607319
 21
514.6170987917
 31
0.0
  0
LINE
  5
2D8
330
1F
100
AcDbEntity
  8
0
  6
SLD-実線
 62
     0
370
    35
100
AcDbLine
 10
799.3960607319
 20
513.4298767133
 30
0.0
 11
799.6960611536
 21
512.9700166343
 31
0.0
  0
LINE
  5
2D9
330
1F
100
AcDbEntity
  8
0
  6
SLD-実線
 62
     0
370
    35
100
AcDbLine
 10
799.6960611536
 20
512.3272289692
 30
0.0
 11
799.3960607319
 21
512.7870890481
 31
0.0
  0
LINE
  5
2DA
330
1F
100
AcDbEntity
  8
0
  6
SLD-実線
 62
     0
370
    35
100
AcDbLine
 10
799.3960607319
 20
512.7870890481
 30
0.0
 11
799.3960607319
 21
513.4298767133
 31
0.0
  0
LINE
  5
2DB
330
1F
100
AcDbEntity
  8
0
  6
SLD-実線
 62
     0
370
    35
100
AcDbLine
 10
799.3960607319
 20
513.4298767133
 30
0.0
 11
799.3960607319
 21
514.5029614849
 31
0.0
  0
LINE
  5
2DC
330
1F
100
AcDbEntity
  8
0
  6
SLD-実線
 62
     0
370
    35
100
AcDbLine
 10
800.3960608958
 20
511.2997091545
 30
0.0
 11
799.8031530051
 21
512.3272289692
 31
0.0
  0
LINE
  5
2DD
330
1F
100
AcDbEntity
  8
0
  6
SLD-実線
 62
     0
370
    35
100
AcDbLine
 10
798.8960615812
 20
511.6661855189
 30
0.0
 11
798.8960615812
 21
512.1661856009
 31
0.0
  0
LINE
  5
2DE
330
1F
100
AcDbEntity
  8
0
  6
SLD-実線
 62
     0
370
    35
100
AcDbLine
 10
798.8960615812
 20
512.1661856009
 30
0.0
 11
799.3960607319
 21
511.2997091545
 31
0.0
  0
LINE
  5
2DF
330
1F
100
AcDbEntity
  8
0
  6
SLD-実線
 62
     0
370
    35
100
AcDbLine
 10
799.3960607319
 20
510.7997090725
 30
0.0
 11
798.8960615812
 21
511.6661855189
 31
0.0
  0
LINE
  5
2E0
330
1F
100
AcDbEntity
  8
0
  6
SLD-実線
 62
     0
370
    35
100
AcDbLine
 10
798.8960615812
 20
512.1661856009
 30
0.0
 11
798.8960615812
 21
513.8993480412
 31
0.0
  0
LINE
  5
2E1
330
1F
100
AcDbEntity
  8
0
  6
SLD-実線
 62
     0
370
    35
100
AcDbLine
 10
800.3960608958
 20
510.0426192565
 30
0.0
 11
799.9934473528
 21
510.7997090725
 31
0.0
  0
LINE
  5
2E2
330
1F
100
AcDbEntity
  8
0
  6
SLD-実線
 62
     0
370
    35
100
AcDbLine
 10
799.3960607319
 20
510.6067213399
 30
0.0
 11
799.6960611536
 21
510.0426192565
 31
0.0
  0
LINE
  5
2E3
330
1F
100
AcDbEntity
  8
0
  6
SLD-実線
 62
     0
370
    35
100
AcDbLine
 10
799.6960611536
 20
509.7005994229
 30
0.0
 11
799.3960607319
 21
510.264700575
 31
0.0
  0
LINE
  5
2E4
330
1F
100
AcDbEntity
  8
0
  6
SLD-実線
 62
     0
370
    35
100
AcDbLine
 10
799.3960607319
 20
510.264700575
 30
0.0
 11
799.3960607319
 21
510.6067213399
 31
0.0
  0
LINE
  5
2E5
330
1F
100
AcDbEntity
  8
0
  6
SLD-実線
 62
     0
370
    35
100
AcDbLine
 10
799.3960607319
 20
510.6067213399
 30
0.0
 11
799.3960607319
 21
510.7997090725
 31
0.0
  0
LINE
  5
2E6
330
1F
100
AcDbEntity
  8
0
  6
SLD-実線
 62
     0
370
    35
100
AcDbLine
 10
800.3960608958
 20
509.2369442044
 30
0.0
 11
800.1607883243
 21
509.7005994229
 31
0.0
  0
LINE
  5
2E7
330
1F
100
AcDbEntity
  8
0
  6
SLD-実線
 62
     0
370
    35
100
AcDbLine
 10
799.3960607319
 20
509.828128217
 30
0.0
 11
799.6960611536
 21
509.2369442044
 31
0.0
  0
LINE
  5
2E8
330
1F
100
AcDbEntity
  8
0
  6
SLD-実線
 62
     0
370
    35
100
AcDbLine
 10
799.6960611536
 20
509.0632953851
 30
0.0
 11
799.3960607319
 21
509.654480329
 31
0.0
  0
LINE
  5
2E9
330
1F
100
AcDbEntity
  8
0
  6
SLD-実線
 62
     0
370
    35
100
AcDbLine
 10
799.3960607319
 20
509.654480329
 30
0.0
 11
799.3960607319
 21
509.828128217
 31
0.0
  0
LINE
  5
2EA
330
1F
100
AcDbEntity
  8
0
  6
SLD-実線
 62
     0
370
    35
100
AcDbLine
 10
799.3960607319
 20
509.828128217
 30
0.0
 11
799.3960607319
 21
510.264700575
 31
0.0
  0
LINE
  5
2EB
330
1F
100
AcDbEntity
  8
0
  6
SLD-実線
 62
     0
370
    35
100
AcDbLine
 10
800.3960608958
 20
508.9071628807
 30
0.0
 11
800.3180337592
 21
509.0632953851
 31
0.0
  0
LINE
  5
2EC
330
1F
100
AcDbEntity
  8
0
  6
SLD-実線
 62
     0
370
    35
100
AcDbLine
 10
798.8960615812
 20
509.8993483169
 30
0.0
 11
798.8960615812
 21
509.907683654
 31
0.0
  0
LINE
  5
2ED
330
1F
100
AcDbEntity
  8
0
  6
SLD-実線
 62
     0
370
    35
100
AcDbLine
 10
798.8960615812
 20
509.907683654
 30
0.0
 11
799.3960607319
 21
508.9071628807
 31
0.0
  0
LINE
  5
2EE
330
1F
100
AcDbEntity
  8
0
  6
SLD-実線
 62
     0
370
    35
100
AcDbLine
 10
798.8960615812
 20
509.907683654
 30
0.0
 11
798.8960615812
 21
511.6661855189
 31
0.0
  0
SPLINE
  5
2EF
330
1F
100
AcDbEntity
  8
0
  6
SLD-実線
 62
     0
370
    35
100
AcDbSpline
210
0.0
220
0.0
230
1.0
 70
     8
 71
     3
 72
    32
 73
    28
 74
     0
 42
0.000000001
 43
0.00000001
 40
0.0
 40
0.0
 40
0.0
 40
0.0
 40
0.016296228312979
 40
0.0557647423975719
 40
0.115873902195818
 40
0.1771381554933975
 40
0.2168537895403159
 40
0.277171025575799
 40
0.3383986654892428
 40
0.3831075941613634
 40
0.4509837389145864
 40
0.4738537542230246
 40
0.4967237854980888
 40
0.5199124627366307
 40
0.5450492549292166
 40
0.5701861835105763
 40
0.5953233018809183
 40
0.6468205298061683
 40
0.6727485529854316
 40
0.6986770782730356
 40
0.7252110569889317
 40
0.762299755109389
 40
0.8186970527905225
 40
0.8761683570744684
 40
0.9132571094623689
 40
0.9697822266656088
 40
1.0
 40
1.0
 40
1.0
 40
1.0
 10
829.393940371139
 20
508.9006734250205
 30
0.0
 10
829.393858765482
 20
508.9007243240463
 30
0.0
 10
829.3935795156847
 20
508.9008984975429
 30
0.0
 10
829.3435282464304
 20
508.9321704309534
 30
0.0
 10
829.1938731325855
 20
509.0252519805422
 30
0.0
 10
828.9389727049637
 20
509.1815466985469
 30
0.0
 10
828.6048272127462
 20
509.3823531252958
 30
0.0
 10
828.1954846863581
 20
509.6228182608827
 30
0.0
 10
827.6874571173765
 20
509.9099418631087
 30
0.0
 10
827.0850145939643
 20
510.2354409307422
 30
0.0
 10
826.55932633741
 20
510.5040421782707
 30
0.0
 10
826.0842460593917
 20
510.732142601673
 30
0.0
 10
825.7856672650234
 20
510.8707118192827
 30
0.0
 10
825.4668101430248
 20
511.0132144105909
 30
0.0
 10
825.1267310138592
 20
511.1586815668922
 30
0.0
 10
824.7661066489537
 20
511.305243736994
 30
0.0
 10
824.2643531530431
 20
511.4977565545053
 30
0.0
 10
823.735750102445
 20
511.6813815337117
 30
0.0
 10
823.1820034904457
 20
511.8502482772903
 30
0.0
 10
822.7516398219825
 20
511.9687433742247
 30
0.0
 10
822.248848006729
 20
512.0913310713464
 30
0.0
 10
821.5582730398623
 20
512.2321874003575
 30
0.0
 10
820.6634493497916
 20
512.35893049514
 30
0.0
 10
819.7487319288559
 20
512.4149523907967
 30
0.0
 10
818.8321351477672
 20
512.4050079317184
 30
0.0
 10
818.0806710357626
 20
512.3555884838796
 30
0.0
 10
817.5729360356298
 20
512.2700838658403
 30
0.0
 10
817.3960613539947
 20
512.2402974573987
 30
0.0
  0
SPLINE
  5
2F0
330
1F
100
AcDbEntity
  8
0
  6
SLD-実線
 62
     0
370
    35
100
AcDbSpline
210
0.0
220
0.0
230
1.0
 70
     8
 71
     3
 72
     9
 73
     5
 74
     0
 42
0.000000001
 43
0.00000001
 40
0.0
 40
0.0
 40
0.0
 40
0.0
 40
0.6916782001884318
 40
1.0
 40
1.0
 40
1.0
 40
1.0
 10
815.8175501494242
 20
511.8993477134126
 30
0.0
 10
815.664794875869
 20
511.8604362987454
 30
0.0
 10
815.4439475605808
 20
511.8041797698326
 30
0.0
 10
815.2404590332205
 20
511.7335966190137
 30
0.0
 10
815.1777190842239
 20
511.7118342949169
 30
0.0
  0
LINE
  5
2F1
330
1F
100
AcDbEntity
  8
0
  6
SLD-実線
 62
     0
370
    35
100
AcDbLine
 10
831.3960603891
 20
508.8993472217
 30
0.0
 11
831.3960603891
 21
516.8480997143
 31
0.0
  0
LINE
  5
2F2
330
1F
100
AcDbEntity
  8
0
  6
SLD-実線
 62
     0
370
    35
100
AcDbLine
 10
831.3960603891
 20
519.0618669784
 30
0.0
 11
831.3960603891
 21
521.3016602846
 31
0.0
  0
LINE
  5
2F3
330
1F
100
AcDbEntity
  8
0
  6
SLD-実線
 62
     0
370
    35
100
AcDbLine
 10
832.3960605531
 20
521.8405752147
 30
0.0
 11
832.3960605531
 21
519.5675439371
 31
0.0
  0
LINE
  5
2F4
330
1F
100
AcDbEntity
  8
0
  6
SLD-実線
 62
     0
370
    35
100
AcDbLine
 10
832.3960605531
 20
517.3247450201
 30
0.0
 11
832.3960605531
 21
510.8993475495
 31
0.0
  0
LINE
  5
2F5
330
1F
100
AcDbEntity
  8
0
  6
SLD-実線
 62
     0
370
    35
100
AcDbLine
 10
833.396060717
 20
522.2569322849
 30
0.0
 11
833.1239059089
 21
522.2569322849
 31
0.0
  0
SPLINE
  5
2F6
330
1F
100
AcDbEntity
  8
0
  6
SLD-実線
 62
     0
370
    35
100
AcDbSpline
210
0.0
220
0.0
230
1.0
 70
    24
 71
     3
 72
    13
 73
     9
 74
     0
 42
0.000000001
 43
0.00000001
 40
0.0
 40
0.0
 40
0.0
 40
0.0
 40
0.10208250950227
 40
0.1939228125763001
 40
0.2853392746183647
 40
0.3862517903639207
 40
0.643472670584815
 40
1.0
 40
1.0
 40
1.0
 40
1.0
 10
833.39606071697
 20
522.310758305909
 30
0.0
 10
833.39606071697
 20
522.3061392863563
 30
0.0
 10
833.39606071697
 20
522.2973646856203
 30
0.0
 10
833.39606071697
 20
522.2852481524104
 30
0.0
 10
833.39606071697
 20
522.2754950804366
 30
0.0
 10
833.39606071697
 20
522.264882697098
 30
0.0
 10
833.39606071697
 20
522.2578087866765
 30
0.0
 10
833.39606071697
 20
522.2572543550871
 30
0.0
 10
833.39606071697
 20
522.2569322848784
 30
0.0
  0
LINE
  5
2F7
330
1F
100
AcDbEntity
  8
0
  6
SLD-実線
 62
     0
370
    35
100
AcDbLine
 10
833.396060717
 20
522.3516859749
 30
0.0
 11
833.2846093445
 21
522.3516859749
 31
0.0
  0
SPLINE
  5
2F8
330
1F
100
AcDbEntity
  8
0
  6
SLD-実線
 62
     0
370
    35
100
AcDbSpline
210
0.0
220
0.0
230
1.0
 70
    24
 71
     3
 72
    12
 73
     8
 74
     0
 42
0.000000001
 43
0.00000001
 40
0.0
 40
0.0
 40
0.0
 40
0.0
 40
0.2610416528453584
 40
0.4677484957486121
 40
0.6397221593954207
 40
0.8219361340370777
 40
1.0
 40
1.0
 40
1.0
 40
1.0
 10
833.39606071697
 20
522.3516859749424
 30
0.0
 10
833.39606071697
 20
522.3513820865043
 30
0.0
 10
833.39606071697
 20
522.3508375628305
 30
0.0
 10
833.39606071697
 20
522.3453341136345
 30
0.0
 10
833.39606071697
 20
522.3364896061213
 30
0.0
 10
833.39606071697
 20
522.324449370443
 30
0.0
 10
833.39606071697
 20
522.3152868123395
 30
0.0
 10
833.39606071697
 20
522.310758305909
 30
0.0
  0
SPLINE
  5
2F9
330
1F
100
AcDbEntity
  8
0
  6
SLD-実線
 62
     0
370
    35
100
AcDbSpline
210
0.0
220
0.0
230
1.0
 70
    24
 71
     3
 72
     9
 73
     5
 74
     0
 42
0.000000001
 43
0.00000001
 40
0.0
 40
0.0
 40
0.0
 40
0.0
 40
0.5659393691233758
 40
1.0
 40
1.0
 40
1.0
 40
1.0
 10
833.39606071697
 20
522.3792193627077
 30
0.0
 10
833.39606071697
 20
522.3713126110991
 30
0.0
 10
833.39606071697
 20
522.3573415886895
 30
0.0
 10
833.39606071697
 20
522.3533978127952
 30
0.0
 10
833.39606071697
 20
522.3516859749424
 30
0.0
  0
LINE
  5
2FA
330
1F
100
AcDbEntity
  8
0
  6
SLD-実線
 62
     0
370
    35
100
AcDbLine
 10
833.396060717
 20
522.2363442352
 30
0.0
 11
833.0887540697
 21
522.2363442352
 31
0.0
  0
SPLINE
  5
2FB
330
1F
100
AcDbEntity
  8
0
  6
SLD-実線
 62
     0
370
    35
100
AcDbSpline
210
0.0
220
0.0
230
1.0
 70
    24
 71
     3
 72
     9
 73
     5
 74
     0
 42
0.000000001
 43
0.00000001
 40
0.0
 40
0.0
 40
0.0
 40
0.0
 40
0.4923553993917502
 40
1.0
 40
1.0
 40
1.0
 40
1.0
 10
833.39606071697
 20
522.2569322848784
 30
0.0
 10
833.39606071697
 20
522.2516043007613
 30
0.0
 10
833.39606071697
 20
522.2407828816735
 30
0.0
 10
833.39606071697
 20
522.2378387883119
 30
0.0
 10
833.39606071697
 20
522.2363442352133
 30
0.0
  0
LINE
  5
2FC
330
1F
100
AcDbEntity
  8
0
  6
SLD-実線
 62
     0
370
    35
100
AcDbLine
 10
809.396060974
 20
508.4069253115
 30
0.0
 11
808.3960612758
 21
508.4069253115
 31
0.0
  0
LINE
  5
2FD
330
1F
100
AcDbEntity
  8
0
  6
SLD-実線
 62
     0
370
    35
100
AcDbLine
 10
833.396060717
 20
522.1964086576
 30
0.0
 11
833.0203298001
 21
522.1964086576
 31
0.0
  0
SPLINE
  5
2FE
330
1F
100
AcDbEntity
  8
0
  6
SLD-実線
 62
     0
370
    35
100
AcDbSpline
210
0.0
220
0.0
230
1.0
 70
    24
 71
     3
 72
     9
 73
     5
 74
     0
 42
0.000000001
 43
0.00000001
 40
0.0
 40
0.0
 40
0.0
 40
0.0
 40
0.2476968049649687
 40
1.0
 40
1.0
 40
1.0
 40
1.0
 10
833.39606071697
 20
522.2139089072215
 30
0.0
 10
833.39606071697
 20
522.2111479230969
 30
0.0
 10
833.39606071697
 20
522.2000012951659
 30
0.0
 10
833.39606071697
 20
522.1979510577278
 30
0.0
 10
833.39606071697
 20
522.1964086575525
 30
0.0
  0
LINE
  5
2FF
330
1F
100
AcDbEntity
  8
0
  6
SLD-実線
 62
     0
370
    35
100
AcDbLine
 10
809.396060974
 20
504.4069246559
 30
0.0
 11
808.3960612758
 21
504.4069246559
 31
0.0
  0
LINE
  5
300
330
1F
100
AcDbEntity
  8
0
  6
SLD-実線
 62
     0
370
    35
100
AcDbLine
 10
808.3960612758
 20
508.4069253115
 30
0.0
 11
808.3960612758
 21
504.4069246559
 31
0.0
  0
LINE
  5
301
330
1F
100
AcDbEntity
  8
0
  6
SLD-実線
 62
     0
370
    35
100
AcDbLine
 10
833.396060717
 20
522.1629224887
 30
0.0
 11
832.9627051471
 21
522.1629224887
 31
0.0
  0
LINE
  5
302
330
1F
100
AcDbEntity
  8
0
  6
SLD-実線
 62
     0
370
    35
100
AcDbLine
 10
833.396060717
 20
522.3107583059
 30
0.0
 11
833.2154120772
 21
522.3107583059
 31
0.0
  0
LINE
  5
303
330
1F
100
AcDbEntity
  8
0
  6
SLD-実線
 62
     0
370
    35
100
AcDbLine
 10
833.396060717
 20
522.3792193627
 30
0.0
 11
833.3309798955
 21
522.3792193627
 31
0.0
  0
DIMENSION
  5
304
330
1F
100
AcDbEntity
  8
レイヤー_1
 62
     0
100
AcDbDimension
  2
_D_1
 10
856.396061164
 20
628.8993479816
 30
0.0
 11
813.396061164
 21
628.8993479816
 31
0.0
 70
   160
  1
%%c<>
 71
     2
 42
86.0
  3
SLDDIMSTYLE1
100
AcDbAlignedDimension
 13
770.396061164
 23
555.8993479816
 33
0.0
 14
856.396061164
 24
555.8993479816
 34
0.0
100
AcDbRotatedDimension
  0
INSERT
  5
31B
330
1F
100
AcDbEntity
  8
レイヤー_1
 62
     0
100
AcDbBlockReference
  2
SW_NOTE_0
 10
754.2110091743
 20
586.9266055046
 30
0.0
  0
LEADER
  5
325
330
1F
100
AcDbEntity
  8
レイヤー_1
 62
     0
100
AcDbLeader
  3
SLDDIMSTYLE2
 76
     2
 10
793.3264284909
 20
562.4648931564
 30
0.0
 10
754.2110091743
 20
586.9266055046
 30
0.0
  0
INSERT
  5
32B
330
1F
100
AcDbEntity
  8
レイヤー_1
 62
     0
100
AcDbBlockReference
  2
SW_NOTE_1
 10
766.5963302752
 20
433.8302752294
 30
0.0
  0
LEADER
  5
32D
330
1F
100
AcDbEntity
  8
レイヤー_1
 62
     0
100
AcDbLeader
  3
SLDDIMSTYLE3
 76
     2
 10
807.896061164
 20
405.4070787644
 30
0.0
 10
766.5963302752
 20
433.8302752294
 30
0.0
  0
INSERT
  5
339
330
1F
100
AcDbEntity
  8
レイヤー_1
 62
     0
100
AcDbBlockReference
  2
SW_CENTERMARKSYMBOL_0
 10
813.396061164
 20
555.8993479816
 30
0.0
  0
LINE
  5
33A
330
1F
100
AcDbEntity
  8
0
  6
SLD-実線
 62
     0
370
    35
100
AcDbLine
 10
521.3615583313
 20
440.8993491141
 30
0.0
 11
521.3615583313
 21
444.8993497698
 31
0.0
  0
LINE
  5
33B
330
1F
100
AcDbEntity
  8
0
  6
SLD-実線
 62
     0
370
    35
100
AcDbLine
 10
481.3615592254
 20
444.8993497698
 30
0.0
 11
481.3615592254
 21
440.8993491141
 31
0.0
  0
LINE
  5
33C
330
1F
100
AcDbEntity
  8
0
  6
SLD-実線
 62
     0
370
    35
100
AcDbLine
 10
489.361558674
 20
440.8993491141
 30
0.0
 11
489.361558674
 21
436.3160127012
 31
0.0
  0
LINE
  5
33D
330
1F
100
AcDbEntity
  8
0
  6
SLD-実線
 62
     0
370
    35
100
AcDbLine
 10
513.3615588826
 20
436.3160127012
 30
0.0
 11
513.3615588826
 21
440.8993491141
 31
0.0
  0
LINE
  5
33E
330
1F
100
AcDbEntity
  8
0
  6
SLD-実線
 62
     0
370
    35
100
AcDbLine
 10
565.3615618182
 20
510.3993483989
 30
0.0
 11
564.8615608049
 21
510.8993475495
 31
0.0
  0
LINE
  5
33F
330
1F
100
AcDbEntity
  8
0
  6
SLD-実線
 62
     0
370
    35
100
AcDbLine
 10
557.8615577949
 20
510.8993475495
 30
0.0
 11
557.3615605069
 21
510.3993483989
 31
0.0
  0
LINE
  5
340
330
1F
100
AcDbEntity
  8
0
  6
SLD-実線
 62
     0
370
    35
100
AcDbLine
 10
557.3615605069
 20
510.3993483989
 30
0.0
 11
557.3615605069
 21
504.8993484287
 31
0.0
  0
LINE
  5
341
330
1F
100
AcDbEntity
  8
0
  6
SLD-実線
 62
     0
370
    35
100
AcDbLine
 10
565.3615618182
 20
504.8993484287
 30
0.0
 11
565.3615618182
 21
510.3993483989
 31
0.0
  0
LINE
  5
342
330
1F
100
AcDbEntity
  8
0
  6
SLD-実線
 62
     0
370
    35
100
AcDbLine
 10
563.1432185007
 20
510.8993475495
 30
0.0
 11
563.1432185007
 21
511.8993477134
 31
0.0
  0
LINE
  5
343
330
1F
100
AcDbEntity
  8
0
  6
SLD-実線
 62
     0
370
    35
100
AcDbLine
 10
559.5799000991
 20
511.8993477134
 30
0.0
 11
559.5799000991
 21
510.8993475495
 31
0.0
  0
LINE
  5
344
330
1F
100
AcDbEntity
  8
0
  6
SLD-実線
 62
     0
370
    35
100
AcDbLine
 10
565.359416051
 20
512.8993478773
 30
0.0
 11
577.6345456076
 21
512.8993478773
 31
0.0
  0
LINE
  5
345
330
1F
100
AcDbEntity
  8
0
  6
SLD-実線
 62
     0
370
    35
100
AcDbLine
 10
623.3615601492
 20
598.8993489353
 30
0.0
 11
555.361560179
 21
598.8993489353
 31
0.0
  0
LINE
  5
346
330
1F
100
AcDbEntity
  8
0
  6
SLD-実線
 62
     0
370
    35
100
AcDbLine
 10
565.3615618182
 20
511.8993477134
 30
0.0
 11
565.3615618182
 21
512.8995471804
 31
0.0
  0
LINE
  5
347
330
1F
100
AcDbEntity
  8
0
  6
SLD-実線
 62
     0
370
    35
100
AcDbLine
 10
580.2153596712
 20
517.7531482821
 30
0.0
 11
580.3615624142
 21
517.8993477656
 31
0.0
  0
LINE
  5
348
330
1F
100
AcDbEntity
  8
0
  6
SLD-実線
 62
     0
370
    35
100
AcDbLine
 10
555.361560179
 20
593.8538902609
 30
0.0
 11
525.361558987
 21
583.399347326
 31
0.0
  0
LINE
  5
349
330
1F
100
AcDbEntity
  8
0
  6
SLD-実線
 62
     0
370
    35
100
AcDbLine
 10
525.361558987
 20
528.3993480897
 30
0.0
 11
555.361560179
 21
517.9448023608
 31
0.0
  0
LINE
  5
34A
330
1F
100
AcDbEntity
  8
0
  6
SLD-実線
 62
     0
370
    35
100
AcDbLine
 10
481.3615592254
 20
584.3993493525
 30
0.0
 11
479.3615588975
 21
582.3993490247
 31
0.0
  0
LINE
  5
34B
330
1F
100
AcDbEntity
  8
0
  6
SLD-実線
 62
     0
370
    35
100
AcDbLine
 10
521.3615583313
 20
584.3993493525
 30
0.0
 11
481.3615592254
 21
584.3993493525
 31
0.0
  0
LINE
  5
34C
330
1F
100
AcDbEntity
  8
0
  6
SLD-実線
 62
     0
370
    35
100
AcDbLine
 10
518.1754088086
 20
527.3993479258
 30
0.0
 11
521.3615583313
 21
527.3993479258
 31
0.0
  0
LINE
  5
34D
330
1F
100
AcDbEntity
  8
0
  6
SLD-実線
 62
     0
370
    35
100
AcDbLine
 10
521.3615583313
 20
527.3993479258
 30
0.0
 11
525.361558987
 21
528.3993480897
 31
0.0
  0
LINE
  5
34E
330
1F
100
AcDbEntity
  8
0
  6
SLD-実線
 62
     0
370
    35
100
AcDbLine
 10
525.361558987
 20
583.399347326
 30
0.0
 11
521.3615583313
 21
584.3993493525
 31
0.0
  0
LINE
  5
34F
330
1F
100
AcDbEntity
  8
0
  6
SLD-実線
 62
     0
370
    35
100
AcDbLine
 10
511.3615585548
 20
444.8993497698
 30
0.0
 11
511.3615585548
 21
512.4052663503
 31
0.0
  0
LINE
  5
350
330
1F
100
AcDbEntity
  8
0
  6
SLD-実線
 62
     0
370
    35
100
AcDbLine
 10
491.3615590019
 20
512.4093520625
 30
0.0
 11
491.3615590019
 21
444.8993497698
 31
0.0
  0
ARC
  5
351
330
1F
100
AcDbEntity
  8
0
  6
SLD-実線
 62
     0
370
    35
100
AcDbCircle
 10
501.3615587783
 20
525.5341898236
 30
0.0
 40
11.4999999999999
100
AcDbArc
 50
77.4441422014
 51
102.5558577986
  0
ARC
  5
352
330
1F
100
AcDbEntity
  8
0
  6
SLD-実線
 62
     0
370
    35
100
AcDbCircle
 10
501.3615587783
 20
525.5341898236
 30
0.0
 40
12.50000000000001
100
AcDbArc
 50
78.4630409672
 51
101.5369590328
  0
SPLINE
  5
353
330
1F
100
AcDbEntity
  8
0
  6
SLD-実線
 62
     0
370
    35
100
AcDbSpline
210
0.0
220
0.0
230
1.0
 70
    24
 71
     3
 72
     9
 73
     5
 74
     0
 42
0.000000001
 43
0.00000001
 40
0.0
 40
0.0
 40
0.0
 40
0.0
 40
0.5406087204013464
 40
1.0
 40
1.0
 40
1.0
 40
1.0
 10
503.8615587224555
 20
537.7816383896487
 30
0.0
 10
503.8615587224555
 20
537.5976367657292
 30
0.0
 10
503.8615587224555
 20
537.2572766920281
 30
0.0
 10
503.8615587224555
 20
536.9159597249671
 30
0.0
 10
503.8615587224555
 20
536.7591616867202
 30
0.0
  0
SPLINE
  5
354
330
1F
100
AcDbEntity
  8
0
  6
SLD-実線
 62
     0
370
    35
100
AcDbSpline
210
0.0
220
0.0
230
1.0
 70
    24
 71
     3
 72
     9
 73
     5
 74
     0
 42
0.000000001
 43
0.00000001
 40
0.0
 40
0.0
 40
0.0
 40
0.0
 40
0.4593912795986536
 40
1.0
 40
1.0
 40
1.0
 40
1.0
 10
498.8615588342141
 20
536.7591616867202
 30
0.0
 10
498.8615588342141
 20
536.9159597249671
 30
0.0
 10
498.8615588342141
 20
537.2572766920281
 30
0.0
 10
498.8615588342141
 20
537.5976367657292
 30
0.0
 10
498.8615588342141
 20
537.7816383896487
 30
0.0
  0
ARC
  5
355
330
1F
100
AcDbEntity
  8
0
  6
SLD-実線
 62
     0
370
    35
100
AcDbCircle
 10
501.3615587783
 20
525.5341898236
 30
0.0
 40
11.50000000000002
100
AcDbArc
 50
257.4441422014
 51
282.5558577986
  0
LINE
  5
356
330
1F
100
AcDbEntity
  8
0
  6
SLD-実線
 62
     0
370
    35
100
AcDbLine
 10
503.8615587225
 20
536.7591616867
 30
0.0
 11
503.8615587225
 21
514.3092175184
 31
0.0
  0
LINE
  5
357
330
1F
100
AcDbEntity
  8
0
  6
SLD-実線
 62
     0
370
    35
100
AcDbLine
 10
498.8615588342
 20
514.3092175184
 30
0.0
 11
498.8615588342
 21
536.7591616867
 31
0.0
  0
ARC
  5
358
330
1F
100
AcDbEntity
  8
0
  6
SLD-実線
 62
     0
370
    35
100
AcDbCircle
 10
501.3615587783
 20
525.5341898236
 30
0.0
 40
12.4999999999999
100
AcDbArc
 50
258.4630409672
 51
281.5369590328
  0
SPLINE
  5
359
330
1F
100
AcDbEntity
  8
0
  6
SLD-実線
 62
     0
370
    35
100
AcDbSpline
210
0.0
220
0.0
230
1.0
 70
    24
 71
     3
 72
     9
 73
     5
 74
     0
 42
0.000000001
 43
0.00000001
 40
0.0
 40
0.0
 40
0.0
 40
0.0
 40
0.4593912649565837
 40
1.0
 40
1.0
 40
1.0
 40
1.0
 10
503.8615587224555
 20
514.3092175183909
 30
0.0
 10
503.8615587224555
 20
514.1524199203697
 30
0.0
 10
503.8615587224555
 20
513.8111039007103
 30
0.0
 10
503.8615587224555
 20
513.4707429295431
 30
0.0
 10
503.8615587224555
 20
513.2867408154624
 30
0.0
  0
SPLINE
  5
35A
330
1F
100
AcDbEntity
  8
0
  6
SLD-実線
 62
     0
370
    35
100
AcDbSpline
210
0.0
220
0.0
230
1.0
 70
    24
 71
     3
 72
     9
 73
     5
 74
     0
 42
0.000000001
 43
0.00000001
 40
0.0
 40
0.0
 40
0.0
 40
0.0
 40
0.5406087350434163
 40
1.0
 40
1.0
 40
1.0
 40
1.0
 10
498.8615588342141
 20
513.2867408154624
 30
0.0
 10
498.8615588342141
 20
513.4707429295431
 30
0.0
 10
498.8615588342141
 20
513.8111039007103
 30
0.0
 10
498.8615588342141
 20
514.1524199203697
 30
0.0
 10
498.8615588342141
 20
514.3092175183909
 30
0.0
  0
ARC
  5
35B
330
1F
100
AcDbEntity
  8
0
  6
SLD-実線
 62
     0
370
    35
100
AcDbCircle
 10
501.3615587783
 20
525.5341898236
 30
0.0
 40
12.50000000000001
100
AcDbArc
 50
101.5369590328
 51
258.4630409672
  0
ARC
  5
35C
330
1F
100
AcDbEntity
  8
0
  6
SLD-実線
 62
     0
370
    35
100
AcDbCircle
 10
501.3615587783
 20
525.5341898236
 30
0.0
 40
12.5
100
AcDbArc
 50
281.5369590328
 51
78.4630409672
  0
LINE
  5
35D
330
1F
100
AcDbEntity
  8
0
  6
SLD-実線
 62
     0
370
    35
100
AcDbLine
 10
481.3615592254
 20
440.8993491141
 30
0.0
 11
521.3615583313
 21
440.8993491141
 31
0.0
  0
LINE
  5
35E
330
1F
100
AcDbEntity
  8
0
  6
SLD-実線
 62
     0
370
    35
100
AcDbLine
 10
481.3615592254
 20
444.8993497698
 30
0.0
 11
521.3615583313
 21
444.8993497698
 31
0.0
  0
LINE
  5
35F
330
1F
100
AcDbEntity
  8
0
  6
SLD-実線
 62
     0
370
    35
100
AcDbLine
 10
490.6070135591
 20
424.8993464915
 30
0.0
 11
512.1161039976
 21
424.8993464915
 31
0.0
  0
LINE
  5
360
330
1F
100
AcDbEntity
  8
0
  6
SLD-実線
 62
     0
370
    35
100
AcDbLine
 10
499.8615587653
 20
376.6567104666
 30
0.0
 11
491.9937407655
 21
384.5245235769
 31
0.0
  0
LINE
  5
361
330
1F
100
AcDbEntity
  8
0
  6
SLD-実線
 62
     0
370
    35
100
AcDbLine
 10
488.8615585921
 20
440.8993491141
 30
0.0
 11
494.8615586442
 21
385.8993494121
 31
0.0
  0
LINE
  5
362
330
1F
100
AcDbEntity
  8
0
  6
SLD-実線
 62
     0
370
    35
100
AcDbLine
 10
494.8615586442
 20
385.8993494121
 30
0.0
 11
499.8615587653
 21
380.8993541805
 31
0.0
  0
LINE
  5
363
330
1F
100
AcDbEntity
  8
0
  6
SLD-実線
 62
     0
370
    35
100
AcDbLine
 10
499.8615587653
 20
380.8993541805
 30
0.0
 11
502.8615587914
 21
380.8993541805
 31
0.0
  0
LINE
  5
364
330
1F
100
AcDbEntity
  8
0
  6
SLD-実線
 62
     0
370
    35
100
AcDbLine
 10
502.8615587914
 20
380.8993541805
 30
0.0
 11
507.8615589124
 21
385.8993494121
 31
0.0
  0
LINE
  5
365
330
1F
100
AcDbEntity
  8
0
  6
SLD-実線
 62
     0
370
    35
100
AcDbLine
 10
507.8615589124
 20
385.8993494121
 30
0.0
 11
513.8615589646
 21
440.8993491141
 31
0.0
  0
LINE
  5
366
330
1F
100
AcDbEntity
  8
0
  6
SLD-実線
 62
     0
370
    35
100
AcDbLine
 10
516.8793570307
 20
440.8993491141
 30
0.0
 11
510.7293767912
 21
384.5245235769
 31
0.0
  0
LINE
  5
367
330
1F
100
AcDbEntity
  8
0
  6
SLD-実線
 62
     0
370
    35
100
AcDbLine
 10
510.7293767912
 20
384.5245235769
 30
0.0
 11
502.8615587914
 21
376.6567104666
 31
0.0
  0
LINE
  5
368
330
1F
100
AcDbEntity
  8
0
  6
SLD-実線
 62
     0
370
    35
100
AcDbLine
 10
502.8615587914
 20
376.6567104666
 30
0.0
 11
502.8615587914
 21
344.8993408291
 31
0.0
  0
LINE
  5
369
330
1F
100
AcDbEntity
  8
0
  6
SLD-実線
 62
     0
370
    35
100
AcDbLine
 10
499.8615587653
 20
344.8993408291
 30
0.0
 11
502.8615587914
 21
344.8993408291
 31
0.0
  0
LINE
  5
36A
330
1F
100
AcDbEntity
  8
0
  6
SLD-実線
 62
     0
370
    35
100
AcDbLine
 10
499.8615587653
 20
344.8993408291
 30
0.0
 11
499.8615587653
 21
376.6567104666
 31
0.0
  0
LINE
  5
36B
330
1F
100
AcDbEntity
  8
0
  6
SLD-実線
 62
     0
370
    35
100
AcDbLine
 10
491.9937407655
 20
384.5245235769
 30
0.0
 11
485.8437605259
 21
440.8993491141
 31
0.0
  0
LINE
  5
36C
330
1F
100
AcDbEntity
  8
0
  6
SLD-実線
 62
     0
370
    35
100
AcDbLine
 10
499.8615587653
 20
294.8993438093
 30
0.0
 11
502.8615587914
 21
294.8993438093
 31
0.0
  0
LINE
  5
36D
330
1F
100
AcDbEntity
  8
0
  6
SLD-実線
 62
     0
370
    35
100
AcDbLine
 10
502.8615587914
 20
344.8993408291
 30
0.0
 11
502.8615587914
 21
294.8993438093
 31
0.0
  0
LINE
  5
36E
330
1F
100
AcDbEntity
  8
0
  6
SLD-実線
 62
     0
370
    35
100
AcDbLine
 10
499.8615587653
 20
294.8993438093
 30
0.0
 11
499.8615587653
 21
344.8993408291
 31
0.0
  0
LINE
  5
36F
330
1F
100
AcDbEntity
  8
0
  6
SLD-実線
 62
     0
370
    35
100
AcDbLine
 10
499.8615587653
 20
294.8993438093
 30
0.0
 11
488.8615585921
 21
344.8993408291
 31
0.0
  0
LINE
  5
370
330
1F
100
AcDbEntity
  8
0
  6
SLD-実線
 62
     0
370
    35
100
AcDbLine
 10
488.8615585921
 20
344.8993408291
 30
0.0
 11
482.3615593893
 21
440.8993491141
 31
0.0
  0
LINE
  5
371
330
1F
100
AcDbEntity
  8
0
  6
SLD-実線
 62
     0
370
    35
100
AcDbLine
 10
520.3615581674
 20
440.8993491141
 30
0.0
 11
513.8615589646
 21
344.8993408291
 31
0.0
  0
LINE
  5
372
330
1F
100
AcDbEntity
  8
0
  6
SLD-実線
 62
     0
370
    35
100
AcDbLine
 10
513.8615589646
 20
344.8993408291
 30
0.0
 11
502.8615587914
 21
294.8993438093
 31
0.0
  0
LINE
  5
373
330
1F
100
AcDbEntity
  8
0
  6
SLD-実線
 62
     0
370
    35
100
AcDbLine
 10
565.3615618182
 20
510.3993483989
 30
0.0
 11
557.3615605069
 21
510.3993483989
 31
0.0
  0
LINE
  5
374
330
1F
100
AcDbEntity
  8
0
  6
SLD-実線
 62
     0
370
    35
100
AcDbLine
 10
557.8615577949
 20
510.8993475495
 30
0.0
 11
564.8615608049
 21
510.8993475495
 31
0.0
  0
LINE
  5
375
330
1F
100
AcDbEntity
  8
0
  6
SLD-実線
 62
     0
370
    35
100
AcDbLine
 10
557.5618879927
 20
504.8993484287
 30
0.0
 11
557.5618879927
 21
501.3993487863
 31
0.0
  0
LINE
  5
376
330
1F
100
AcDbEntity
  8
0
  6
SLD-実線
 62
     0
370
    35
100
AcDbLine
 10
557.5618879927
 20
504.8993484287
 30
0.0
 11
557.3615605069
 21
504.8993484287
 31
0.0
  0
LINE
  5
377
330
1F
100
AcDbEntity
  8
0
  6
SLD-実線
 62
     0
370
    35
100
AcDbLine
 10
565.3615618182
 20
504.8993484287
 30
0.0
 11
565.1612306071
 21
504.8993484287
 31
0.0
  0
LINE
  5
378
330
1F
100
AcDbEntity
  8
0
  6
SLD-実線
 62
     0
370
    35
100
AcDbLine
 10
565.1612306071
 20
501.3993487863
 30
0.0
 11
565.1612306071
 21
504.8993484287
 31
0.0
  0
LINE
  5
379
330
1F
100
AcDbEntity
  8
0
  6
SLD-実線
 62
     0
370
    35
100
AcDbLine
 10
557.5618879927
 20
501.3993487863
 30
0.0
 11
565.1612306071
 21
501.3993487863
 31
0.0
  0
LINE
  5
37A
330
1F
100
AcDbEntity
  8
0
  6
SLD-実線
 62
     0
370
    35
100
AcDbLine
 10
564.6307343674
 20
500.899347773
 30
0.0
 11
558.0923842323
 21
500.899347773
 31
0.0
  0
LINE
  5
37B
330
1F
100
AcDbEntity
  8
0
  6
SLD-実線
 62
     0
370
    35
100
AcDbLine
 10
558.0923842323
 20
500.899347773
 30
0.0
 11
557.5618879927
 21
501.3993487863
 31
0.0
  0
LINE
  5
37C
330
1F
100
AcDbEntity
  8
0
  6
SLD-実線
 62
     0
370
    35
100
AcDbLine
 10
565.1612306071
 20
501.3993487863
 30
0.0
 11
564.6307343674
 21
500.899347773
 31
0.0
  0
SPLINE
  5
37D
330
1F
100
AcDbEntity
  8
0
  6
SLD-実線
 62
     0
370
    35
100
AcDbSpline
210
0.0
220
0.0
230
1.0
 70
     8
 71
     3
 72
    25
 73
    21
 74
     0
 42
0.000000001
 43
0.00000001
 40
0.0
 40
0.0
 40
0.0
 40
0.0
 40
0.0423518825629288
 40
0.1250807917065396
 40
0.1599502306311579
 40
0.1948194330508794
 40
0.2563347859121777
 40
0.3388614823268477
 40
0.4177820871760565
 40
0.4704297698166306
 40
0.5531675457032075
 40
0.6323427262393616
 40
0.6851602279362914
 40
0.739881994295538
 40
0.7682356066230676
 40
0.8473148859074815
 40
0.900068314211612
 40
0.9547346329568803
 40
0.9830648973775981
 40
0.9999999999999999
 40
0.9999999999999999
 40
0.9999999999999999
 40
0.9999999999999999
 10
565.3594160509597
 20
512.8995471803563
 30
0.0
 10
565.3584906649847
 20
512.8996334390783
 30
0.0
 10
565.3557576575391
 20
512.8998881930252
 30
0.0
 10
565.3083515777791
 20
512.9042875124593
 30
0.0
 10
565.2378391164291
 20
512.9106907947934
 30
0.0
 10
565.1620937318831
 20
512.9174765737597
 30
0.0
 10
565.031927092382
 20
512.9288745105166
 30
0.0
 10
564.8209624797194
 20
512.946519526268
 30
0.0
 10
564.569381919694
 20
512.966045381153
 30
0.0
 10
564.28103535505
 20
512.9866919967299
 30
0.0
 10
563.9568094102966
 20
513.007799130341
 30
0.0
 10
563.5953655745909
 20
513.028043384215
 30
0.0
 10
563.2590848222137
 20
513.0441124843102
 30
0.0
 10
563.0027972386525
 20
513.0545839607769
 30
0.0
 10
562.6883185587776
 20
513.0656581366549
 30
0.0
 10
562.3671023927708
 20
513.0746328278397
 30
0.0
 10
561.9838345732552
 20
513.0817148789663
 30
0.0
 10
561.7009651095982
 20
513.084712434487
 30
0.0
 10
561.4918440614143
 20
513.0857013808113
 30
0.0
 10
561.3970301171432
 20
513.0857721717828
 30
0.0
 10
561.3615574372303
 20
513.0857986567634
 30
0.0
  0
LINE
  5
37E
330
1F
100
AcDbEntity
  8
0
  6
SLD-実線
 62
     0
370
    35
100
AcDbLine
 10
561.3615574372
 20
513.0857986568
 30
0.0
 11
555.361560179
 21
513.0857986568
 31
0.0
  0
LINE
  5
37F
330
1F
100
AcDbEntity
  8
0
  6
SLD-実線
 62
     0
370
    35
100
AcDbLine
 10
555.361560179
 20
598.8993489353
 30
0.0
 11
555.361560179
 21
513.0857986568
 31
0.0
  0
LWPOLYLINE
  5
380
330
1F
100
AcDbEntity
  8
0
  6
SLD-実線
 62
     0
370
    35
100
AcDbPolyline
 90
       46
 70
   128
 43
0.0
 10
577.6345456076
 20
512.8993478773
 10
577.6902386976
 20
513.0040937273
 10
577.8570571971
 20
513.3178209124
 10
578.1341666413
 20
513.8390011324
 10
578.5202408267
 20
514.5650946705
 10
579.0133873058
 20
515.4925652949
 10
579.6111995411
 20
516.6168932973
 10
580.3107792569
 20
517.9326015694
 10
581.1086991859
 20
519.4332798181
 10
582.0010850263
 20
521.1116171612
 10
582.9835930896
 20
522.9594369356
 10
584.0514252019
 20
524.9677365699
 10
585.199380858
 20
527.1267318802
 10
586.4218721223
 20
529.4259044511
 10
587.7129459811
 20
531.8540533243
 10
589.066299243
 20
534.3993476762
 10
590.4753530455
 20
537.0493888093
 10
591.9332305027
 20
539.7912648676
 10
593.4328386617
 20
542.61161696
 10
594.9668685031
 20
545.4967071472
 10
596.5278470946
 20
548.4324761836
 10
598.1081673933
 20
551.4046245424
 10
599.7001254988
 20
554.3986701576
 10
601.295980258
 20
557.4000247924
 10
602.8879383636
 20
560.3940704076
 10
604.4682586623
 20
563.3662187664
 10
606.0292372537
 20
566.3019896655
 10
607.5632670951
 20
569.18707799
 10
609.0628752542
 20
572.007431945
 10
610.5207527113
 20
574.7493089346
 10
611.9298065138
 20
577.3993463425
 10
613.2831597758
 20
579.9446434883
 10
614.5742336345
 20
582.3727914302
 10
615.7967248989
 20
584.6719623713
 10
616.9446805549
 20
586.8309580891
 10
618.0125126672
 20
588.839262089
 10
618.9950207305
 20
590.6870805828
 10
619.887406571
 20
592.3654132692
 10
620.6853339506
 20
593.8660943119
 10
621.3849062157
 20
595.1817997901
 10
621.9827184511
 20
596.3061296551
 10
622.4758649302
 20
597.2336002795
 10
622.8619391156
 20
597.9596966116
 10
623.1390560103
 20
598.4808721749
 10
623.3058670593
 20
598.7946012227
 10
623.3615601492
 20
598.8993489353
  0
LINE
  5
381
330
1F
100
AcDbEntity
  8
0
  6
SLD-実線
 62
     0
370
    35
100
AcDbLine
 10
561.3615574372
 20
513.0857986568
 30
0.0
 11
561.3615574372
 21
511.8993477134
 31
0.0
  0
LINE
  5
382
330
1F
100
AcDbEntity
  8
0
  6
SLD-実線
 62
     0
370
    35
100
AcDbLine
 10
555.361560179
 20
511.8993477134
 30
0.0
 11
561.3615574372
 21
511.8993477134
 31
0.0
  0
LINE
  5
383
330
1F
100
AcDbEntity
  8
0
  6
SLD-実線
 62
     0
370
    35
100
AcDbLine
 10
555.361560179
 20
513.0857986568
 30
0.0
 11
555.361560179
 21
511.8993477134
 31
0.0
  0
LINE
  5
384
330
1F
100
AcDbEntity
  8
0
  6
SLD-実線
 62
     0
370
    35
100
AcDbLine
 10
561.3615574372
 20
511.8993477134
 30
0.0
 11
565.3615618182
 21
511.8993477134
 31
0.0
  0
LINE
  5
385
330
1F
100
AcDbEntity
  8
0
  6
SLD-実線
 62
     0
370
    35
100
AcDbLine
 10
580.3615624142
 20
518.0281100964
 30
0.0
 11
580.3615624142
 21
517.8993477656
 31
0.0
  0
LINE
  5
386
330
1F
100
AcDbEntity
  8
0
  6
SLD-実線
 62
     0
370
    35
100
AcDbLine
 10
525.361558987
 20
528.3993480897
 30
0.0
 11
525.361558987
 21
583.399347326
 31
0.0
  0
LINE
  5
387
330
1F
100
AcDbEntity
  8
0
  6
SLD-実線
 62
     0
370
    35
100
AcDbLine
 10
479.3615588975
 20
541.8993489055
 30
0.0
 11
479.3615588975
 21
582.3993490247
 31
0.0
  0
LINE
  5
388
330
1F
100
AcDbEntity
  8
0
  6
SLD-実線
 62
     0
370
    35
100
AcDbLine
 10
481.3615592254
 20
584.3993493525
 30
0.0
 11
481.3615592254
 21
541.8993489055
 31
0.0
  0
SPLINE
  5
389
330
1F
100
AcDbEntity
  8
0
  6
SLD-実線
 62
     0
370
    35
100
AcDbSpline
210
0.0
220
0.0
230
1.0
 70
    24
 71
     3
 72
     8
 73
     4
 74
     0
 42
0.000000001
 43
0.00000001
 40
0.0
 40
0.0
 40
0.0
 40
0.0
 40
1.0
 40
1.0
 40
1.0
 40
1.0
 10
481.3615587783348
 20
541.8993479816335
 30
0.0
 10
480.6903592003671
 20
541.8993479816335
 30
0.0
 10
480.0232947714296
 20
541.8993479816335
 30
0.0
 10
479.3615587783348
 20
541.8993479816335
 30
0.0
  0
LINE
  5
38A
330
1F
100
AcDbEntity
  8
0
  6
SLD-実線
 62
     0
370
    35
100
AcDbLine
 10
521.3615583313
 20
527.3993479258
 30
0.0
 11
521.3615583313
 21
584.3993493525
 31
0.0
  0
LINE
  5
38B
330
1F
100
AcDbEntity
  8
0
  6
SLD-実線
 62
     0
370
    35
100
AcDbLine
 10
518.1741124076
 20
527.4168973027
 30
0.0
 11
517.3615595383
 21
527.4168973027
 31
0.0
  0
LINE
  5
38C
330
1F
100
AcDbEntity
  8
0
  6
SLD-実線
 62
     0
370
    35
100
AcDbLine
 10
517.3615595383
 20
530.5369741453
 30
0.0
 11
517.3995500488
 21
530.5369741453
 31
0.0
  0
SPLINE
  5
38D
330
1F
100
AcDbEntity
  8
0
  6
SLD-実線
 62
     0
370
    35
100
AcDbSpline
210
0.0
220
0.0
230
1.0
 70
     8
 71
     3
 72
    30
 73
    26
 74
     0
 42
0.000000001
 43
0.00000001
 40
0.0
 40
0.0
 40
0.0
 40
0.0
 40
0.1249999999999996
 40
0.1249999999999996
 40
0.1874999999999994
 40
0.1874999999999994
 40
0.2499999999999992
 40
0.2499999999999992
 40
0.3749999999999991
 40
0.3749999999999991
 40
0.4374999999999991
 40
0.4374999999999991
 40
0.4999999999999991
 40
0.4999999999999991
 40
0.5624999999999991
 40
0.5624999999999991
 40
0.6249999999999991
 40
0.6249999999999991
 40
0.7499999999999993
 40
0.7499999999999993
 40
0.8124999999999996
 40
0.8124999999999996
 40
0.8749999999999998
 40
0.8749999999999998
 40
1.0
 40
1.0
 40
1.0
 40
1.0
 10
501.3615587783348
 20
541.8993479816335
 30
0.0
 10
502.4287284224048
 20
541.8993479816335
 30
0.0
 10
503.4765298773867
 20
541.7997473956929
 30
0.0
 10
505.0202138964505
 20
541.509236406991
 30
0.0
 10
505.5300629310261
 20
541.3887209258504
 30
0.0
 10
506.5400126516955
 20
541.0999486632735
 30
0.0
 10
507.0353840290499
 20
540.9328231552089
 30
0.0
 10
508.4739759290093
 20
540.3742308162155
 30
0.0
 10
509.3783278492127
 20
539.9234500230965
 30
0.0
 10
510.6531596283893
 20
539.144143900329
 30
0.0
 10
511.0632953980073
 20
538.8674481238713
 30
0.0
 10
511.8378241968803
 20
538.2963393566126
 30
0.0
 10
512.2047862623373
 20
538.0004118302422
 30
0.0
 10
512.900356595346
 20
537.3921299445626
 30
0.0
 10
513.2289565351603
 20
537.0797674890641
 30
0.0
 10
513.8495273962105
 20
536.4426745686558
 30
0.0
 10
514.1418155492267
 20
536.1172810410313
 30
0.0
 10
514.9506650346002
 20
535.148451951063
 30
0.0
 10
515.4061677311602
 20
534.5061584286138
 30
0.0
 10
515.9895403646381
 20
533.5686972427529
 30
0.0
 10
516.1679041695336
 20
533.2592487520882
 30
0.0
 10
516.4906008262057
 20
532.6600110621362
 30
0.0
 10
516.6352623245731
 20
532.3699179876477
 30
0.0
 10
517.0272716826073
 20
531.5301235119498
 30
0.0
 10
517.2329547272315
 20
531.0109072914985
 30
0.0
 10
517.3995502289055
 20
530.5369742756886
 30
0.0
  0
LINE
  5
38E
330
1F
100
AcDbEntity
  8
0
  6
SLD-実線
 62
     0
370
    35
100
AcDbLine
 10
481.3615592254
 20
541.8993489055
 30
0.0
 11
501.3615587783
 21
541.8993489055
 31
0.0
  0
LINE
  5
38F
330
1F
100
AcDbEntity
  8
0
  6
SLD-実線
 62
     0
370
    35
100
AcDbLine
 10
518.1741124076
 20
527.4168973027
 30
0.0
 11
518.1754088086
 21
527.4082169106
 31
0.0
  0
ARC
  5
390
330
1F
100
AcDbEntity
  8
0
  6
SLD-実線
 62
     0
370
    35
100
AcDbCircle
 10
501.3615587783
 20
524.8993479816
 30
0.0
 40
15.00000000000008
100
AcDbArc
 50
178.0897868283
 51
181.9102131717
  0
LINE
  5
391
330
1F
100
AcDbEntity
  8
0
  6
SLD-実線
 62
     0
370
    35
100
AcDbLine
 10
486.3698944507
 20
524.3993479579
 30
0.0
 11
485.3693736774
 21
524.3993479579
 31
0.0
  0
ARC
  5
392
330
1F
100
AcDbEntity
  8
0
  6
SLD-実線
 62
     0
370
    35
100
AcDbCircle
 10
501.3615587783
 20
524.8993479816
 30
0.0
 40
16.00000000000006
100
AcDbArc
 50
178.2092153407
 51
181.7907846593
  0
LINE
  5
393
330
1F
100
AcDbEntity
  8
0
  6
SLD-実線
 62
     0
370
    35
100
AcDbLine
 10
485.3693736774
 20
525.3993480054
 30
0.0
 11
486.3698944507
 21
525.3993480054
 31
0.0
  0
LINE
  5
394
330
1F
100
AcDbEntity
  8
0
  6
SLD-実線
 62
     0
370
    35
100
AcDbLine
 10
486.3698944507
 20
524.3993479579
 30
0.0
 11
488.371178141
 21
524.3993479579
 31
0.0
  0
LINE
  5
395
330
1F
100
AcDbEntity
  8
0
  6
SLD-実線
 62
     0
370
    35
100
AcDbLine
 10
488.371178141
 20
525.3993480054
 30
0.0
 11
486.3698944507
 21
525.3993480054
 31
0.0
  0
ARC
  5
396
330
1F
100
AcDbEntity
  8
0
  6
SLD-実線
 62
     0
370
    35
100
AcDbCircle
 10
501.3615587783
 20
524.8993479816
 30
0.0
 40
13.0
100
AcDbArc
 50
177.795772496
 51
182.204227504
  0
LINE
  5
397
330
1F
100
AcDbEntity
  8
0
  6
SLD-実線
 62
     0
370
    35
100
AcDbLine
 10
488.6283963976
 20
516.9705034403
 30
0.0
 11
490.3615588379
 21
517.9711448198
 31
0.0
  0
ARC
  5
398
330
1F
100
AcDbEntity
  8
0
  6
SLD-実線
 62
     0
370
    35
100
AcDbCircle
 10
501.3615587783
 20
524.8993479816
 30
0.0
 40
15.00000000000016
100
AcDbArc
 50
208.0897868283
 51
211.9102131717
  0
LINE
  5
399
330
1F
100
AcDbEntity
  8
0
  6
SLD-実線
 62
     0
370
    35
100
AcDbLine
 10
489.861558756
 20
518.8371700404
 30
0.0
 11
488.1283963156
 21
517.8365286609
 31
0.0
  0
ARC
  5
39A
330
1F
100
AcDbEntity
  8
0
  6
SLD-実線
 62
     0
370
    35
100
AcDbCircle
 10
501.3615587783
 20
524.8993479816
 30
0.0
 40
13.00000000000009
100
AcDbArc
 50
207.795772496
 51
212.2042275039999
  0
LINE
  5
39B
330
1F
100
AcDbEntity
  8
0
  6
SLD-実線
 62
     0
370
    35
100
AcDbLine
 10
488.6283963976
 20
516.9705034403
 30
0.0
 11
487.7619199512
 21
516.470242588
 31
0.0
  0
ARC
  5
39C
330
1F
100
AcDbEntity
  8
0
  6
SLD-実線
 62
     0
370
    35
100
AcDbCircle
 10
501.3615587783
 20
524.8993479816
 30
0.0
 40
16.00000000000006
100
AcDbArc
 50
208.2092153407
 51
211.7907846593
  0
LINE
  5
39D
330
1F
100
AcDbEntity
  8
0
  6
SLD-実線
 62
     0
370
    35
100
AcDbLine
 10
487.2619198692
 20
517.3362678086
 30
0.0
 11
488.1283963156
 21
517.8365286609
 31
0.0
  0
LINE
  5
39E
330
1F
100
AcDbEntity
  8
0
  6
SLD-実線
 62
     0
370
    35
100
AcDbLine
 10
494.2987394576
 20
511.6661855189
 30
0.0
 11
495.2993808371
 21
513.3993479593
 31
0.0
  0
ARC
  5
39F
330
1F
100
AcDbEntity
  8
0
  6
SLD-実線
 62
     0
370
    35
100
AcDbCircle
 10
501.3615587783
 20
524.8993479816
 30
0.0
 40
15.00000000000014
100
AcDbArc
 50
238.0897868283
 51
241.9102131717
  0
LINE
  5
3A0
330
1F
100
AcDbEntity
  8
0
  6
SLD-実線
 62
     0
370
    35
100
AcDbLine
 10
494.4333556165
 20
513.8993480412
 30
0.0
 11
493.432714237
 21
512.1661856009
 31
0.0
  0
ARC
  5
3A1
330
1F
100
AcDbEntity
  8
0
  6
SLD-実線
 62
     0
370
    35
100
AcDbCircle
 10
501.3615587783
 20
524.8993479816
 30
0.0
 40
13.00000000000001
100
AcDbArc
 50
237.795772496
 51
242.204227504
  0
ARC
  5
3A2
330
1F
100
AcDbEntity
  8
0
  6
SLD-実線
 62
     0
370
    35
100
AcDbCircle
 10
501.3615587783
 20
524.8993479816
 30
0.0
 40
16.00000000000006
100
AcDbArc
 50
238.2092153407
 51
241.7907846593
  0
LINE
  5
3A3
330
1F
100
AcDbEntity
  8
0
  6
SLD-実線
 62
     0
370
    35
100
AcDbLine
 10
494.2987394576
 20
511.6661855189
 30
0.0
 11
493.7984786053
 21
510.7997090725
 31
0.0
  0
LINE
  5
3A4
330
1F
100
AcDbEntity
  8
0
  6
SLD-実線
 62
     0
370
    35
100
AcDbLine
 10
492.9324533847
 20
511.2997091545
 30
0.0
 11
493.432714237
 21
512.1661856009
 31
0.0
  0
LINE
  5
3A5
330
1F
100
AcDbEntity
  8
0
  6
SLD-実線
 62
     0
370
    35
100
AcDbLine
 10
501.8615588021
 20
509.907683654
 30
0.0
 11
501.8615588021
 21
511.9089673443
 31
0.0
  0
ARC
  5
3A6
330
1F
100
AcDbEntity
  8
0
  6
SLD-実線
 62
     0
370
    35
100
AcDbCircle
 10
501.3615587783
 20
524.8993479816
 30
0.0
 40
14.99999999999997
100
AcDbArc
 50
268.0897868283
 51
271.9102131717
  0
LINE
  5
3A7
330
1F
100
AcDbEntity
  8
0
  6
SLD-実線
 62
     0
370
    35
100
AcDbLine
 10
500.8615587546
 20
511.9089673443
 30
0.0
 11
500.8615587546
 21
509.907683654
 31
0.0
  0
ARC
  5
3A8
330
1F
100
AcDbEntity
  8
0
  6
SLD-実線
 62
     0
370
    35
100
AcDbCircle
 10
501.3615587783
 20
524.8993479816
 30
0.0
 40
13.0
100
AcDbArc
 50
267.795772496
 51
272.204227504
  0
LINE
  5
3A9
330
1F
100
AcDbEntity
  8
0
  6
SLD-実線
 62
     0
370
    35
100
AcDbLine
 10
516.353223106
 20
525.3993480054
 30
0.0
 11
514.3519394157
 21
525.3993480054
 31
0.0
  0
ARC
  5
3AA
330
1F
100
AcDbEntity
  8
0
  6
SLD-実線
 62
     0
370
    35
100
AcDbCircle
 10
501.3615587783
 20
524.8993479816
 30
0.0
 40
14.99999999999991
100
AcDbArc
 50
358.0897868283
 51
1.9102131717
  0
LINE
  5
3AB
330
1F
100
AcDbEntity
  8
0
  6
SLD-実線
 62
     0
370
    35
100
AcDbLine
 10
514.3519394157
 20
524.3993479579
 30
0.0
 11
516.353223106
 21
524.3993479579
 31
0.0
  0
ARC
  5
3AC
330
1F
100
AcDbEntity
  8
0
  6
SLD-実線
 62
     0
370
    35
100
AcDbCircle
 10
501.3615587783
 20
524.8993479816
 30
0.0
 40
12.99999999999994
100
AcDbArc
 50
357.795772496
 51
2.204227504
  0
ARC
  5
3AD
330
1F
100
AcDbEntity
  8
0
  6
SLD-実線
 62
     0
370
    35
100
AcDbCircle
 10
501.3615587783
 20
524.8993479816
 30
0.0
 40
16.0
100
AcDbArc
 50
268.2092153407
 51
271.7907846593
  0
LINE
  5
3AE
330
1F
100
AcDbEntity
  8
0
  6
SLD-実線
 62
     0
370
    35
100
AcDbLine
 10
501.8615588021
 20
509.907683654
 30
0.0
 11
501.8615588021
 21
508.9071628807
 31
0.0
  0
LINE
  5
3AF
330
1F
100
AcDbEntity
  8
0
  6
SLD-実線
 62
     0
370
    35
100
AcDbLine
 10
500.8615587546
 20
508.9071628807
 30
0.0
 11
500.8615587546
 21
509.907683654
 31
0.0
  0
ARC
  5
3B0
330
1F
100
AcDbEntity
  8
0
  6
SLD-実線
 62
     0
370
    35
100
AcDbCircle
 10
501.3615587783
 20
524.8993479816
 30
0.0
 40
15.99999999999989
100
AcDbArc
 50
358.2092153406999
 51
1.7907846593
  0
LINE
  5
3B1
330
1F
100
AcDbEntity
  8
0
  6
SLD-実線
 62
     0
370
    35
100
AcDbLine
 10
517.3537438792
 20
524.3993479579
 30
0.0
 11
516.353223106
 21
524.3993479579
 31
0.0
  0
LINE
  5
3B2
330
1F
100
AcDbEntity
  8
0
  6
SLD-実線
 62
     0
370
    35
100
AcDbLine
 10
516.353223106
 20
525.3993480054
 30
0.0
 11
517.3537438792
 21
525.3993480054
 31
0.0
  0
LINE
  5
3B3
330
1F
100
AcDbEntity
  8
0
  6
SLD-実線
 62
     0
370
    35
100
AcDbLine
 10
514.594721241
 20
517.8365286609
 30
0.0
 11
512.8615588007
 21
518.8371700404
 31
0.0
  0
ARC
  5
3B4
330
1F
100
AcDbEntity
  8
0
  6
SLD-実線
 62
     0
370
    35
100
AcDbCircle
 10
501.3615587783
 20
524.8993479816
 30
0.0
 40
14.99999999999995
100
AcDbArc
 50
328.0897868283
 51
331.9102131717
  0
LINE
  5
3B5
330
1F
100
AcDbEntity
  8
0
  6
SLD-実線
 62
     0
370
    35
100
AcDbLine
 10
512.3615587187
 20
517.9711448198
 30
0.0
 11
514.0947211591
 21
516.9705034403
 31
0.0
  0
ARC
  5
3B6
330
1F
100
AcDbEntity
  8
0
  6
SLD-実線
 62
     0
370
    35
100
AcDbCircle
 10
501.3615587783
 20
524.8993479816
 30
0.0
 40
12.99999999999999
100
AcDbArc
 50
327.795772496
 51
332.204227504
  0
LINE
  5
3B7
330
1F
100
AcDbEntity
  8
0
  6
SLD-実線
 62
     0
370
    35
100
AcDbLine
 10
509.2904033196
 20
512.1661856009
 30
0.0
 11
508.2897619401
 21
513.8993480412
 31
0.0
  0
ARC
  5
3B8
330
1F
100
AcDbEntity
  8
0
  6
SLD-実線
 62
     0
370
    35
100
AcDbCircle
 10
501.3615587783
 20
524.8993479816
 30
0.0
 40
15.00000000000012
100
AcDbArc
 50
298.0897868283
 51
301.9102131717
  0
LINE
  5
3B9
330
1F
100
AcDbEntity
  8
0
  6
SLD-実線
 62
     0
370
    35
100
AcDbLine
 10
507.4237367195
 20
513.3993479593
 30
0.0
 11
508.424378099
 21
511.6661855189
 31
0.0
  0
ARC
  5
3BA
330
1F
100
AcDbEntity
  8
0
  6
SLD-実線
 62
     0
370
    35
100
AcDbCircle
 10
501.3615587783
 20
524.8993479816
 30
0.0
 40
13.00000000000002
100
AcDbArc
 50
297.795772496
 51
302.204227504
  0
ARC
  5
3BB
330
1F
100
AcDbEntity
  8
0
  6
SLD-実線
 62
     0
370
    35
100
AcDbCircle
 10
501.3615587783
 20
524.8993479816
 30
0.0
 40
15.99999999999996
100
AcDbArc
 50
298.2092153407
 51
301.7907846593
  0
LINE
  5
3BC
330
1F
100
AcDbEntity
  8
0
  6
SLD-実線
 62
     0
370
    35
100
AcDbLine
 10
509.2904033196
 20
512.1661856009
 30
0.0
 11
509.7906641719
 21
511.2997091545
 31
0.0
  0
LINE
  5
3BD
330
1F
100
AcDbEntity
  8
0
  6
SLD-実線
 62
     0
370
    35
100
AcDbLine
 10
508.9246389513
 20
510.7997090725
 30
0.0
 11
508.424378099
 21
511.6661855189
 31
0.0
  0
ARC
  5
3BE
330
1F
100
AcDbEntity
  8
0
  6
SLD-実線
 62
     0
370
    35
100
AcDbCircle
 10
501.3615587783
 20
524.8993479816
 30
0.0
 40
15.99999999999991
100
AcDbArc
 50
328.2092153407
 51
331.7907846593
  0
LINE
  5
3BF
330
1F
100
AcDbEntity
  8
0
  6
SLD-実線
 62
     0
370
    35
100
AcDbLine
 10
514.9611976055
 20
516.470242588
 30
0.0
 11
514.0947211591
 21
516.9705034403
 31
0.0
  0
LINE
  5
3C0
330
1F
100
AcDbEntity
  8
0
  6
SLD-実線
 62
     0
370
    35
100
AcDbLine
 10
514.594721241
 20
517.8365286609
 30
0.0
 11
515.4611976874
 21
517.3362678086
 31
0.0
  0
ARC
  5
3C1
330
1F
100
AcDbEntity
  8
0
  6
SLD-実線
 62
     0
370
    35
100
AcDbCircle
 10
501.3615587783
 20
524.8993479816
 30
0.0
 40
14.00000000000007
100
AcDbArc
 50
2.0467130977
 51
177.9532869023
  0
ARC
  5
3C2
330
1F
100
AcDbEntity
  8
0
  6
SLD-実線
 62
     0
370
    35
100
AcDbCircle
 10
501.3615587783
 20
524.8993479816
 30
0.0
 40
15.99999999999999
100
AcDbArc
 50
1.7907846593
 51
133.4325365578
  0
ARC
  5
3C3
330
1F
100
AcDbEntity
  8
0
  6
SLD-実線
 62
     0
370
    35
100
AcDbCircle
 10
501.3615587783
 20
524.8993479816
 30
0.0
 40
16.00000000000006
100
AcDbArc
 50
133.4325365578
 51
178.2092153407
  0
ARC
  5
3C4
330
1F
100
AcDbEntity
  8
0
  6
SLD-実線
 62
     0
370
    35
100
AcDbCircle
 10
501.3615587783
 20
524.8993479816
 30
0.0
 40
13.00000000000003
100
AcDbArc
 50
127.167890185
 51
177.795772496
  0
ARC
  5
3C5
330
1F
100
AcDbEntity
  8
0
  6
SLD-実線
 62
     0
370
    35
100
AcDbCircle
 10
501.3615587783
 20
524.8993479816
 30
0.0
 40
12.99999999999998
100
AcDbArc
 50
2.204227504
 51
52.832109815
  0
ARC
  5
3C6
330
1F
100
AcDbEntity
  8
0
  6
SLD-実線
 62
     0
370
    35
100
AcDbCircle
 10
501.3615587783
 20
524.8993479816
 30
0.0
 40
14.00000000000007
100
AcDbArc
 50
182.0467130977
 51
187.9532869023
  0
ARC
  5
3C7
330
1F
100
AcDbEntity
  8
0
  6
SLD-実線
 62
     0
370
    35
100
AcDbCircle
 10
501.3615587783
 20
524.8993479816
 30
0.0
 40
16.0000000000001
100
AcDbArc
 50
181.7907846593
 51
188.2092153407
  0
ARC
  5
3C8
330
1F
100
AcDbEntity
  8
0
  6
SLD-実線
 62
     0
370
    35
100
AcDbCircle
 10
501.3615587783
 20
524.8993479816
 30
0.0
 40
14.00000000000007
100
AcDbArc
 50
192.0467130977
 51
197.9532869023
  0
LINE
  5
3C9
330
1F
100
AcDbEntity
  8
0
  6
SLD-実線
 62
     0
370
    35
100
AcDbLine
 10
486.2903390137
 20
521.7341720762
 30
0.0
 11
487.6698698906
 21
521.9774204942
 31
0.0
  0
ARC
  5
3CA
330
1F
100
AcDbEntity
  8
0
  6
SLD-実線
 62
     0
370
    35
100
AcDbCircle
 10
501.3615587783
 20
524.8993479816
 30
0.0
 40
15.40000000000008
100
AcDbArc
 50
188.1394204353
 51
191.8605795647
  0
LINE
  5
3CB
330
1F
100
AcDbEntity
  8
0
  6
SLD-実線
 62
     0
370
    35
100
AcDbLine
 10
487.4962220026
 20
522.9622283422
 30
0.0
 11
486.1166911257
 21
522.7189798078
 31
0.0
  0
ARC
  5
3CC
330
1F
100
AcDbEntity
  8
0
  6
SLD-実線
 62
     0
370
    35
100
AcDbCircle
 10
501.3615587783
 20
524.8993479816
 30
0.0
 40
14.00000000000002
100
AcDbArc
 50
202.0467130977
 51
207.9532869023
  0
LINE
  5
3CD
330
1F
100
AcDbEntity
  8
0
  6
SLD-実線
 62
     0
370
    35
100
AcDbLine
 10
487.0689321366
 20
519.165168347
 30
0.0
 11
488.3852653263
 21
519.644274207
 31
0.0
  0
ARC
  5
3CE
330
1F
100
AcDbEntity
  8
0
  6
SLD-実線
 62
     0
370
    35
100
AcDbCircle
 10
501.3615587783
 20
524.8993479816
 30
0.0
 40
15.40000000000009
100
AcDbArc
 50
198.1394204353
 51
201.8605795647
  0
LINE
  5
3CF
330
1F
100
AcDbEntity
  8
0
  6
SLD-実線
 62
     0
370
    35
100
AcDbLine
 10
488.0432445613
 20
520.5839670433
 30
0.0
 11
486.7269113717
 21
520.1048611833
 31
0.0
  0
ARC
  5
3D0
330
1F
100
AcDbEntity
  8
0
  6
SLD-実線
 62
     0
370
    35
100
AcDbCircle
 10
501.3615587783
 20
524.8993479816
 30
0.0
 40
13.0
100
AcDbArc
 50
182.204227504
 51
207.795772496
  0
LINE
  5
3D1
330
1F
100
AcDbEntity
  8
0
  6
SLD-実線
 62
     0
370
    35
100
AcDbLine
 10
486.2903390137
 20
521.7341720762
 30
0.0
 11
485.6991550011
 21
521.6299303046
 31
0.0
  0
LINE
  5
3D2
330
1F
100
AcDbEntity
  8
0
  6
SLD-実線
 62
     0
370
    35
100
AcDbLine
 10
485.5255061818
 20
522.6147380361
 30
0.0
 11
486.1166911257
 21
522.7189798078
 31
0.0
  0
ARC
  5
3D3
330
1F
100
AcDbEntity
  8
0
  6
SLD-実線
 62
     0
370
    35
100
AcDbCircle
 10
501.3615587783
 20
524.8993479816
 30
0.0
 40
16.0000000000001
100
AcDbArc
 50
188.2092153407
 51
191.7907846593
  0
ARC
  5
3D4
330
1F
100
AcDbEntity
  8
0
  6
SLD-実線
 62
     0
370
    35
100
AcDbCircle
 10
501.3615587783
 20
524.8993479816
 30
0.0
 40
16.00000000000001
100
AcDbArc
 50
191.7907846593
 51
198.2092153407
  0
LINE
  5
3D5
330
1F
100
AcDbEntity
  8
0
  6
SLD-実線
 62
     0
370
    35
100
AcDbLine
 10
487.0689321366
 20
519.165168347
 30
0.0
 11
486.5048300532
 21
518.9598522319
 31
0.0
  0
LINE
  5
3D6
330
1F
100
AcDbEntity
  8
0
  6
SLD-実線
 62
     0
370
    35
100
AcDbLine
 10
486.1628102196
 20
519.8995446025
 30
0.0
 11
486.7269113717
 21
520.1048611833
 31
0.0
  0
ARC
  5
3D7
330
1F
100
AcDbEntity
  8
0
  6
SLD-実線
 62
     0
370
    35
100
AcDbCircle
 10
501.3615587783
 20
524.8993479816
 30
0.0
 40
16.00000000000003
100
AcDbArc
 50
198.2092153407
 51
201.7907846593
  0
ARC
  5
3D8
330
1F
100
AcDbEntity
  8
0
  6
SLD-実線
 62
     0
370
    35
100
AcDbCircle
 10
501.3615587783
 20
524.8993479816
 30
0.0
 40
16.00000000000006
100
AcDbArc
 50
201.7907846593
 51
208.2092153407
  0
ARC
  5
3D9
330
1F
100
AcDbEntity
  8
0
  6
SLD-実線
 62
     0
370
    35
100
AcDbCircle
 10
501.3615587783
 20
524.8993479816
 30
0.0
 40
14.00000000000005
100
AcDbArc
 50
212.0467130977
 51
217.9532869023
  0
ARC
  5
3DA
330
1F
100
AcDbEntity
  8
0
  6
SLD-実線
 62
     0
370
    35
100
AcDbCircle
 10
501.3615587783
 20
524.8993479816
 30
0.0
 40
16.00000000000004
100
AcDbArc
 50
211.7907846593
 51
218.2092153407
  0
ARC
  5
3DB
330
1F
100
AcDbEntity
  8
0
  6
SLD-実線
 62
     0
370
    35
100
AcDbCircle
 10
501.3615587783
 20
524.8993479816
 30
0.0
 40
14.00000000000005
100
AcDbArc
 50
222.0467130977
 51
227.9532869023
  0
LINE
  5
3DC
330
1F
100
AcDbEntity
  8
0
  6
SLD-実線
 62
     0
370
    35
100
AcDbLine
 10
489.89208751
 20
514.6226150153
 30
0.0
 11
490.9651722816
 21
515.5230400322
 31
0.0
  0
ARC
  5
3DD
330
1F
100
AcDbEntity
  8
0
  6
SLD-実線
 62
     0
370
    35
100
AcDbCircle
 10
501.3615587783
 20
524.8993479816
 30
0.0
 40
15.40000000000008
100
AcDbArc
 50
218.1394204353
 51
221.8605795647
  0
LINE
  5
3DE
330
1F
100
AcDbEntity
  8
0
  6
SLD-実線
 62
     0
370
    35
100
AcDbLine
 10
490.3223846165
 20
516.2890845148
 30
0.0
 11
489.2492998449
 21
515.3886594979
 31
0.0
  0
ARC
  5
3DF
330
1F
100
AcDbEntity
  8
0
  6
SLD-実線
 62
     0
370
    35
100
AcDbCircle
 10
501.3615587783
 20
524.8993479816
 30
0.0
 40
14.00000000000001
100
AcDbArc
 50
232.0467130977
 51
237.9532869023
  0
LINE
  5
3E0
330
1F
100
AcDbEntity
  8
0
  6
SLD-実線
 62
     0
370
    35
100
AcDbLine
 10
491.8508702946
 20
512.7870890481
 30
0.0
 11
492.7512953115
 21
513.8601738198
 31
0.0
  0
ARC
  5
3E1
330
1F
100
AcDbEntity
  8
0
  6
SLD-実線
 62
     0
370
    35
100
AcDbCircle
 10
501.3615587783
 20
524.8993479816
 30
0.0
 40
15.40000000000009
100
AcDbArc
 50
228.1394204353
 51
231.8605795647
  0
LINE
  5
3E2
330
1F
100
AcDbEntity
  8
0
  6
SLD-実線
 62
     0
370
    35
100
AcDbLine
 10
491.9852508289
 20
514.5029614849
 30
0.0
 11
491.084825812
 21
513.4298767133
 31
0.0
  0
ARC
  5
3E3
330
1F
100
AcDbEntity
  8
0
  6
SLD-実線
 62
     0
370
    35
100
AcDbCircle
 10
501.3615587783
 20
524.8993479816
 30
0.0
 40
13.00000000000009
100
AcDbArc
 50
212.2042275039999
 51
237.795772496
  0
LINE
  5
3E4
330
1F
100
AcDbEntity
  8
0
  6
SLD-実線
 62
     0
370
    35
100
AcDbLine
 10
489.89208751
 20
514.6226150153
 30
0.0
 11
489.432227431
 21
514.2367466522
 31
0.0
  0
LINE
  5
3E5
330
1F
100
AcDbEntity
  8
0
  6
SLD-実線
 62
     0
370
    35
100
AcDbLine
 10
488.7894397659
 20
515.0027911348
 30
0.0
 11
489.2492998449
 21
515.3886594979
 31
0.0
  0
ARC
  5
3E6
330
1F
100
AcDbEntity
  8
0
  6
SLD-実線
 62
     0
370
    35
100
AcDbCircle
 10
501.3615587783
 20
524.8993479816
 30
0.0
 40
16.00000000000004
100
AcDbArc
 50
218.2092153407
 51
221.7907846593
  0
ARC
  5
3E7
330
1F
100
AcDbEntity
  8
0
  6
SLD-実線
 62
     0
370
    35
100
AcDbCircle
 10
501.3615587783
 20
524.8993479816
 30
0.0
 40
16.00000000000004
100
AcDbArc
 50
221.7907846593
 51
228.2092153407
  0
ARC
  5
3E8
330
1F
100
AcDbEntity
  8
0
  6
SLD-実線
 62
     0
370
    35
100
AcDbCircle
 10
501.3615587783
 20
524.8993479816
 30
0.0
 40
16.00000000000004
100
AcDbArc
 50
231.7907846593
 51
238.2092153407
  0
LINE
  5
3E9
330
1F
100
AcDbEntity
  8
0
  6
SLD-実線
 62
     0
370
    35
100
AcDbLine
 10
491.8508702946
 20
512.7870890481
 30
0.0
 11
491.4650019315
 21
512.3272289692
 31
0.0
  0
LINE
  5
3EA
330
1F
100
AcDbEntity
  8
0
  6
SLD-実線
 62
     0
370
    35
100
AcDbLine
 10
490.6989574489
 20
512.9700166343
 30
0.0
 11
491.084825812
 21
513.4298767133
 31
0.0
  0
ARC
  5
3EB
330
1F
100
AcDbEntity
  8
0
  6
SLD-実線
 62
     0
370
    35
100
AcDbCircle
 10
501.3615587783
 20
524.8993479816
 30
0.0
 40
16.00000000000004
100
AcDbArc
 50
228.2092153407
 51
231.7907846593
  0
ARC
  5
3EC
330
1F
100
AcDbEntity
  8
0
  6
SLD-実線
 62
     0
370
    35
100
AcDbCircle
 10
501.3615587783
 20
524.8993479816
 30
0.0
 40
14.00000000000003
100
AcDbArc
 50
252.0467130977
 51
257.9532869023001
  0
LINE
  5
3ED
330
1F
100
AcDbEntity
  8
0
  6
SLD-実線
 62
     0
370
    35
100
AcDbLine
 10
496.56707198
 20
510.264700575
 30
0.0
 11
497.04617784
 21
511.5810337646
 31
0.0
  0
ARC
  5
3EE
330
1F
100
AcDbEntity
  8
0
  6
SLD-実線
 62
     0
370
    35
100
AcDbCircle
 10
501.3615587783
 20
524.8993479816
 30
0.0
 40
15.40000000000002
100
AcDbArc
 50
248.1394204353
 51
251.8605795647
  0
LINE
  5
3EF
330
1F
100
AcDbEntity
  8
0
  6
SLD-実線
 62
     0
370
    35
100
AcDbLine
 10
496.1064850037
 20
511.9230545295
 30
0.0
 11
495.6273791437
 21
510.6067213399
 31
0.0
  0
ARC
  5
3F0
330
1F
100
AcDbEntity
  8
0
  6
SLD-実線
 62
     0
370
    35
100
AcDbCircle
 10
501.3615587783
 20
524.8993479816
 30
0.0
 40
14.00000000000004
100
AcDbArc
 50
242.0467130977
 51
247.9532869023
  0
ARC
  5
3F1
330
1F
100
AcDbEntity
  8
0
  6
SLD-実線
 62
     0
370
    35
100
AcDbCircle
 10
501.3615587783
 20
524.8993479816
 30
0.0
 40
14.00000000000001
100
AcDbArc
 50
262.0467130977
 51
267.9532869023001
  0
LINE
  5
3F2
330
1F
100
AcDbEntity
  8
0
  6
SLD-実線
 62
     0
370
    35
100
AcDbLine
 10
499.1811906045
 20
509.654480329
 30
0.0
 11
499.4244391389
 21
511.0340112059
 31
0.0
  0
ARC
  5
3F3
330
1F
100
AcDbEntity
  8
0
  6
SLD-実線
 62
     0
370
    35
100
AcDbCircle
 10
501.3615587783
 20
524.8993479816
 30
0.0
 40
15.40000000000002
100
AcDbArc
 50
258.1394204353
 51
261.8605795647
  0
LINE
  5
3F4
330
1F
100
AcDbEntity
  8
0
  6
SLD-実線
 62
     0
370
    35
100
AcDbLine
 10
498.4396312909
 20
511.2076590939
 30
0.0
 11
498.1963828729
 21
509.828128217
 31
0.0
  0
ARC
  5
3F5
330
1F
100
AcDbEntity
  8
0
  6
SLD-実線
 62
     0
370
    35
100
AcDbCircle
 10
501.3615587783
 20
524.8993479816
 30
0.0
 40
13.0
100
AcDbArc
 50
242.204227504
 51
267.795772496
  0
ARC
  5
3F6
330
1F
100
AcDbEntity
  8
0
  6
SLD-実線
 62
     0
370
    35
100
AcDbCircle
 10
501.3615587783
 20
524.8993479816
 30
0.0
 40
16.00000000000006
100
AcDbArc
 50
241.7907846593
 51
248.2092153407
  0
ARC
  5
3F7
330
1F
100
AcDbEntity
  8
0
  6
SLD-実線
 62
     0
370
    35
100
AcDbCircle
 10
501.3615587783
 20
524.8993479816
 30
0.0
 40
16.00000000000002
100
AcDbArc
 50
251.7907846593
 51
258.2092153406999
  0
LINE
  5
3F8
330
1F
100
AcDbEntity
  8
0
  6
SLD-実線
 62
     0
370
    35
100
AcDbLine
 10
496.56707198
 20
510.264700575
 30
0.0
 11
496.3617553992
 21
509.7005994229
 31
0.0
  0
LINE
  5
3F9
330
1F
100
AcDbEntity
  8
0
  6
SLD-実線
 62
     0
370
    35
100
AcDbLine
 10
495.4220630286
 20
510.0426192565
 30
0.0
 11
495.6273791437
 21
510.6067213399
 31
0.0
  0
ARC
  5
3FA
330
1F
100
AcDbEntity
  8
0
  6
SLD-実線
 62
     0
370
    35
100
AcDbCircle
 10
501.3615587783
 20
524.8993479816
 30
0.0
 40
16.00000000000002
100
AcDbArc
 50
248.2092153407
 51
251.7907846593
  0
ARC
  5
3FB
330
1F
100
AcDbEntity
  8
0
  6
SLD-実線
 62
     0
370
    35
100
AcDbCircle
 10
501.3615587783
 20
524.8993479816
 30
0.0
 40
14.00000000000002
100
AcDbArc
 50
282.0467130977
 51
287.9532869023
  0
LINE
  5
3FC
330
1F
100
AcDbEntity
  8
0
  6
SLD-実線
 62
     0
370
    35
100
AcDbLine
 10
504.5267346838
 20
509.828128217
 30
0.0
 11
504.2834862658
 21
511.2076590939
 31
0.0
  0
ARC
  5
3FD
330
1F
100
AcDbEntity
  8
0
  6
SLD-実線
 62
     0
370
    35
100
AcDbCircle
 10
501.3615587783
 20
524.8993479816
 30
0.0
 40
15.40000000000003
100
AcDbArc
 50
278.1394204353
 51
281.8605795647
  0
LINE
  5
3FE
330
1F
100
AcDbEntity
  8
0
  6
SLD-実線
 62
     0
370
    35
100
AcDbLine
 10
503.2986784178
 20
511.0340112059
 30
0.0
 11
503.5419269522
 21
509.654480329
 31
0.0
  0
ARC
  5
3FF
330
1F
100
AcDbEntity
  8
0
  6
SLD-実線
 62
     0
370
    35
100
AcDbCircle
 10
501.3615587783
 20
524.8993479816
 30
0.0
 40
14.00000000000001
100
AcDbArc
 50
272.0467130976999
 51
277.9532869023
  0
ARC
  5
400
330
1F
100
AcDbEntity
  8
0
  6
SLD-実線
 62
     0
370
    35
100
AcDbCircle
 10
501.3615587783
 20
524.8993479816
 30
0.0
 40
13.99999999999999
100
AcDbArc
 50
292.0467130977
 51
297.9532869023
  0
LINE
  5
401
330
1F
100
AcDbEntity
  8
0
  6
SLD-実線
 62
     0
370
    35
100
AcDbLine
 10
507.0957384129
 20
510.6067213399
 30
0.0
 11
506.6166325529
 21
511.9230545295
 31
0.0
  0
ARC
  5
402
330
1F
100
AcDbEntity
  8
0
  6
SLD-実線
 62
     0
370
    35
100
AcDbCircle
 10
501.3615587783
 20
524.8993479816
 30
0.0
 40
15.40000000000004
100
AcDbArc
 50
288.1394204353
 51
291.8605795647
  0
LINE
  5
403
330
1F
100
AcDbEntity
  8
0
  6
SLD-実線
 62
     0
370
    35
100
AcDbLine
 10
505.6769397167
 20
511.5810337646
 30
0.0
 11
506.1560455767
 21
510.264700575
 31
0.0
  0
ARC
  5
404
330
1F
100
AcDbEntity
  8
0
  6
SLD-実線
 62
     0
370
    35
100
AcDbCircle
 10
501.3615587783
 20
524.8993479816
 30
0.0
 40
13.00000000000002
100
AcDbArc
 50
272.204227504
 51
297.795772496
  0
LINE
  5
405
330
1F
100
AcDbEntity
  8
0
  6
SLD-実線
 62
     0
370
    35
100
AcDbLine
 10
499.1811906045
 20
509.654480329
 30
0.0
 11
499.0769488328
 21
509.0632953851
 31
0.0
  0
LINE
  5
406
330
1F
100
AcDbEntity
  8
0
  6
SLD-実線
 62
     0
370
    35
100
AcDbLine
 10
498.0921411013
 20
509.2369442044
 30
0.0
 11
498.1963828729
 21
509.828128217
 31
0.0
  0
ARC
  5
407
330
1F
100
AcDbEntity
  8
0
  6
SLD-実線
 62
     0
370
    35
100
AcDbCircle
 10
501.3615587783
 20
524.8993479816
 30
0.0
 40
16.00000000000002
100
AcDbArc
 50
258.2092153406999
 51
261.7907846593
  0
ARC
  5
408
330
1F
100
AcDbEntity
  8
0
  6
SLD-実線
 62
     0
370
    35
100
AcDbCircle
 10
501.3615587783
 20
524.8993479816
 30
0.0
 40
13.99999999999994
100
AcDbArc
 50
342.0467130977
 51
347.9532869023
  0
LINE
  5
409
330
1F
100
AcDbEntity
  8
0
  6
SLD-実線
 62
     0
370
    35
100
AcDbLine
 10
515.996206185
 20
520.1048611833
 30
0.0
 11
514.6798729954
 21
520.5839670433
 31
0.0
  0
ARC
  5
40A
330
1F
100
AcDbEntity
  8
0
  6
SLD-実線
 62
     0
370
    35
100
AcDbCircle
 10
501.3615587783
 20
524.8993479816
 30
0.0
 40
15.40000000000005
100
AcDbArc
 50
338.1394204352999
 51
341.8605795647
  0
LINE
  5
40B
330
1F
100
AcDbEntity
  8
0
  6
SLD-実線
 62
     0
370
    35
100
AcDbLine
 10
514.3378522304
 20
519.644274207
 30
0.0
 11
515.65418542
 21
519.165168347
 31
0.0
  0
ARC
  5
40C
330
1F
100
AcDbEntity
  8
0
  6
SLD-実線
 62
     0
370
    35
100
AcDbCircle
 10
501.3615587783
 20
524.8993479816
 30
0.0
 40
13.99999999999992
100
AcDbArc
 50
332.0467130977
 51
337.9532869023001
  0
ARC
  5
40D
330
1F
100
AcDbEntity
  8
0
  6
SLD-実線
 62
     0
370
    35
100
AcDbCircle
 10
501.3615587783
 20
524.8993479816
 30
0.0
 40
14.00000000000003
100
AcDbArc
 50
352.0467130977
 51
357.9532869023
  0
LINE
  5
40E
330
1F
100
AcDbEntity
  8
0
  6
SLD-実線
 62
     0
370
    35
100
AcDbLine
 10
516.606426431
 20
522.7189798078
 30
0.0
 11
515.2268955541
 21
522.9622283422
 31
0.0
  0
ARC
  5
40F
330
1F
100
AcDbEntity
  8
0
  6
SLD-実線
 62
     0
370
    35
100
AcDbCircle
 10
501.3615587783
 20
524.8993479816
 30
0.0
 40
15.39999999999995
100
AcDbArc
 50
348.1394204353
 51
351.8605795647
  0
LINE
  5
410
330
1F
100
AcDbEntity
  8
0
  6
SLD-実線
 62
     0
370
    35
100
AcDbLine
 10
515.0532476661
 20
521.9774204942
 30
0.0
 11
516.432778543
 21
521.7341720762
 31
0.0
  0
ARC
  5
411
330
1F
100
AcDbEntity
  8
0
  6
SLD-実線
 62
     0
370
    35
100
AcDbCircle
 10
501.3615587783
 20
524.8993479816
 30
0.0
 40
12.99999999999999
100
AcDbArc
 50
332.204227504
 51
357.795772496
  0
ARC
  5
412
330
1F
100
AcDbEntity
  8
0
  6
SLD-実線
 62
     0
370
    35
100
AcDbCircle
 10
501.3615587783
 20
524.8993479816
 30
0.0
 40
16.0
100
AcDbArc
 50
261.7907846593
 51
268.2092153407
  0
ARC
  5
413
330
1F
100
AcDbEntity
  8
0
  6
SLD-実線
 62
     0
370
    35
100
AcDbCircle
 10
501.3615587783
 20
524.8993479816
 30
0.0
 40
14.00000000000001
100
AcDbArc
 50
312.0467130977
 51
317.9532869023
  0
LINE
  5
414
330
1F
100
AcDbEntity
  8
0
  6
SLD-実線
 62
     0
370
    35
100
AcDbLine
 10
511.6382917446
 20
513.4298767133
 30
0.0
 11
510.7378667278
 21
514.5029614849
 31
0.0
  0
ARC
  5
415
330
1F
100
AcDbEntity
  8
0
  6
SLD-実線
 62
     0
370
    35
100
AcDbCircle
 10
501.3615587783
 20
524.8993479816
 30
0.0
 40
15.40000000000016
100
AcDbArc
 50
308.1394204353
 51
311.8605795647
  0
LINE
  5
416
330
1F
100
AcDbEntity
  8
0
  6
SLD-実線
 62
     0
370
    35
100
AcDbLine
 10
509.9718222452
 20
513.8601738198
 30
0.0
 11
510.872247262
 21
512.7870890481
 31
0.0
  0
ARC
  5
417
330
1F
100
AcDbEntity
  8
0
  6
SLD-実線
 62
     0
370
    35
100
AcDbCircle
 10
501.3615587783
 20
524.8993479816
 30
0.0
 40
14.00000000000004
100
AcDbArc
 50
302.0467130977
 51
307.9532869023
  0
ARC
  5
418
330
1F
100
AcDbEntity
  8
0
  6
SLD-実線
 62
     0
370
    35
100
AcDbCircle
 10
501.3615587783
 20
524.8993479816
 30
0.0
 40
13.99999999999997
100
AcDbArc
 50
322.0467130977
 51
327.9532869023
  0
LINE
  5
419
330
1F
100
AcDbEntity
  8
0
  6
SLD-実線
 62
     0
370
    35
100
AcDbLine
 10
513.4738177118
 20
515.3886594979
 30
0.0
 11
512.4007329402
 21
516.2890845148
 31
0.0
  0
ARC
  5
41A
330
1F
100
AcDbEntity
  8
0
  6
SLD-実線
 62
     0
370
    35
100
AcDbCircle
 10
501.3615587783
 20
524.8993479816
 30
0.0
 40
15.40000000000005
100
AcDbArc
 50
318.1394204353
 51
321.8605795647
  0
LINE
  5
41B
330
1F
100
AcDbEntity
  8
0
  6
SLD-実線
 62
     0
370
    35
100
AcDbLine
 10
511.7579452751
 20
515.5230400322
 30
0.0
 11
512.8310300467
 21
514.6226150153
 31
0.0
  0
ARC
  5
41C
330
1F
100
AcDbEntity
  8
0
  6
SLD-実線
 62
     0
370
    35
100
AcDbCircle
 10
501.3615587783
 20
524.8993479816
 30
0.0
 40
12.99999999999998
100
AcDbArc
 50
302.204227504
 51
327.795772496
  0
ARC
  5
41D
330
1F
100
AcDbEntity
  8
0
  6
SLD-実線
 62
     0
370
    35
100
AcDbCircle
 10
501.3615587783
 20
524.8993479816
 30
0.0
 40
16.0
100
AcDbArc
 50
271.7907846593
 51
278.2092153407
  0
ARC
  5
41E
330
1F
100
AcDbEntity
  8
0
  6
SLD-実線
 62
     0
370
    35
100
AcDbCircle
 10
501.3615587783
 20
524.8993479816
 30
0.0
 40
15.99999999999993
100
AcDbArc
 50
351.7907846593
 51
358.2092153406999
  0
ARC
  5
41F
330
1F
100
AcDbEntity
  8
0
  6
SLD-実線
 62
     0
370
    35
100
AcDbCircle
 10
501.3615587783
 20
524.8993479816
 30
0.0
 40
15.99999999999997
100
AcDbArc
 50
281.7907846593
 51
288.2092153407
  0
ARC
  5
420
330
1F
100
AcDbEntity
  8
0
  6
SLD-実線
 62
     0
370
    35
100
AcDbCircle
 10
501.3615587783
 20
524.8993479816
 30
0.0
 40
15.99999999999995
100
AcDbArc
 50
341.7907846593
 51
348.2092153407
  0
LINE
  5
421
330
1F
100
AcDbEntity
  8
0
  6
SLD-実線
 62
     0
370
    35
100
AcDbLine
 10
504.5267346838
 20
509.828128217
 30
0.0
 11
504.6309764554
 21
509.2369442044
 31
0.0
  0
LINE
  5
422
330
1F
100
AcDbEntity
  8
0
  6
SLD-実線
 62
     0
370
    35
100
AcDbLine
 10
503.6461687238
 20
509.0632953851
 30
0.0
 11
503.5419269522
 21
509.654480329
 31
0.0
  0
ARC
  5
423
330
1F
100
AcDbEntity
  8
0
  6
SLD-実線
 62
     0
370
    35
100
AcDbCircle
 10
501.3615587783
 20
524.8993479816
 30
0.0
 40
16.0
100
AcDbArc
 50
278.2092153407
 51
281.7907846593
  0
LINE
  5
424
330
1F
100
AcDbEntity
  8
0
  6
SLD-実線
 62
     0
370
    35
100
AcDbLine
 10
517.0239625556
 20
521.6299303046
 30
0.0
 11
516.432778543
 21
521.7341720762
 31
0.0
  0
LINE
  5
425
330
1F
100
AcDbEntity
  8
0
  6
SLD-実線
 62
     0
370
    35
100
AcDbLine
 10
516.606426431
 20
522.7189798078
 30
0.0
 11
517.1976113749
 21
522.6147380361
 31
0.0
  0
ARC
  5
426
330
1F
100
AcDbEntity
  8
0
  6
SLD-実線
 62
     0
370
    35
100
AcDbCircle
 10
501.3615587783
 20
524.8993479816
 30
0.0
 40
15.99999999999993
100
AcDbArc
 50
348.2092153407
 51
351.7907846593
  0
ARC
  5
427
330
1F
100
AcDbEntity
  8
0
  6
SLD-実線
 62
     0
370
    35
100
AcDbCircle
 10
501.3615587783
 20
524.8993479816
 30
0.0
 40
16.00000000000003
100
AcDbArc
 50
291.7907846593
 51
298.2092153407
  0
ARC
  5
428
330
1F
100
AcDbEntity
  8
0
  6
SLD-実線
 62
     0
370
    35
100
AcDbCircle
 10
501.3615587783
 20
524.8993479816
 30
0.0
 40
15.99999999999999
100
AcDbArc
 50
331.7907846593
 51
338.2092153407
  0
ARC
  5
429
330
1F
100
AcDbEntity
  8
0
  6
SLD-実線
 62
     0
370
    35
100
AcDbCircle
 10
501.3615587783
 20
524.8993479816
 30
0.0
 40
15.99999999999999
100
AcDbArc
 50
301.7907846593
 51
308.2092153407
  0
ARC
  5
42A
330
1F
100
AcDbEntity
  8
0
  6
SLD-実線
 62
     0
370
    35
100
AcDbCircle
 10
501.3615587783
 20
524.8993479816
 30
0.0
 40
15.99999999999997
100
AcDbArc
 50
321.7907846593
 51
328.2092153407
  0
ARC
  5
42B
330
1F
100
AcDbEntity
  8
0
  6
SLD-実線
 62
     0
370
    35
100
AcDbCircle
 10
501.3615587783
 20
524.8993479816
 30
0.0
 40
15.99999999999999
100
AcDbArc
 50
311.7907846593
 51
318.2092153407
  0
LINE
  5
42C
330
1F
100
AcDbEntity
  8
0
  6
SLD-実線
 62
     0
370
    35
100
AcDbLine
 10
507.0957384129
 20
510.6067213399
 30
0.0
 11
507.3010545281
 21
510.0426192565
 31
0.0
  0
LINE
  5
42D
330
1F
100
AcDbEntity
  8
0
  6
SLD-実線
 62
     0
370
    35
100
AcDbLine
 10
506.3613621575
 20
509.7005994229
 30
0.0
 11
506.1560455767
 21
510.264700575
 31
0.0
  0
ARC
  5
42E
330
1F
100
AcDbEntity
  8
0
  6
SLD-実線
 62
     0
370
    35
100
AcDbCircle
 10
501.3615587783
 20
524.8993479816
 30
0.0
 40
16.00000000000003
100
AcDbArc
 50
288.2092153407
 51
291.7907846593
  0
LINE
  5
42F
330
1F
100
AcDbEntity
  8
0
  6
SLD-実線
 62
     0
370
    35
100
AcDbLine
 10
516.2182875035
 20
518.9598522319
 30
0.0
 11
515.65418542
 21
519.165168347
 31
0.0
  0
LINE
  5
430
330
1F
100
AcDbEntity
  8
0
  6
SLD-実線
 62
     0
370
    35
100
AcDbLine
 10
515.996206185
 20
520.1048611833
 30
0.0
 11
516.5603073371
 21
519.8995446025
 31
0.0
  0
ARC
  5
431
330
1F
100
AcDbEntity
  8
0
  6
SLD-実線
 62
     0
370
    35
100
AcDbCircle
 10
501.3615587783
 20
524.8993479816
 30
0.0
 40
15.99999999999999
100
AcDbArc
 50
338.2092153407
 51
341.7907846593
  0
LINE
  5
432
330
1F
100
AcDbEntity
  8
0
  6
SLD-実線
 62
     0
370
    35
100
AcDbLine
 10
513.2908901257
 20
514.2367466522
 30
0.0
 11
512.8310300467
 21
514.6226150153
 31
0.0
  0
LINE
  5
433
330
1F
100
AcDbEntity
  8
0
  6
SLD-実線
 62
     0
370
    35
100
AcDbLine
 10
513.4738177118
 20
515.3886594979
 30
0.0
 11
513.9336777908
 21
515.0027911348
 31
0.0
  0
ARC
  5
434
330
1F
100
AcDbEntity
  8
0
  6
SLD-実線
 62
     0
370
    35
100
AcDbCircle
 10
501.3615587783
 20
524.8993479816
 30
0.0
 40
15.99999999999999
100
AcDbArc
 50
318.2092153407
 51
321.7907846593
  0
LINE
  5
435
330
1F
100
AcDbEntity
  8
0
  6
SLD-実線
 62
     0
370
    35
100
AcDbLine
 10
511.6382917446
 20
513.4298767133
 30
0.0
 11
512.0241601077
 21
512.9700166343
 31
0.0
  0
LINE
  5
436
330
1F
100
AcDbEntity
  8
0
  6
SLD-実線
 62
     0
370
    35
100
AcDbLine
 10
511.2581156251
 20
512.3272289692
 30
0.0
 11
510.872247262
 21
512.7870890481
 31
0.0
  0
ARC
  5
437
330
1F
100
AcDbEntity
  8
0
  6
SLD-実線
 62
     0
370
    35
100
AcDbCircle
 10
501.3615587783
 20
524.8993479816
 30
0.0
 40
15.99999999999999
100
AcDbArc
 50
308.2092153407
 51
311.7907846593
  0
LINE
  5
438
330
1F
100
AcDbEntity
  8
0
  6
SLD-実線
 62
     0
370
    35
100
AcDbLine
 10
490.3615588379
 20
536.5182983859
 30
0.0
 11
490.3615588379
 21
541.8993489055
 31
0.0
  0
LINE
  5
439
330
1F
100
AcDbEntity
  8
0
  6
SLD-実線
 62
     0
370
    35
100
AcDbLine
 10
517.3615595383
 20
530.5369741453
 30
0.0
 11
517.3615595383
 21
524.8993479816
 31
0.0
  0
LINE
  5
43A
330
1F
100
AcDbEntity
  8
0
  6
SLD-実線
 62
     0
370
    35
100
AcDbLine
 10
501.8615588021
 20
508.4069253115
 30
0.0
 11
501.8615588021
 21
504.4069246559
 31
0.0
  0
LINE
  5
43B
330
1F
100
AcDbEntity
  8
0
  6
SLD-実線
 62
     0
370
    35
100
AcDbLine
 10
501.8615588021
 20
504.4069246559
 30
0.0
 11
500.8615587546
 21
504.4069246559
 31
0.0
  0
LINE
  5
43C
330
1F
100
AcDbEntity
  8
0
  6
SLD-実線
 62
     0
370
    35
100
AcDbLine
 10
500.8615587546
 20
504.4069246559
 30
0.0
 11
500.8615587546
 21
508.4069253115
 31
0.0
  0
ARC
  5
43D
330
1F
100
AcDbEntity
  8
0
  6
SLD-実線
 62
     0
370
    35
100
AcDbCircle
 10
501.3615587783
 20
524.8993479816
 30
0.0
 40
16.49999999999998
100
AcDbArc
 50
268.2634984241
 51
271.7365015759
  0
LINE
  5
43E
330
1F
100
AcDbEntity
  8
0
  6
SLD-実線
 62
     0
370
    35
100
AcDbLine
 10
510.021812847
 20
510.8547763137
 30
0.0
 11
510.021812847
 21
511.4457237704
 31
0.0
  0
LINE
  5
43F
330
1F
100
AcDbEntity
  8
0
  6
SLD-実線
 62
     0
370
    35
100
AcDbLine
 10
492.7013047097
 20
511.4457237704
 30
0.0
 11
492.7013047097
 21
510.8547763137
 31
0.0
  0
SPLINE
  5
440
330
1F
100
AcDbEntity
  8
0
  6
SLD-実線
 62
     0
370
    35
100
AcDbSpline
210
0.0
220
0.0
230
1.0
 70
     8
 71
     3
 72
    13
 73
     9
 74
     0
 42
0.000000001
 43
0.00000001
 40
0.0
 40
0.0
 40
0.0
 40
0.0
 40
0.240505685045697
 40
0.3831613369338095
 40
0.5258894118362358
 40
0.6847706057893396
 40
0.8436916110627952
 40
1.0
 40
1.0
 40
1.0
 40
1.0
 10
501.8615588020835
 20
508.4069253115075
 30
0.0
 10
502.6844048909909
 20
508.4672578021842
 30
0.0
 10
503.9953211275723
 20
508.5633764356537
 30
0.0
 10
505.644764499817
 20
508.9490888398165
 30
0.0
 10
506.9328072142699
 20
509.348467547066
 30
0.0
 10
508.121263395309
 20
509.8311681734146
 30
0.0
 10
509.1915568241458
 20
510.359542428286
 30
0.0
 10
509.7465942198328
 20
510.6906129878008
 30
0.0
 10
510.0218128470074
 20
510.8547763137238
 30
0.0
  0
SPLINE
  5
441
330
1F
100
AcDbEntity
  8
0
  6
SLD-実線
 62
     0
370
    35
100
AcDbSpline
210
0.0
220
0.0
230
1.0
 70
     8
 71
     3
 72
    13
 73
     9
 74
     0
 42
0.000000001
 43
0.00000001
 40
0.0
 40
0.0
 40
0.0
 40
0.0
 40
0.1764230967555755
 40
0.3578683017572226
 40
0.5343104880476012
 40
0.716612192638262
 40
0.8563908377538505
 40
1.0
 40
1.0
 40
1.0
 40
1.0
 10
492.7013047096622
 20
510.8547763137238
 30
0.0
 10
493.0148913419656
 20
510.6685813213281
 30
0.0
 10
493.6509912496308
 20
510.2908910588298
 30
0.0
 10
494.8985719012472
 20
509.6947169726815
 30
0.0
 10
496.3532632406456
 20
509.1491565713611
 30
0.0
 10
497.8744345357383
 20
508.7482448828574
 30
0.0
 10
499.4010784065787
 20
508.4894416846375
 30
0.0
 10
500.3703647317176
 20
508.4346775159966
 30
0.0
 10
500.8615587545861
 20
508.4069253115075
 30
0.0
  0
DIMENSION
  5
442
330
1F
100
AcDbEntity
  8
レイヤー_1
 62
     0
100
AcDbDimension
  2
_D_2
 10
521.3615587783
 20
264.8993479816
 30
0.0
 11
447.8890587783
 21
264.8993479816
 31
0.0
 70
   160
  1
%%c<>
 71
     2
 42
40.00000000000006
  3
SLDDIMSTYLE4
100
AcDbAlignedDimension
 13
481.3615587783
 23
440.8993479816
 33
0.0
 14
521.3615587783
 24
440.8993479816
 34
0.0
100
AcDbRotatedDimension
  0
DIMENSION
  5
450
330
1F
100
AcDbEntity
  8
レイヤー_1
 62
     0
100
AcDbDimension
  2
_D_3
 10
653.3615587783
 20
444.8993479816
 30
0.0
 11
653.3615587783
 21
369.8993479816
 31
0.0
 70
   160
  1
<>
 71
     2
 42
150.0
  3
SLDDIMSTYLE1
100
AcDbAlignedDimension
 13
502.8615587783
 23
294.8993479816
 33
0.0
 14
521.3615587783
 24
444.8993479816
 34
0.0
 50
90.0
100
AcDbRotatedDimension
  0
DIMENSION
  5
45A
330
1F
100
AcDbEntity
  8
レイヤー_1
 62
     0
100
AcDbDimension
  2
_D_4
 10
653.3615587783
 20
444.8993479816
 30
0.0
 11
653.3615587783
 21
521.8993479816
 31
0.0
 70
   160
  1
<>
 71
     2
 42
154.0000000000001
  3
SLDDIMSTYLE1
100
AcDbAlignedDimension
 13
623.3615587783
 23
598.8993479816
 33
0.0
 14
521.3615587783
 24
444.8993479816
 34
0.0
 50
90.0
100
AcDbRotatedDimension
  0
DIMENSION
  5
464
330
1F
100
AcDbEntity
  8
レイヤー_1
 62
     0
100
AcDbDimension
  2
_D_5
 10
623.3615587783
 20
664.8993479816
 30
0.0
 11
551.3615587783
 21
664.8993479816
 31
0.0
 70
   160
  1
<>
 71
     2
 42
144.0000000000001
  3
SLDDIMSTYLE1
100
AcDbAlignedDimension
 13
479.3615587783
 23
582.3993479816
 33
0.0
 14
623.3615587783
 24
598.8993479816
 34
0.0
100
AcDbRotatedDimension
  0
INSERT
  5
473
330
1F
100
AcDbEntity
  8
レイヤー_1
 62
     0
100
AcDbBlockReference
  2
SW_NOTE_2
 10
447.3302752294
 20
586.2385321101
 30
0.0
  0
LEADER
  5
474
330
1F
100
AcDbEntity
  8
レイヤー_1
 62
     0
100
AcDbLeader
  3
SLDDIMSTYLE3
 76
     2
 10
479.3615587783
 20
568.4885556719
 30
0.0
 10
447.3302752294
 20
586.2385321101
 30
0.0
  0
INSERT
  5
47A
330
1F
100
AcDbEntity
  8
レイヤー_1
 62
     0
100
AcDbBlockReference
  2
SW_NOTE_3
 10
518.8899082569
 20
619.9541284404
 30
0.0
  0
LEADER
  5
47B
330
1F
100
AcDbEntity
  8
レイヤー_1
 62
     0
100
AcDbLeader
  3
SLDDIMSTYLE3
 76
     2
 10
555.3615587783
 20
598.8993479816
 30
0.0
 10
518.8899082569
 20
619.9541284404
 30
0.0
  0
LINE
  5
47C
330
1F
100
AcDbEntity
  8
レイヤー_1
  6
SLD-1点鎖線(中心線)
 62
     0
370
    18
100
AcDbLine
 10
629.3615587783
 20
555.8993479816
 30
0.0
 11
462.7002359066
 21
555.8993479816
 31
0.0
  0
LINE
  5
47D
330
1F
100
AcDbEntity
  8
0
  6
SLD-実線
 62
     0
370
    35
100
AcDbLine
 10
555.361560179
 20
712.3770638469
 30
0.0
 11
600.4980528784
 21
712.3770638469
 31
0.0
  0
LINE
  5
47E
330
1F
100
AcDbEntity
  8
0
  6
SLD-実線
 62
     0
370
    35
100
AcDbLine
 10
600.4980528784
 20
798.3770667676
 30
0.0
 11
555.361560179
 21
798.3770667676
 31
0.0
  0
LINE
  5
47F
330
1F
100
AcDbEntity
  8
0
  6
SLD-実線
 62
     0
370
    35
100
AcDbLine
 10
555.361560179
 20
793.3316118184
 30
0.0
 11
525.361558987
 21
782.8770651582
 31
0.0
  0
LINE
  5
480
330
1F
100
AcDbEntity
  8
0
  6
SLD-実線
 62
     0
370
    35
100
AcDbLine
 10
525.361558987
 20
727.8770654563
 30
0.0
 11
555.361560179
 21
717.4225187961
 31
0.0
  0
LINE
  5
481
330
1F
100
AcDbEntity
  8
0
  6
SLD-実線
 62
     0
370
    35
100
AcDbLine
 10
521.3615583313
 20
783.8770653221
 30
0.0
 11
481.3615592254
 21
783.8770653221
 31
0.0
  0
LINE
  5
482
330
1F
100
AcDbEntity
  8
0
  6
SLD-実線
 62
     0
370
    35
100
AcDbLine
 10
481.3615592254
 20
726.8770652923
 30
0.0
 11
521.3615583313
 21
726.8770652923
 31
0.0
  0
LINE
  5
483
330
1F
100
AcDbEntity
  8
0
  6
SLD-実線
 62
     0
370
    35
100
AcDbLine
 10
521.3615583313
 20
726.8770652923
 30
0.0
 11
525.361558987
 21
727.8770654563
 31
0.0
  0
LINE
  5
484
330
1F
100
AcDbEntity
  8
0
  6
SLD-実線
 62
     0
370
    35
100
AcDbLine
 10
525.361558987
 20
782.8770651582
 30
0.0
 11
521.3615583313
 21
783.8770653221
 31
0.0
  0
LINE
  5
485
330
1F
100
AcDbEntity
  8
0
  6
SLD-実線
 62
     0
370
    35
100
AcDbLine
 10
481.3615592254
 20
783.8770653221
 30
0.0
 11
479.3615588975
 21
781.8770649943
 31
0.0
  0
LINE
  5
486
330
1F
100
AcDbEntity
  8
0
  6
SLD-実線
 62
     0
370
    35
100
AcDbLine
 10
479.3615588975
 20
728.8770656202
 30
0.0
 11
481.3615592254
 21
726.8770652923
 31
0.0
  0
LINE
  5
487
330
1F
100
AcDbEntity
  8
0
  6
SLD-実線
 62
     0
370
    35
100
AcDbLine
 10
555.361560179
 20
798.3770667676
 30
0.0
 11
555.361560179
 21
712.3770638469
 31
0.0
  0
ELLIPSE
  5
488
330
1F
100
AcDbEntity
  8
0
  6
SLD-実線
 62
     0
370
    35
100
AcDbEllipse
 10
600.4980532169
 20
755.3770653072
 30
0.0
 11
0.0
 21
43.0
 31
0.0
210
0.0
220
0.0
230
1.0
 40
0.5317094317
 41
3.141592653589825
 42
6.283185307179586
  0
LINE
  5
489
330
1F
100
AcDbEntity
  8
0
  6
SLD-実線
 62
     0
370
    35
100
AcDbLine
 10
525.361558987
 20
727.8770654563
 30
0.0
 11
525.361558987
 21
782.8770651582
 31
0.0
  0
LINE
  5
48A
330
1F
100
AcDbEntity
  8
0
  6
SLD-実線
 62
     0
370
    35
100
AcDbLine
 10
521.3615583313
 20
726.8770652923
 30
0.0
 11
521.3615583313
 21
783.8770653221
 31
0.0
  0
LINE
  5
48B
330
1F
100
AcDbEntity
  8
0
  6
SLD-実線
 62
     0
370
    35
100
AcDbLine
 10
481.3615592254
 20
783.8770653221
 30
0.0
 11
481.3615592254
 21
726.8770652923
 31
0.0
  0
LINE
  5
48C
330
1F
100
AcDbEntity
  8
0
  6
SLD-実線
 62
     0
370
    35
100
AcDbLine
 10
479.3615588975
 20
728.8770656202
 30
0.0
 11
479.3615588975
 21
781.8770649943
 31
0.0
  0
LINE
  5
48D
330
1F
100
AcDbEntity
  8
レイヤー_1
  6
SLD-1点鎖線(中心線)
 62
     0
370
    18
100
AcDbLine
 10
629.3615587783
 20
755.3770653072
 30
0.0
 11
462.7002359066
 21
755.3770653072
 31
0.0
  0
ENDSEC
  0
SECTION
  2
OBJECTS
  0
DICTIONARY
  5
C
330
0
100
AcDbDictionary
281
     1
  3
ACAD_DETAILVIEWSTYLE
350
4B5
  3
ACAD_GROUP
350
D
  3
ACAD_LAYOUT
350
1A
  3
ACAD_MLINESTYLE
350
17
  3
ACAD_PLOTSETTINGS
350
19
  3
ACAD_PLOTSTYLENAME
350
E
  3
ACAD_SCALELIST
350
47
  3
ACAD_SECTIONVIEWSTYLE
350
4B6
  3
AcDbVariableDictionary
350
4B0
  3
APPDATA
350
4AF
  3
DWGPROPS
350
4F0
  0
DICTIONARY
  5
4B5
102
{ACAD_REACTORS
330
C
102
}
330
C
100
AcDbDictionary
281
     1
  0
DICTIONARY
  5
D
102
{ACAD_REACTORS
330
C
102
}
330
C
100
AcDbDictionary
281
     1
  0
DICTIONARY
  5
1A
102
{ACAD_REACTORS
330
C
102
}
330
C
100
AcDbDictionary
281
     1
  3
Layout1
350
1E
  3
Layout2
350
26
  3
Model
350
22
  0
DICTIONARY
  5
17
102
{ACAD_REACTORS
330
C
102
}
330
C
100
AcDbDictionary
281
     1
  3
Standard
350
18
  0
DICTIONARY
  5
19
102
{ACAD_REACTORS
330
C
102
}
330
C
100
AcDbDictionary
281
     1
  0
ACDBDICTIONARYWDFLT
  5
E
102
{ACAD_REACTORS
330
C
102
}
330
C
100
AcDbDictionary
281
     1
  3
Normal
350
F
100
AcDbDictionaryWithDefault
340
F
  0
DICTIONARY
  5
47
102
{ACAD_REACTORS
330
C
102
}
330
C
100
AcDbDictionary
281
     1
  3
A0
350
48
  3
A1
350
49
  3
A2
350
4A
  3
A3
350
4B
  3
A4
350
4C
  3
A5
350
4D
  3
A6
350
4E
  3
A7
350
4F
  3
A8
350
50
  3
A9
350
51
  3
B0
350
52
  3
B1
350
53
  3
B2
350
54
  3
B3
350
55
  3
B4
350
56
  3
B5
350
57
  3
B6
350
58
  3
B7
350
59
  3
B8
350
5A
  3
B9
350
5B
  3
C0
350
5C
  3
C1
350
5D
  3
C2
350
5E
  3
C3
350
5F
  3
C4
350
60
  3
C5
350
61
  3
C6
350
62
  3
C7
350
63
  3
C8
350
64
  3
C9
350
65
  3
D0
350
66
  3
D1
350
67
  3
D2
350
68
  0
DICTIONARY
  5
4B6
102
{ACAD_REACTORS
330
C
102
}
330
C
100
AcDbDictionary
281
     1
  0
DICTIONARY
  5
4B0
102
{ACAD_REACTORS
330
C
102
}
330
C
100
AcDbDictionary
281
     1
  0
DICTIONARY
  5
4AF
102
{ACAD_REACTORS
330
C
102
}
330
C
100
AcDbDictionary
281
     1
  0
XRECORD
  5
4F0
102
{ACAD_REACTORS
330
C
102
}
330
C
100
AcDbXrecord
280
     1
  1
DWGPROPS COOKIE
  2

  3

  4

  6

  7

  8
9176
  9

300
=
301
=
302
=
303
=
304
=
305
=
306
=
307
=
308
=
309
=
 40
0.0
 41
2458754.040739225
 42
2458863.383167651
  1

 90
        0
  0
LAYOUT
  5
1E
102
{ACAD_REACTORS
330
1A
102
}
330
1A
100
AcDbPlotSettings
  1

  2
none_device
  4

  6

 40
0.0
 41
0.0
 42
0.0
 43
0.0
 44
0.0
 45
0.0
 46
0.0
 47
0.0
 48
0.0
 49
0.0
140
0.0
141
0.0
142
1.0
143
1.0
 70
   688
 72
     1
 73
     0
 74
     5
  7

 75
    16
147
1.0
148
0.0
149
0.0
100
AcDbLayout
  1
Layout1
 70
     1
 71
     1
 10
0.0
 20
0.0
 11
420.0
 21
297.0
 12
0.0
 22
0.0
 32
0.0
 14
1.000000000000000E+20
 24
1.000000000000000E+20
 34
1.000000000000000E+20
 15
-1.000000000000000E+20
 25
-1.000000000000000E+20
 35
-1.000000000000000E+20
146
0.0
 13
0.0
 23
0.0
 33
0.0
 16
1.0
 26
0.0
 36
0.0
 17
0.0
 27
1.0
 37
0.0
 76
     0
330
1B
  0
LAYOUT
  5
26
102
{ACAD_REACTORS
330
1A
102
}
330
1A
100
AcDbPlotSettings
  1

  2
none_device
  4

  6

 40
0.0
 41
0.0
 42
0.0
 43
0.0
 44
0.0
 45
0.0
 46
0.0
 47
0.0
 48
0.0
 49
0.0
140
0.0
141
0.0
142
1.0
143
1.0
 70
   688
 72
     1
 73
     0
 74
     5
  7

 75
    16
147
1.0
148
0.0
149
0.0
100
AcDbLayout
  1
Layout2
 70
     1
 71
     2
 10
0.0
 20
0.0
 11
0.0
 21
0.0
 12
0.0
 22
0.0
 32
0.0
 14
0.0
 24
0.0
 34
0.0
 15
0.0
 25
0.0
 35
0.0
146
0.0
 13
0.0
 23
0.0
 33
0.0
 16
1.0
 26
0.0
 36
0.0
 17
0.0
 27
1.0
 37
0.0
 76
     0
330
23
  0
LAYOUT
  5
22
102
{ACAD_REACTORS
330
1A
102
}
330
1A
100
AcDbPlotSettings
  1

  2
none_device
  4
Letter_(8.50_x_11.00_Inches)
  6

 40
6.35
 41
6.35
 42
6.35000508
 43
6.35000508
 44
215.9
 45
279.4
 46
0.0
 47
0.0
 48
0.0
 49
0.0
140
0.0
141
0.0
142
1.0
143
1.0
 70
  1712
 72
     1
 73
     0
 74
     0
  7

 75
     0
147
1.0
148
0.0
149
0.0
100
AcDbLayout
  1
Model
 70
     1
 71
     0
 10
0.0
 20
0.0
 11
1260.0
 21
891.0
 12
0.0
 22
0.0
 32
0.0
 14
0.0
 24
0.0
 34
0.0
 15
1260.0
 25
891.0
 35
0.0
146
0.0
 13
0.0
 23
0.0
 33
0.0
 16
1.0
 26
0.0
 36
0.0
 17
0.0
 27
1.0
 37
0.0
 76
     0
330
1F
331
29
  0
MLINESTYLE
  5
18
102
{ACAD_REACTORS
330
17
102
}
330
17
100
AcDbMlineStyle
  2
Standard
 70
     0
  3

 62
   256
 51
90.0
 52
90.0
 71
     2
 49
0.5
 62
   256
  6
BYLAYER
 49
-0.5
 62
   256
  6
BYLAYER
  0
ACDBPLACEHOLDER
  5
F
102
{ACAD_REACTORS
330
E
102
}
330
E
  0
SCALE
  5
48
102
{ACAD_REACTORS
330
47
102
}
330
47
100
AcDbScale
 70
     0
300
1:1
140
1.0
141
1.0
290
     1
  0
SCALE
  5
49
102
{ACAD_REACTORS
330
47
102
}
330
47
100
AcDbScale
 70
     0
300
1:2
140
1.0
141
2.0
290
     0
  0
SCALE
  5
4A
102
{ACAD_REACTORS
330
47
102
}
330
47
100
AcDbScale
 70
     0
300
1:4
140
1.0
141
4.0
290
     0
  0
SCALE
  5
4B
102
{ACAD_REACTORS
330
47
102
}
330
47
100
AcDbScale
 70
     0
300
1:5
140
1.0
141
5.0
290
     0
  0
SCALE
  5
4C
102
{ACAD_REACTORS
330
47
102
}
330
47
100
AcDbScale
 70
     0
300
1:8
140
1.0
141
8.0
290
     0
  0
SCALE
  5
4D
102
{ACAD_REACTORS
330
47
102
}
330
47
100
AcDbScale
 70
     0
300
1:10
140
1.0
141
10.0
290
     0
  0
SCALE
  5
4E
102
{ACAD_REACTORS
330
47
102
}
330
47
100
AcDbScale
 70
     0
300
1:16
140
1.0
141
16.0
290
     0
  0
SCALE
  5
4F
102
{ACAD_REACTORS
330
47
102
}
330
47
100
AcDbScale
 70
     0
300
1:20
140
1.0
141
20.0
290
     0
  0
SCALE
  5
50
102
{ACAD_REACTORS
330
47
102
}
330
47
100
AcDbScale
 70
     0
300
1:30
140
1.0
141
30.0
290
     0
  0
SCALE
  5
51
102
{ACAD_REACTORS
330
47
102
}
330
47
100
AcDbScale
 70
     0
300
1:40
140
1.0
141
40.0
290
     0
  0
SCALE
  5
52
102
{ACAD_REACTORS
330
47
102
}
330
47
100
AcDbScale
 70
     0
300
1:50
140
1.0
141
50.0
290
     0
  0
SCALE
  5
53
102
{ACAD_REACTORS
330
47
102
}
330
47
100
AcDbScale
 70
     0
300
1:100
140
1.0
141
100.0
290
     0
  0
SCALE
  5
54
102
{ACAD_REACTORS
330
47
102
}
330
47
100
AcDbScale
 70
     0
300
2:1
140
2.0
141
1.0
290
     0
  0
SCALE
  5
55
102
{ACAD_REACTORS
330
47
102
}
330
47
100
AcDbScale
 70
     0
300
4:1
140
4.0
141
1.0
290
     0
  0
SCALE
  5
56
102
{ACAD_REACTORS
330
47
102
}
330
47
100
AcDbScale
 70
     0
300
8:1
140
8.0
141
1.0
290
     0
  0
SCALE
  5
57
102
{ACAD_REACTORS
330
47
102
}
330
47
100
AcDbScale
 70
     0
300
10:1
140
10.0
141
1.0
290
     0
  0
SCALE
  5
58
102
{ACAD_REACTORS
330
47
102
}
330
47
100
AcDbScale
 70
     0
300
100:1
140
100.0
141
1.0
290
     0
  0
SCALE
  5
59
102
{ACAD_REACTORS
330
47
102
}
330
47
100
AcDbScale
 70
     0
300
1/128" = 1'-0"
140
0.0078125
141
12.0
290
     0
  0
SCALE
  5
5A
102
{ACAD_REACTORS
330
47
102
}
330
47
100
AcDbScale
 70
     0
300
1/64" = 1'-0"
140
0.015625
141
12.0
290
     0
  0
SCALE
  5
5B
102
{ACAD_REACTORS
330
47
102
}
330
47
100
AcDbScale
 70
     0
300
1/32" = 1'-0"
140
0.03125
141
12.0
290
     0
  0
SCALE
  5
5C
102
{ACAD_REACTORS
330
47
102
}
330
47
100
AcDbScale
 70
     0
300
1/16" = 1'-0"
140
0.0625
141
12.0
290
     0
  0
SCALE
  5
5D
102
{ACAD_REACTORS
330
47
102
}
330
47
100
AcDbScale
 70
     0
300
3/32" = 1'-0"
140
0.09375
141
12.0
290
     0
  0
SCALE
  5
5E
102
{ACAD_REACTORS
330
47
102
}
330
47
100
AcDbScale
 70
     0
300
1/8" = 1'-0"
140
0.125
141
12.0
290
     0
  0
SCALE
  5
5F
102
{ACAD_REACTORS
330
47
102
}
330
47
100
AcDbScale
 70
     0
300
3/16" = 1'-0"
140
0.1875
141
12.0
290
     0
  0
SCALE
  5
60
102
{ACAD_REACTORS
330
47
102
}
330
47
100
AcDbScale
 70
     0
300
1/4" = 1'-0"
140
0.25
141
12.0
290
     0
  0
SCALE
  5
61
102
{ACAD_REACTORS
330
47
102
}
330
47
100
AcDbScale
 70
     0
300
3/8" = 1'-0"
140
0.375
141
12.0
290
     0
  0
SCALE
  5
62
102
{ACAD_REACTORS
330
47
102
}
330
47
100
AcDbScale
 70
     0
300
1/2" = 1'-0"
140
0.5
141
12.0
290
     0
  0
SCALE
  5
63
102
{ACAD_REACTORS
330
47
102
}
330
47
100
AcDbScale
 70
     0
300
3/4" = 1'-0"
140
0.75
141
12.0
290
     0
  0
SCALE
  5
64
102
{ACAD_REACTORS
330
47
102
}
330
47
100
AcDbScale
 70
     0
300
1" = 1'-0"
140
1.0
141
12.0
290
     0
  0
SCALE
  5
65
102
{ACAD_REACTORS
330
47
102
}
330
47
100
AcDbScale
 70
     0
300
1-1/2" = 1'-0"
140
1.5
141
12.0
290
     0
  0
SCALE
  5
66
102
{ACAD_REACTORS
330
47
102
}
330
47
100
AcDbScale
 70
     0
300
3" = 1'-0"
140
3.0
141
12.0
290
     0
  0
SCALE
  5
67
102
{ACAD_REACTORS
330
47
102
}
330
47
100
AcDbScale
 70
     0
300
6" = 1'-0"
140
6.0
141
12.0
290
     0
  0
SCALE
  5
68
102
{ACAD_REACTORS
330
47
102
}
330
47
100
AcDbScale
 70
     0
300
1'-0" = 1'-0"
140
12.0
141
12.0
290
     0
  0
ENDSEC
  0
EOF
