  0
SECTION
  2
HEADER
  9
$ACADVER
  1
AC1015
  9
$ACADMAINTVER
 70
     6
  9
$DWGCODEPAGE
  3
ANSI_932
  9
$INSBASE
 10
0.0
 20
0.0
 30
0.0
  9
$EXTMIN
 10
-39.48855118849997
 20
0.0
 30
0.0
  9
$EXTMAX
 10
2100.0
 20
1485.0
 30
0.0
  9
$LIMMIN
 10
0.0
 20
0.0
  9
$LIMMAX
 10
2100.0
 20
1485.0
  9
$ORTHOMODE
 70
     0
  9
$REGENMODE
 70
     1
  9
$FILLMODE
 70
     1
  9
$QTEXTMODE
 70
     0
  9
$MIRRTEXT
 70
     1
  9
$LTSCALE
 40
5.0
  9
$ATTMODE
 70
     1
  9
$TEXTSIZE
 40
17.5
  9
$TRACEWID
 40
1.0
  9
$TEXTSTYLE
  7
STANDARD
  9
$CLAYER
  8
0
  9
$CELTYPE
  6
ByLayer
  9
$CECOLOR
 62
   256
  9
$CELTSCALE
 40
1.0
  9
$DISPSILH
 70
     0
  9
$DIMSCALE
 40
1.0
  9
$DIMASZ
 40
16.51
  9
$DIMEXO
 40
5.0
  9
$DIMDLI
 40
3.75
  9
$DIMRND
 40
0.0
  9
$DIMDLE
 40
0.0
  9
$DIMEXE
 40
5.0
  9
$DIMTP
 40
0.0
  9
$DIMTM
 40
0.0
  9
$DIMTXT
 40
17.5
  9
$DIMCEN
 40
2.5
  9
$DIMTSZ
 40
0.0
  9
$DIMTOL
 70
     0
  9
$DIMLIM
 70
     0
  9
$DIMTIH
 70
     1
  9
$DIMTOH
 70
     1
  9
$DIMSE1
 70
     0
  9
$DIMSE2
 70
     0
  9
$DIMTAD
 70
     1
  9
$DIMZIN
 70
     1
  9
$DIMBLK
  1

  9
$DIMASO
 70
     1
  9
$DIMSHO
 70
     1
  9
$DIMPOST
  1

  9
$DIMAPOST
  1

  9
$DIMALT
 70
     0
  9
$DIMALTD
 70
     3
  9
$DIMALTF
 40
0.0393700787
  9
$DIMLFAC
 40
1.0
  9
$DIMTOFL
 70
     1
  9
$DIMTVP
 40
0.0
  9
$DIMTIX
 70
     0
  9
$DIMSOXD
 70
     0
  9
$DIMSAH
 70
     0
  9
$DIMBLK1
  1

  9
$DIMBLK2
  1

  9
$DIMSTYLE
  2
ISO-25
  9
$DIMCLRD
 70
     0
  9
$DIMCLRE
 70
     0
  9
$DIMCLRT
 70
     0
  9
$DIMTFAC
 40
1.0
  9
$DIMGAP
 40
7.62
  9
$DIMJUST
 70
     0
  9
$DIMSD1
 70
     0
  9
$DIMSD2
 70
     0
  9
$DIMTOLJ
 70
     0
  9
$DIMTZIN
 70
     1
  9
$DIMALTZ
 70
     0
  9
$DIMALTTZ
 70
     0
  9
$DIMUPT
 70
     0
  9
$DIMDEC
 70
     2
  9
$DIMTDEC
 70
     2
  9
$DIMALTU
 70
     2
  9
$DIMALTTD
 70
     3
  9
$DIMTXSTY
  7
STANDARD
  9
$DIMAUNIT
 70
     0
  9
$DIMADEC
 70
     2
  9
$DIMALTRND
 40
0.0
  9
$DIMAZIN
 70
     0
  9
$DIMDSEP
 70
    44
  9
$DIMATFIT
 70
     3
  9
$DIMFRAC
 70
     0
  9
$DIMLDRBLK
  1

  9
$DIMLUNIT
 70
     2
  9
$DIMLWD
 70
    -2
  9
$DIMLWE
 70
    -2
  9
$DIMTMOVE
 70
     0
  9
$LUNITS
 70
     2
  9
$LUPREC
 70
     2
  9
$SKETCHINC
 40
1.0
  9
$FILLETRAD
 40
10.0
  9
$AUNITS
 70
     0
  9
$AUPREC
 70
     2
  9
$MENU
  1
.
  9
$ELEVATION
 40
0.0
  9
$PELEVATION
 40
0.0
  9
$THICKNESS
 40
0.0
  9
$LIMCHECK
 70
     0
  9
$CHAMFERA
 40
0.0
  9
$CHAMFERB
 40
0.0
  9
$CHAMFERC
 40
0.0
  9
$CHAMFERD
 40
0.0
  9
$SKPOLY
 70
     0
  9
$TDCREATE
 40
2458754.410397963
  9
$TDUCREATE
 40
2458754.035397963
  9
$TDUPDATE
 40
2458863.756079827
  9
$TDUUPDATE
 40
2458863.381079827
  9
$TDINDWG
 40
0.0029878009
  9
$TDUSRTIMER
 40
0.0025679051
  9
$USRTIMER
 70
     1
  9
$ANGBASE
 50
0.0
  9
$ANGDIR
 70
     0
  9
$PDMODE
 70
     0
  9
$PDSIZE
 40
-1.0
  9
$PLINEWID
 40
0.0
  9
$SPLFRAME
 70
     0
  9
$SPLINETYPE
 70
     6
  9
$SPLINESEGS
 70
     8
  9
$HANDSEED
  5
3AC
  9
$SURFTAB1
 70
     6
  9
$SURFTAB2
 70
     6
  9
$SURFTYPE
 70
     6
  9
$SURFU
 70
     6
  9
$SURFV
 70
     6
  9
$UCSBASE
  2

  9
$UCSNAME
  2

  9
$UCSORG
 10
0.0
 20
0.0
 30
0.0
  9
$UCSXDIR
 10
1.0
 20
0.0
 30
0.0
  9
$UCSYDIR
 10
0.0
 20
1.0
 30
0.0
  9
$UCSORTHOREF
  2

  9
$UCSORTHOVIEW
 70
     0
  9
$UCSORGTOP
 10
0.0
 20
0.0
 30
0.0
  9
$UCSORGBOTTOM
 10
0.0
 20
0.0
 30
0.0
  9
$UCSORGLEFT
 10
0.0
 20
0.0
 30
0.0
  9
$UCSORGRIGHT
 10
0.0
 20
0.0
 30
0.0
  9
$UCSORGFRONT
 10
0.0
 20
0.0
 30
0.0
  9
$UCSORGBACK
 10
0.0
 20
0.0
 30
0.0
  9
$PUCSBASE
  2

  9
$PUCSNAME
  2

  9
$PUCSORG
 10
0.0
 20
0.0
 30
0.0
  9
$PUCSXDIR
 10
1.0
 20
0.0
 30
0.0
  9
$PUCSYDIR
 10
0.0
 20
1.0
 30
0.0
  9
$PUCSORTHOREF
  2

  9
$PUCSORTHOVIEW
 70
     0
  9
$PUCSORGTOP
 10
0.0
 20
0.0
 30
0.0
  9
$PUCSORGBOTTOM
 10
0.0
 20
0.0
 30
0.0
  9
$PUCSORGLEFT
 10
0.0
 20
0.0
 30
0.0
  9
$PUCSORGRIGHT
 10
0.0
 20
0.0
 30
0.0
  9
$PUCSORGFRONT
 10
0.0
 20
0.0
 30
0.0
  9
$PUCSORGBACK
 10
0.0
 20
0.0
 30
0.0
  9
$USERI1
 70
     0
  9
$USERI2
 70
     0
  9
$USERI3
 70
     0
  9
$USERI4
 70
     0
  9
$USERI5
 70
     0
  9
$USERR1
 40
0.0
  9
$USERR2
 40
0.0
  9
$USERR3
 40
0.0
  9
$USERR4
 40
0.0
  9
$USERR5
 40
0.0
  9
$WORLDVIEW
 70
     1
  9
$SHADEDGE
 70
     3
  9
$SHADEDIF
 70
    70
  9
$TILEMODE
 70
     1
  9
$MAXACTVP
 70
    64
  9
$PINSBASE
 10
0.0
 20
0.0
 30
0.0
  9
$PLIMCHECK
 70
     0
  9
$PEXTMIN
 10
1.000000000000000E+20
 20
1.000000000000000E+20
 30
1.000000000000000E+20
  9
$PEXTMAX
 10
-1.000000000000000E+20
 20
-1.000000000000000E+20
 30
-1.000000000000000E+20
  9
$PLIMMIN
 10
0.0
 20
0.0
  9
$PLIMMAX
 10
0.0
 20
0.0
  9
$UNITMODE
 70
     0
  9
$VISRETAIN
 70
     1
  9
$PLINEGEN
 70
     0
  9
$PSLTSCALE
 70
     1
  9
$TREEDEPTH
 70
  3020
  9
$CMLSTYLE
  2
Standard
  9
$CMLJUST
 70
     0
  9
$CMLSCALE
 40
20.0
  9
$PROXYGRAPHICS
 70
     1
  9
$MEASUREMENT
 70
     1
  9
$CELWEIGHT
370
    -1
  9
$ENDCAPS
280
     0
  9
$JOINSTYLE
280
     0
  9
$LWDISPLAY
290
     1
  9
$INSUNITS
 70
     4
  9
$HYPERLINKBASE
  1

  9
$STYLESHEET
  1

  9
$XEDIT
290
     1
  9
$CEPSNTYPE
380
     0
  9
$PSTYLEMODE
290
     1
  9
$FINGERPRINTGUID
  2
{9AE6B616-9D46-455A-9C25-9B0A276A0615}
  9
$VERSIONGUID
  2
{FAEB1C32-E019-11D5-929B-00C0DF256EC4}
  9
$EXTNAMES
290
     1
  9
$PSVPSCALE
 40
0.0
  9
$OLESTARTUP
290
     0
  0
ENDSEC
  0
SECTION
  2
CLASSES
  0
CLASS
  1
ACDBDICTIONARYWDFLT
  2
AcDbDictionaryWithDefault
  3
ObjectDBX Classes
 90
        0
280
     0
281
     0
  0
CLASS
  1
VISUALSTYLE
  2
AcDbVisualStyle
  3
ObjectDBX Classes
 90
     4095
280
     0
281
     0
  0
CLASS
  1
MATERIAL
  2
AcDbMaterial
  3
ObjectDBX Classes
 90
     1153
280
     0
281
     0
  0
CLASS
  1
SCALE
  2
AcDbScale
  3
ObjectDBX Classes
 90
     1153
280
     0
281
     0
  0
CLASS
  1
TABLESTYLE
  2
AcDbTableStyle
  3
ObjectDBX Classes
 90
     4095
280
     0
281
     0
  0
CLASS
  1
MLEADERSTYLE
  2
AcDbMLeaderStyle
  3
ACDB_MLEADERSTYLE_CLASS
 90
     4095
280
     0
281
     0
  0
CLASS
  1
SUN
  2
AcDbSun
  3
SCENEOE
 90
     1153
280
     0
281
     0
  0
CLASS
  1
ACDBPLACEHOLDER
  2
AcDbPlaceHolder
  3
ObjectDBX Classes
 90
        0
280
     0
281
     0
  0
CLASS
  1
LAYOUT
  2
AcDbLayout
  3
ObjectDBX Classes
 90
        0
280
     0
281
     0
  0
CLASS
  1
SORTENTSTABLE
  2
AcDbSortentsTable
  3
ObjectDBX Classes
 90
        0
280
     0
281
     0
  0
ENDSEC
  0
SECTION
  2
TABLES
  0
TABLE
  2
VPORT
  5
8
330
0
100
AcDbSymbolTable
 70
     1
  0
VPORT
  5
29
330
8
100
AcDbSymbolTableRecord
100
AcDbViewportTableRecord
  2
*Active
 70
     0
 10
0.0
 20
0.0
 11
1.0
 21
1.0
 12
822.4141765489107
 22
828.2623324506724
 13
0.0
 23
0.0
 14
10.0
 24
10.0
 15
10.0
 25
10.0
 16
0.0
 26
0.0
 36
1.0
 17
0.0
 27
0.0
 37
0.0
 40
1265.595344325765
 41
1.987886944818304
 42
50.0
 43
0.0
 44
0.0
 50
0.0
 51
0.0
 71
    16
 72
  2000
 73
     1
 74
     3
 75
     0
 76
     0
 77
     0
 78
     0
281
     0
 65
     1
110
0.0
120
0.0
130
0.0
111
1.0
121
0.0
131
0.0
112
0.0
122
1.0
132
0.0
 79
     0
146
0.0
  0
ENDTAB
  0
TABLE
  2
LTYPE
  5
5
330
0
100
AcDbSymbolTable
 70
     8
  0
LTYPE
  5
14
330
5
100
AcDbSymbolTableRecord
100
AcDbLinetypeTableRecord
  2
ByBlock
 70
     0
  3

 72
    65
 73
     0
 40
0.0
  0
LTYPE
  5
15
330
5
100
AcDbSymbolTableRecord
100
AcDbLinetypeTableRecord
  2
ByLayer
 70
     0
  3

 72
    65
 73
     0
 40
0.0
  0
LTYPE
  5
16
330
5
100
AcDbSymbolTableRecord
100
AcDbLinetypeTableRecord
  2
Continuous
 70
     0
  3
Solid line
 72
    65
 73
     0
 40
0.0
  0
LTYPE
  5
6E
330
5
100
AcDbSymbolTableRecord
100
AcDbLinetypeTableRecord
  2
SLD-実線
 70
     0
  3
SolidWorks Line Style
 72
    65
 73
     0
 40
0.0
  0
LTYPE
  5
6F
330
5
100
AcDbSymbolTableRecord
100
AcDbLinetypeTableRecord
  2
SLD-破線
 70
     0
  3
SolidWorks Line Style
 72
    65
 73
     2
 40
1.905
 49
1.27
 74
     0
 49
-0.635
 74
     0
  0
LTYPE
  5
70
330
5
100
AcDbSymbolTableRecord
100
AcDbLinetypeTableRecord
  2
SLD-2点鎖線
 70
     0
  3
SolidWorks Line Style
 72
    65
 73
     6
 40
12.7
 49
6.35
 74
     0
 49
-1.27
 74
     0
 49
1.27
 74
     0
 49
-1.27
 74
     0
 49
1.27
 74
     0
 49
-1.27
 74
     0
  0
LTYPE
  5
71
330
5
100
AcDbSymbolTableRecord
100
AcDbLinetypeTableRecord
  2
SLD-鎖線
 70
     0
  3
SolidWorks Line Style
 72
    65
 73
     4
 40
10.16
 49
6.35
 74
     0
 49
-1.27
 74
     0
 49
1.27
 74
     0
 49
-1.27
 74
     0
  0
LTYPE
  5
72
330
5
100
AcDbSymbolTableRecord
100
AcDbLinetypeTableRecord
  2
SLD-1点鎖線(中心線)
 70
     0
  3
SolidWorks Line Style
 72
    65
 73
     4
 40
34.29
 49
30.48
 74
     0
 49
-1.27
 74
     0
 49
1.27
 74
     0
 49
-1.27
 74
     0
  0
LTYPE
  5
73
330
5
100
AcDbSymbolTableRecord
100
AcDbLinetypeTableRecord
  2
SLD-点線
 70
     0
  3
SolidWorks Line Style
 72
    65
 73
     2
 40
0.635
 49
0.0
 74
     0
 49
-0.635
 74
     0
  0
LTYPE
  5
74
330
5
100
AcDbSymbolTableRecord
100
AcDbLinetypeTableRecord
  2
SLD-細-太鎖線(切断面)
 70
     0
  3
SolidWorks Line Style
 72
    65
 73
     4
 40
10.16
 49
6.35
 74
     0
 49
-1.27
 74
     0
 49
1.27
 74
     0
 49
-1.27
 74
     0
  0
ENDTAB
  0
TABLE
  2
LAYER
  5
2
330
0
100
AcDbSymbolTable
 70
     4
  0
LAYER
  5
10
330
2
100
AcDbSymbolTableRecord
100
AcDbLayerTableRecord
  2
0
 70
     0
 62
     7
  6
Continuous
370
    -3
390
F
  0
LAYER
  5
75
330
2
100
AcDbSymbolTableRecord
100
AcDbLayerTableRecord
  2
レイヤー_1
 70
     0
 62
   179
  6
SLD-実線
370
    -3
390
F
  0
LAYER
  5
76
330
2
100
AcDbSymbolTableRecord
100
AcDbLayerTableRecord
  2
FORMAT
 70
     0
 62
     7
  6
SLD-実線
370
    -3
390
F
  0
LAYER
  5
3A4
330
2
100
AcDbSymbolTableRecord
100
AcDbLayerTableRecord
  2
Defpoints
 70
     0
 62
     7
  6
Continuous
290
     0
370
    -3
390
F
  0
ENDTAB
  0
TABLE
  2
STYLE
  5
3
330
0
100
AcDbSymbolTable
 70
     6
  0
STYLE
  5
11
330
3
100
AcDbSymbolTableRecord
100
AcDbTextStyleTableRecord
  2
STANDARD
 70
     0
 40
0.0
 41
1.0
 50
0.0
 71
     0
 42
17.5
  3
MSGOTHIC.TTC
  4

1001
ACAD
1000
ＭＳ Ｐゴシック
1071
    32818
  0
STYLE
  5
201
330
3
100
AcDbSymbolTableRecord
100
AcDbTextStyleTableRecord
  2
SLDTEXTSTYLE0
 70
     0
 40
0.0
 41
1.0
 50
0.0
 71
     0
 42
17.5
  3
MSGOTHIC.TTC
  4

1001
ACAD
1000
ＭＳ Ｐゴシック
1071
      306
  0
STYLE
  5
20A
330
3
100
AcDbSymbolTableRecord
100
AcDbTextStyleTableRecord
  2
SLDTEXTSTYLE1
 70
     0
 40
0.0
 41
0.913
 50
0.0
 71
     0
 42
17.5
  3
GOTHIC.TTF
  4

1001
ACAD
1000
Century Gothic
1071
      290
  0
STYLE
  5
227
330
3
100
AcDbSymbolTableRecord
100
AcDbTextStyleTableRecord
  2
SLDTEXTSTYLE2
 70
     0
 40
0.0
 41
0.948
 50
0.0
 71
     0
 42
17.5
  3
ARIAL.TTF
  4

1001
ACAD
1000
Arial
1071
      290
  0
STYLE
  5
229
330
3
100
AcDbSymbolTableRecord
100
AcDbTextStyleTableRecord
  2
SLDTEXTSTYLE3
 70
     0
 40
0.0
 41
1.0
 50
0.0
 71
     0
 42
17.5
  3
MSGOTHIC.TTC
  4
bigfont
1001
ACAD
1000
ＭＳ Ｐゴシック
1071
      306
  0
STYLE
  5
23C
330
3
100
AcDbSymbolTableRecord
100
AcDbTextStyleTableRecord
  2
SLDTEXTSTYLE4
 70
     0
 40
0.0
 41
0.8977428551
 50
0.0
 71
     0
 42
17.5
  3
MSGOTHIC.TTC
  4
bigfont
1001
ACAD
1000
ＭＳ Ｐゴシック
1071
      306
  0
ENDTAB
  0
TABLE
  2
VIEW
  5
6
330
0
100
AcDbSymbolTable
 70
     0
  0
ENDTAB
  0
TABLE
  2
UCS
  5
7
330
0
100
AcDbSymbolTable
 70
     0
  0
ENDTAB
  0
TABLE
  2
APPID
  5
9
330
0
100
AcDbSymbolTable
 70
     1
  0
APPID
  5
12
330
9
100
AcDbSymbolTableRecord
100
AcDbRegAppTableRecord
  2
ACAD
 70
     0
  0
ENDTAB
  0
TABLE
  2
DIMSTYLE
  5
A
330
0
100
AcDbSymbolTable
 70
     6
100
AcDbDimStyleTable
  0
DIMSTYLE
105
27
330
A
100
AcDbSymbolTableRecord
100
AcDbDimStyleTableRecord
  2
ISO-25
 70
     0
 41
2.5
 42
0.625
 43
3.75
 44
1.25
 73
     0
 74
     0
 77
     1
 78
     8
140
2.5
141
2.5
143
0.0393700787
147
0.625
171
     3
172
     1
178
     0
271
     2
272
     2
274
     3
278
    44
283
     0
284
     8
340
11
  0
DIMSTYLE
105
202
102
{ACAD_REACTORS
330
200
102
}
330
A
100
AcDbSymbolTableRecord
100
AcDbDimStyleTableRecord
  2
SLDDIMSTYLE0
 70
     0
 41
16.51
 44
0.0
 45
0.000000001
 73
     0
 74
     0
 77
     3
 78
    12
 79
     3
140
17.5
147
4.375
172
     1
173
     1
178
     0
271
     2
272
     2
276
     2
284
    12
289
     0
340
201
341
203
343
203
344
203
  0
DIMSTYLE
105
28C
102
{ACAD_REACTORS
330
28B
330
2D7
330
2E1
330
2EB
330
2F5
330
307
102
}
330
A
100
AcDbSymbolTableRecord
100
AcDbDimStyleTableRecord
  2
SLDDIMSTYLE1
 70
     0
 41
16.51
 44
0.0
 45
0.000000001
 73
     0
 74
     0
 77
     3
 78
    12
 79
     3
140
17.5
147
4.375
173
     1
178
     0
271
     0
272
     0
276
     2
284
    12
340
201
341
28D
343
28D
344
28D
  0
DIMSTYLE
105
2A2
330
A
100
AcDbSymbolTableRecord
100
AcDbDimStyleTableRecord
  2
SLDDIMSTYLE2
 70
     0
 41
16.51
 44
0.0
 45
0.000000001
146
16.51
147
0.0
173
     1
178
     0
271
     0
272
     0
276
     2
340
11
341
28D
343
28D
344
28D
  0
DIMSTYLE
105
312
102
{ACAD_REACTORS
330
311
102
}
330
A
100
AcDbSymbolTableRecord
100
AcDbDimStyleTableRecord
  2
SLDDIMSTYLE3
 70
     0
 41
16.51
 44
0.0
 45
0.000000001
 73
     0
 74
     0
 77
     3
 78
    12
 79
     3
140
17.5
147
4.375
172
     1
173
     1
178
     0
271
     0
272
     0
276
     2
284
    12
289
     0
340
201
341
28D
343
28D
344
28D
  0
DIMSTYLE
105
331
330
A
100
AcDbSymbolTableRecord
100
AcDbDimStyleTableRecord
  2
SLDDIMSTYLE4
 70
     0
 41
15.0
 44
0.0
 45
0.000000001
146
15.0
147
0.0
173
     1
178
     0
271
     0
272
     0
276
     2
340
11
341
332
343
332
344
332
  0
ENDTAB
  0
TABLE
  2
BLOCK_RECORD
  5
1
330
0
100
AcDbSymbolTable
 70
    21
  0
BLOCK_RECORD
  5
1F
102
{ACAD_XDICTIONARY
360
39A
102
}
330
1
100
AcDbSymbolTableRecord
100
AcDbBlockTableRecord
  2
*Model_Space
340
22
  0
BLOCK_RECORD
  5
1B
330
1
100
AcDbSymbolTableRecord
100
AcDbBlockTableRecord
  2
*Paper_Space
340
1E
  0
BLOCK_RECORD
  5
23
330
1
100
AcDbSymbolTableRecord
100
AcDbBlockTableRecord
  2
*Paper_Space0
340
26
  0
BLOCK_RECORD
  5
203
330
1
100
AcDbSymbolTableRecord
100
AcDbBlockTableRecord
  2
_NONE
340
0
  0
BLOCK_RECORD
  5
206
330
1
100
AcDbSymbolTableRecord
100
AcDbBlockTableRecord
  2
_D
340
0
  0
BLOCK_RECORD
  5
239
330
1
100
AcDbSymbolTableRecord
100
AcDbBlockTableRecord
  2
SW_NOTE_0
340
0
102
{BLKREFS
331
23F
102
}
  0
BLOCK_RECORD
  5
28D
330
1
100
AcDbSymbolTableRecord
100
AcDbBlockTableRecord
  2
_OPEN30
340
0
102
{BLKREFS
331
296
331
297
331
2DB
331
2DC
331
2E5
331
2E6
331
2EF
331
2F0
331
2F9
331
2FA
331
30B
331
30C
331
316
331
317
102
}
  0
BLOCK_RECORD
  5
293
330
1
100
AcDbSymbolTableRecord
100
AcDbBlockTableRecord
  2
_D_1
340
0
  0
BLOCK_RECORD
  5
29C
330
1
100
AcDbSymbolTableRecord
100
AcDbBlockTableRecord
  2
SW_NOTE_1
340
0
102
{BLKREFS
331
2A1
102
}
  0
BLOCK_RECORD
  5
2D8
330
1
100
AcDbSymbolTableRecord
100
AcDbBlockTableRecord
  2
_D_2
340
0
  0
BLOCK_RECORD
  5
2E2
330
1
100
AcDbSymbolTableRecord
100
AcDbBlockTableRecord
  2
_D_3
340
0
  0
BLOCK_RECORD
  5
2EC
330
1
100
AcDbSymbolTableRecord
100
AcDbBlockTableRecord
  2
_D_4
340
0
  0
BLOCK_RECORD
  5
2F6
330
1
100
AcDbSymbolTableRecord
100
AcDbBlockTableRecord
  2
_D_5
340
0
  0
BLOCK_RECORD
  5
2FE
330
1
100
AcDbSymbolTableRecord
100
AcDbBlockTableRecord
  2
SW_SYMBOL_MOD_BOX
340
0
102
{BLKREFS
331
305
331
31B
102
}
  0
BLOCK_RECORD
  5
308
330
1
100
AcDbSymbolTableRecord
100
AcDbBlockTableRecord
  2
_D_6
340
0
  0
BLOCK_RECORD
  5
313
330
1
100
AcDbSymbolTableRecord
100
AcDbBlockTableRecord
  2
_D_7
340
0
  0
BLOCK_RECORD
  5
31D
330
1
100
AcDbSymbolTableRecord
100
AcDbBlockTableRecord
  2
SW_NOTE_2
340
0
102
{BLKREFS
331
322
102
}
  0
BLOCK_RECORD
  5
324
330
1
100
AcDbSymbolTableRecord
100
AcDbBlockTableRecord
  2
SW_NOTE_3
340
0
102
{BLKREFS
331
329
102
}
  0
BLOCK_RECORD
  5
32B
330
1
100
AcDbSymbolTableRecord
100
AcDbBlockTableRecord
  2
SW_NOTE_4
340
0
102
{BLKREFS
331
330
102
}
  0
BLOCK_RECORD
  5
332
330
1
100
AcDbSymbolTableRecord
100
AcDbBlockTableRecord
  2
_DOT
340
0
  0
BLOCK_RECORD
  5
33B
102
{ACAD_XDICTIONARY
360
39D
102
}
330
1
100
AcDbSymbolTableRecord
100
AcDbBlockTableRecord
  2
SW_NOTE_5
340
0
102
{BLKREFS
331
340
102
}
  0
BLOCK_RECORD
  5
342
102
{ACAD_XDICTIONARY
360
3A2
102
}
330
1
100
AcDbSymbolTableRecord
100
AcDbBlockTableRecord
  2
SW_NOTE_6
340
0
102
{BLKREFS
331
347
102
}
  0
BLOCK_RECORD
  5
349
102
{ACAD_XDICTIONARY
360
3A8
102
}
330
1
100
AcDbSymbolTableRecord
100
AcDbBlockTableRecord
  2
SW_NOTE_7
340
0
102
{BLKREFS
331
34E
102
}
  0
ENDTAB
  0
ENDSEC
  0
SECTION
  2
BLOCKS
  0
BLOCK
  5
20
330
1F
100
AcDbEntity
  8
0
100
AcDbBlockBegin
  2
*Model_Space
 70
     0
 10
0.0
 20
0.0
 30
0.0
  3
*Model_Space
  1

  0
ENDBLK
  5
21
330
1F
100
AcDbEntity
  8
0
100
AcDbBlockEnd
  0
BLOCK
  5
1C
330
1B
100
AcDbEntity
 67
     1
  8
0
100
AcDbBlockBegin
  2
*Paper_Space
 70
     0
 10
0.0
 20
0.0
 30
0.0
  3
*Paper_Space
  1

  0
ENDBLK
  5
1D
330
1B
100
AcDbEntity
 67
     1
  8
0
100
AcDbBlockEnd
  0
BLOCK
  5
24
330
23
100
AcDbEntity
  8
0
100
AcDbBlockBegin
  2
*Paper_Space0
 70
     0
 10
0.0
 20
0.0
 30
0.0
  3
*Paper_Space0
  1

  0
ENDBLK
  5
25
330
23
100
AcDbEntity
  8
0
100
AcDbBlockEnd
  0
BLOCK
  5
204
330
203
100
AcDbEntity
  8
0
100
AcDbBlockBegin
  2
_NONE
 70
     0
 10
0.0
 20
0.0
 30
0.0
  3
_NONE
  1

  0
ENDBLK
  5
205
330
203
100
AcDbEntity
  8
0
100
AcDbBlockEnd
  0
BLOCK
  5
207
330
206
100
AcDbEntity
  8
0
100
AcDbBlockBegin
  2
_D
 70
     0
 10
0.0
 20
0.0
 30
0.0
  3
_D
  1

  0
MTEXT
  5
209
330
206
100
AcDbEntity
  8
0
  6
SLD-実線
 62
     7
370
    18
100
AcDbMText
 10
-39.4885511885
 20
1377.7247460395
 30
0.0
 40
17.5
 41
0.0
 71
     1
 72
     1
  1
5
  7
SLDTEXTSTYLE0
 73
     1
 44
1.0
  0
ENDBLK
  5
208
330
206
100
AcDbEntity
  8
0
100
AcDbBlockEnd
  0
BLOCK
  5
23A
330
239
100
AcDbEntity
  8
0
100
AcDbBlockBegin
  2
SW_NOTE_0
 70
     0
 10
0.0
 20
0.0
 30
0.0
  3
SW_NOTE_0
  1

  0
MTEXT
  5
23D
330
239
100
AcDbEntity
  8
レイヤー_1
 62
     0
100
AcDbMText
 10
0.0
 20
12.3151515152
 30
0.0
 40
10.5833333333
 41
0.0
 71
     1
 72
     1
  1
{\W0.8;グレイッシュゴールドダークパイン/ナチュラルパイン/京町家かきちゃ/}
  7
SLDTEXTSTYLE4
 73
     1
 44
1.0
1001
ACAD
1000
ACAD_MTEXT_DEFINED_HEIGHT_BEGIN
1070
    46
1040
11.0595833332985
1000
ACAD_MTEXT_DEFINED_HEIGHT_END
  0
MTEXT
  5
23E
330
239
100
AcDbEntity
  8
レイヤー_1
 62
     0
100
AcDbMText
 10
0.0
 20
-1.7959594254
 30
0.0
 40
10.5833333333
 41
0.0
 71
     1
 72
     1
  1
ラスティコッパー/グレイッシュゴールド/シルバー
  7
SLDTEXTSTYLE4
 73
     1
 44
1.0
  0
ENDBLK
  5
23B
330
239
100
AcDbEntity
  8
0
100
AcDbBlockEnd
  0
BLOCK
  5
28E
330
28D
100
AcDbEntity
  8
0
100
AcDbBlockBegin
  2
_OPEN30
 70
     0
 10
0.0
 20
0.0
 30
0.0
  3
_OPEN30
  1

  0
LINE
  5
290
330
28D
100
AcDbEntity
  8
0
  6
ByBlock
 62
     0
370
    -2
100
AcDbLine
 10
-1.0
 20
0.267949
 30
0.0
 11
0.0
 21
0.0
 31
0.0
  0
LINE
  5
291
330
28D
100
AcDbEntity
  8
0
  6
ByBlock
 62
     0
370
    -2
100
AcDbLine
 10
0.0
 20
0.0
 30
0.0
 11
-1.0
 21
-0.267949
 31
0.0
  0
LINE
  5
292
330
28D
100
AcDbEntity
  8
0
  6
ByBlock
 62
     0
370
    -2
100
AcDbLine
 10
0.0
 20
0.0
 30
0.0
 11
-1.0
 21
0.0
 31
0.0
  0
ENDBLK
  5
28F
330
28D
100
AcDbEntity
  8
0
100
AcDbBlockEnd
  0
BLOCK
  5
294
330
293
100
AcDbEntity
  8
0
100
AcDbBlockBegin
  2
_D_1
 70
     0
 10
0.0
 20
0.0
 30
0.0
  3
_D_1
  1

  0
INSERT
  5
296
330
293
100
AcDbEntity
  8
レイヤー_1
 62
     7
100
AcDbBlockReference
  2
_OPEN30
 10
1169.836247184
 20
418.8028288895
 30
0.0
 41
16.51
 42
16.51
 50
180.0
  0
INSERT
  5
297
330
293
100
AcDbEntity
  8
レイヤー_1
 62
     7
100
AcDbBlockReference
  2
_OPEN30
 10
1469.836247184
 20
418.8028288895
 30
0.0
 41
16.51
 42
16.51
  0
LINE
  5
298
330
293
100
AcDbEntity
  8
レイヤー_1
 62
     7
100
AcDbLine
 10
1169.836247184
 20
472.3028288895
 30
0.0
 11
1169.836247184
 21
413.8028288895
 31
0.0
  0
LINE
  5
299
330
293
100
AcDbEntity
  8
レイヤー_1
 62
     7
100
AcDbLine
 10
1469.836247184
 20
472.3028288895
 30
0.0
 11
1469.836247184
 21
413.8028288895
 31
0.0
  0
LINE
  5
29A
330
293
100
AcDbEntity
  8
レイヤー_1
 62
     7
100
AcDbLine
 10
1169.836247184
 20
418.8028288895
 30
0.0
 11
1469.836247184
 21
418.8028288895
 31
0.0
  0
MTEXT
  5
29B
330
293
100
AcDbEntity
  8
レイヤー_1
 62
     7
100
AcDbMText
 10
1304.5602053708
 20
439.166464089
 30
0.0
 40
17.5
 41
0.0
 71
     1
 72
     1
  1
300
  7
SLDTEXTSTYLE0
 73
     1
 44
1.0
  0
ENDBLK
  5
295
330
293
100
AcDbEntity
  8
0
100
AcDbBlockEnd
  0
BLOCK
  5
29D
330
29C
100
AcDbEntity
  8
0
100
AcDbBlockBegin
  2
SW_NOTE_1
 70
     0
 10
0.0
 20
0.0
 30
0.0
  3
SW_NOTE_1
  1

  0
CIRCLE
  5
29F
330
29C
100
AcDbEntity
  8
レイヤー_1
 62
     0
100
AcDbCircle
 10
22.5
 20
11.1811926606
 30
0.0
 40
25.12506854343558
  0
MTEXT
  5
2A0
330
29C
100
AcDbEntity
  8
レイヤー_1
 62
     0
100
AcDbMText
 10
17.4079862563
 20
20.2260214892
 30
0.0
 40
17.5
 41
0.0
 71
     1
 72
     1
  1
4
  7
SLDTEXTSTYLE0
 73
     1
 44
1.0
  0
ENDBLK
  5
29E
330
29C
100
AcDbEntity
  8
0
100
AcDbBlockEnd
  0
BLOCK
  5
2D9
330
2D8
100
AcDbEntity
  8
0
100
AcDbBlockBegin
  2
_D_2
 70
     0
 10
0.0
 20
0.0
 30
0.0
  3
_D_2
  1

  0
INSERT
  5
2DB
330
2D8
100
AcDbEntity
  8
レイヤー_1
 62
     7
100
AcDbBlockReference
  2
_OPEN30
 10
820.0895035563
 20
568.8028288895
 30
0.0
 41
16.51
 42
16.51
 50
90.0
  0
INSERT
  5
2DC
330
2D8
100
AcDbEntity
  8
レイヤー_1
 62
     7
100
AcDbBlockReference
  2
_OPEN30
 10
820.0895035563
 20
468.8028288895
 30
0.0
 41
16.51
 42
16.51
 50
270.0
  0
LINE
  5
2DD
330
2D8
100
AcDbEntity
  8
レイヤー_1
 62
     7
100
AcDbLine
 10
880.0468776127
 20
568.8028288895
 30
0.0
 11
815.0895035563
 21
568.8028288895
 31
0.0
  0
LINE
  5
2DE
330
2D8
100
AcDbEntity
  8
レイヤー_1
 62
     7
100
AcDbLine
 10
866.6272623704
 20
468.8028288895
 30
0.0
 11
815.0895035563
 21
468.8028288895
 31
0.0
  0
LINE
  5
2DF
330
2D8
100
AcDbEntity
  8
レイヤー_1
 62
     7
100
AcDbLine
 10
820.0895035563
 20
568.8028288895
 30
0.0
 11
820.0895035563
 21
468.8028288895
 31
0.0
  0
MTEXT
  5
2E0
330
2D8
100
AcDbEntity
  8
レイヤー_1
 62
     7
100
AcDbMText
 10
799.7258683568
 20
503.5267870764
 30
0.0
 40
17.5
 41
0.0
 71
     1
 72
     1
  1
100
  7
SLDTEXTSTYLE0
 11
-7.044195017643634E-15
 21
1.0
 31
0.0
 73
     1
 44
1.0
  0
ENDBLK
  5
2DA
330
2D8
100
AcDbEntity
  8
0
100
AcDbBlockEnd
  0
BLOCK
  5
2E3
330
2E2
100
AcDbEntity
  8
0
100
AcDbBlockBegin
  2
_D_3
 70
     0
 10
0.0
 20
0.0
 30
0.0
  3
_D_3
  1

  0
INSERT
  5
2E5
330
2E2
100
AcDbEntity
  8
レイヤー_1
 62
     7
100
AcDbBlockReference
  2
_OPEN30
 10
757.8522716228
 20
818.8028288895
 30
0.0
 41
16.51
 42
16.51
 50
90.0
  0
INSERT
  5
2E6
330
2E2
100
AcDbEntity
  8
レイヤー_1
 62
     7
100
AcDbBlockReference
  2
_OPEN30
 10
757.8522716228
 20
468.8028288895
 30
0.0
 41
16.51
 42
16.51
 50
270.0
  0
LINE
  5
2E7
330
2E2
100
AcDbEntity
  8
レイヤー_1
 62
     7
100
AcDbLine
 10
894.0132094751
 20
818.8028288895
 30
0.0
 11
752.8522716228
 21
818.8028288895
 31
0.0
  0
LINE
  5
2E8
330
2E2
100
AcDbEntity
  8
レイヤー_1
 62
     7
100
AcDbLine
 10
866.6272623704
 20
468.8028288895
 30
0.0
 11
752.8522716228
 21
468.8028288895
 31
0.0
  0
LINE
  5
2E9
330
2E2
100
AcDbEntity
  8
レイヤー_1
 62
     7
100
AcDbLine
 10
757.8522716228
 20
818.8028288895
 30
0.0
 11
757.8522716228
 21
468.8028288895
 31
0.0
  0
MTEXT
  5
2EA
330
2E2
100
AcDbEntity
  8
レイヤー_1
 62
     7
100
AcDbMText
 10
737.4886364233
 20
628.5267870764
 30
0.0
 40
17.5
 41
0.0
 71
     1
 72
     1
  1
350
  7
SLDTEXTSTYLE0
 11
-7.044195017643634E-15
 21
1.0
 31
0.0
 73
     1
 44
1.0
  0
ENDBLK
  5
2E4
330
2E2
100
AcDbEntity
  8
0
100
AcDbBlockEnd
  0
BLOCK
  5
2ED
330
2EC
100
AcDbEntity
  8
0
100
AcDbBlockBegin
  2
_D_4
 70
     0
 10
0.0
 20
0.0
 30
0.0
  3
_D_4
  1

  0
INSERT
  5
2EF
330
2EC
100
AcDbEntity
  8
レイヤー_1
 62
     7
100
AcDbBlockReference
  2
_OPEN30
 10
787.8522716228
 20
468.8028288895
 30
0.0
 41
16.51
 42
16.51
 50
270.0
  0
INSERT
  5
2F0
330
2EC
100
AcDbEntity
  8
レイヤー_1
 62
     7
100
AcDbBlockReference
  2
_OPEN30
 10
787.8522716228
 20
718.8028288895
 30
0.0
 41
16.51
 42
16.51
 50
90.0
  0
LINE
  5
2F1
330
2EC
100
AcDbEntity
  8
レイヤー_1
 62
     7
100
AcDbLine
 10
866.6272623704
 20
468.8028288895
 30
0.0
 11
782.8522716228
 21
468.8028288895
 31
0.0
  0
LINE
  5
2F2
330
2EC
100
AcDbEntity
  8
レイヤー_1
 62
     7
100
AcDbLine
 10
876.1272623704
 20
718.8028288895
 30
0.0
 11
782.8522716228
 21
718.8028288895
 31
0.0
  0
LINE
  5
2F3
330
2EC
100
AcDbEntity
  8
レイヤー_1
 62
     7
100
AcDbLine
 10
787.8522716228
 20
468.8028288895
 30
0.0
 11
787.8522716228
 21
718.8028288895
 31
0.0
  0
MTEXT
  5
2F4
330
2EC
100
AcDbEntity
  8
レイヤー_1
 62
     7
100
AcDbMText
 10
767.4886364233
 20
578.5267870764
 30
0.0
 40
17.5
 41
0.0
 71
     1
 72
     1
  1
250
  7
SLDTEXTSTYLE0
 11
6.123233995736766E-17
 21
1.0
 31
0.0
 73
     1
 44
1.0
  0
ENDBLK
  5
2EE
330
2EC
100
AcDbEntity
  8
0
100
AcDbBlockEnd
  0
BLOCK
  5
2F7
330
2F6
100
AcDbEntity
  8
0
100
AcDbBlockBegin
  2
_D_5
 70
     0
 10
0.0
 20
0.0
 30
0.0
  3
_D_5
  1

  0
INSERT
  5
2F9
330
2F6
100
AcDbEntity
  8
レイヤー_1
 62
     7
100
AcDbBlockReference
  2
_OPEN30
 10
948.1272623704
 20
1370.050843003
 30
0.0
 41
16.51
 42
16.51
  0
INSERT
  5
2FA
330
2F6
100
AcDbEntity
  8
レイヤー_1
 62
     7
100
AcDbBlockReference
  2
_OPEN30
 10
870.1272623704
 20
1370.050843003
 30
0.0
 41
16.51
 42
16.51
 50
180.0
  0
LINE
  5
2FB
330
2F6
100
AcDbEntity
  8
レイヤー_1
 62
     7
100
AcDbLine
 10
948.1272623704
 20
1343.8028288895
 30
0.0
 11
948.1272623704
 21
1375.050843003
 31
0.0
  0
LINE
  5
2FC
330
2F6
100
AcDbEntity
  8
レイヤー_1
 62
     7
100
AcDbLine
 10
870.1272623704
 20
1343.8028288895
 30
0.0
 11
870.1272623704
 21
1375.050843003
 31
0.0
  0
LINE
  5
2FD
330
2F6
100
AcDbEntity
  8
レイヤー_1
 62
     7
100
AcDbLine
 10
948.1272623704
 20
1370.050843003
 30
0.0
 11
870.1272623704
 21
1370.050843003
 31
0.0
  0
INSERT
  5
305
330
2F6
100
AcDbEntity
  8
レイヤー_1
 62
     7
100
AcDbBlockReference
  2
SW_SYMBOL_MOD_BOX
 10
889.7776109592
 20
1371.4826600207
 30
0.0
 41
0.0040727273
 42
0.0040727273
 43
0.0040727273
 50
360.0
  0
MTEXT
  5
306
330
2F6
100
AcDbEntity
  8
レイヤー_1
 62
     7
100
AcDbMText
 10
908.1088611351
 20
1390.4144782025
 30
0.0
 40
17.5
 41
0.0
 71
     1
 72
     1
  1
78
  7
SLDTEXTSTYLE0
 73
     1
 44
1.0
  0
ENDBLK
  5
2F8
330
2F6
100
AcDbEntity
  8
0
100
AcDbBlockEnd
  0
BLOCK
  5
2FF
330
2FE
100
AcDbEntity
  8
0
100
AcDbBlockBegin
  2
SW_SYMBOL_MOD_BOX
 70
     0
 10
0.0
 20
0.0
 30
0.0
  3
SW_SYMBOL_MOD_BOX
  1

  0
LINE
  5
301
330
2FE
100
AcDbEntity
  8
レイヤー_1
 62
     0
100
AcDbLine
 10
1000.0
 20
1000.0
 30
0.0
 11
4000.0
 21
1000.0
 31
0.0
  0
LINE
  5
302
330
2FE
100
AcDbEntity
  8
レイヤー_1
 62
     0
100
AcDbLine
 10
1000.0
 20
1000.0
 30
0.0
 11
1000.0
 21
4000.0
 31
0.0
  0
LINE
  5
303
330
2FE
100
AcDbEntity
  8
レイヤー_1
 62
     0
100
AcDbLine
 10
1000.0
 20
4000.0
 30
0.0
 11
4000.0
 21
4000.0
 31
0.0
  0
LINE
  5
304
330
2FE
100
AcDbEntity
  8
レイヤー_1
 62
     0
100
AcDbLine
 10
4000.0
 20
4000.0
 30
0.0
 11
4000.0
 21
1000.0
 31
0.0
  0
ENDBLK
  5
300
330
2FE
100
AcDbEntity
  8
0
100
AcDbBlockEnd
  0
BLOCK
  5
309
330
308
100
AcDbEntity
  8
0
100
AcDbBlockBegin
  2
_D_6
 70
     0
 10
0.0
 20
0.0
 30
0.0
  3
_D_6
  1

  0
INSERT
  5
30B
330
308
100
AcDbEntity
  8
レイヤー_1
 62
     7
100
AcDbBlockReference
  2
_OPEN30
 10
727.8522716228
 20
1341.8028288895
 30
0.0
 41
16.51
 42
16.51
 50
90.0
  0
INSERT
  5
30C
330
308
100
AcDbEntity
  8
レイヤー_1
 62
     7
100
AcDbBlockReference
  2
_OPEN30
 10
727.8522716228
 20
468.8028288895
 30
0.0
 41
16.51
 42
16.51
 50
270.0
  0
LINE
  5
30D
330
308
100
AcDbEntity
  8
レイヤー_1
 62
     7
100
AcDbLine
 10
868.1272623704
 20
1341.8028288895
 30
0.0
 11
722.8522716228
 21
1341.8028288895
 31
0.0
  0
LINE
  5
30E
330
308
100
AcDbEntity
  8
レイヤー_1
 62
     7
100
AcDbLine
 10
866.6272623704
 20
468.8028288895
 30
0.0
 11
722.8522716228
 21
468.8028288895
 31
0.0
  0
LINE
  5
30F
330
308
100
AcDbEntity
  8
レイヤー_1
 62
     7
100
AcDbLine
 10
727.8522716228
 20
1341.8028288895
 30
0.0
 11
727.8522716228
 21
468.8028288895
 31
0.0
  0
MTEXT
  5
310
330
308
100
AcDbEntity
  8
レイヤー_1
 62
     7
100
AcDbMText
 10
707.4886364233
 20
890.0267870764
 30
0.0
 40
17.5
 41
0.0
 71
     1
 72
     1
  1
873
  7
SLDTEXTSTYLE0
 11
-7.044195017643634E-15
 21
1.0
 31
0.0
 73
     1
 44
1.0
  0
ENDBLK
  5
30A
330
308
100
AcDbEntity
  8
0
100
AcDbBlockEnd
  0
BLOCK
  5
314
330
313
100
AcDbEntity
  8
0
100
AcDbBlockBegin
  2
_D_7
 70
     0
 10
0.0
 20
0.0
 30
0.0
  3
_D_7
  1

  0
INSERT
  5
316
330
313
100
AcDbEntity
  8
レイヤー_1
 62
     7
100
AcDbBlockReference
  2
_OPEN30
 10
946.6272623704
 20
1119.6671329076
 30
0.0
 41
16.51
 42
16.51
 50
180.0
  0
INSERT
  5
317
330
313
100
AcDbEntity
  8
レイヤー_1
 62
     7
100
AcDbBlockReference
  2
_OPEN30
 10
871.6272623704
 20
1119.6671329076
 30
0.0
 41
16.51
 42
16.51
  0
LINE
  5
318
330
313
100
AcDbEntity
  8
レイヤー_1
 62
     7
100
AcDbLine
 10
946.6272623704
 20
1119.6671329076
 30
0.0
 11
978.3772623704
 21
1119.6671329076
 31
0.0
  0
LINE
  5
319
330
313
100
AcDbEntity
  8
レイヤー_1
 62
     7
100
AcDbLine
 10
946.6272623704
 20
1119.6671329076
 30
0.0
 11
871.6272623704
 21
1119.6671329076
 31
0.0
  0
LINE
  5
31A
330
313
100
AcDbEntity
  8
レイヤー_1
 62
     7
100
AcDbLine
 10
871.6272623704
 20
1119.6671329076
 30
0.0
 11
800.7398521451
 21
1119.6671329076
 31
0.0
  0
INSERT
  5
31B
330
313
100
AcDbEntity
  8
レイヤー_1
 62
     7
100
AcDbBlockReference
  2
SW_SYMBOL_MOD_BOX
 10
800.7398521451
 20
1121.0989499253
 30
0.0
 41
0.0040727273
 42
0.0040727273
 43
0.0040727273
  0
MTEXT
  5
31C
330
313
100
AcDbEntity
  8
レイヤー_1
 62
     7
100
AcDbMText
 10
819.071102321
 20
1140.0307681071
 30
0.0
 40
17.5
 41
0.0
 71
     1
 72
     1
  1
75
  7
SLDTEXTSTYLE0
 73
     1
 44
1.0
  0
ENDBLK
  5
315
330
313
100
AcDbEntity
  8
0
100
AcDbBlockEnd
  0
BLOCK
  5
31E
330
31D
100
AcDbEntity
  8
0
100
AcDbBlockBegin
  2
SW_NOTE_2
 70
     0
 10
0.0
 20
0.0
 30
0.0
  3
SW_NOTE_2
  1

  0
CIRCLE
  5
320
330
31D
100
AcDbEntity
  8
レイヤー_1
 62
     0
100
AcDbCircle
 10
22.5
 20
-11.1811926606
 30
0.0
 40
25.12506854343567
  0
MTEXT
  5
321
330
31D
100
AcDbEntity
  8
レイヤー_1
 62
     0
100
AcDbMText
 10
17.4079862563
 20
-2.1363638319
 30
0.0
 40
17.5
 41
0.0
 71
     1
 72
     1
  1
1
  7
SLDTEXTSTYLE0
 73
     1
 44
1.0
  0
ENDBLK
  5
31F
330
31D
100
AcDbEntity
  8
0
100
AcDbBlockEnd
  0
BLOCK
  5
325
330
324
100
AcDbEntity
  8
0
100
AcDbBlockBegin
  2
SW_NOTE_3
 70
     0
 10
0.0
 20
0.0
 30
0.0
  3
SW_NOTE_3
  1

  0
CIRCLE
  5
327
330
324
100
AcDbEntity
  8
レイヤー_1
 62
     0
100
AcDbCircle
 10
22.5
 20
11.1811926606
 30
0.0
 40
25.12506854343561
  0
MTEXT
  5
328
330
324
100
AcDbEntity
  8
レイヤー_1
 62
     0
100
AcDbMText
 10
17.4079862563
 20
20.2260214892
 30
0.0
 40
17.5
 41
0.0
 71
     1
 72
     1
  1
2
  7
SLDTEXTSTYLE0
 73
     1
 44
1.0
  0
ENDBLK
  5
326
330
324
100
AcDbEntity
  8
0
100
AcDbBlockEnd
  0
BLOCK
  5
32C
330
32B
100
AcDbEntity
  8
0
100
AcDbBlockBegin
  2
SW_NOTE_4
 70
     0
 10
0.0
 20
0.0
 30
0.0
  3
SW_NOTE_4
  1

  0
CIRCLE
  5
32E
330
32B
100
AcDbEntity
  8
レイヤー_1
 62
     0
100
AcDbCircle
 10
22.5
 20
11.1811926606
 30
0.0
 40
25.12506854343586
  0
MTEXT
  5
32F
330
32B
100
AcDbEntity
  8
レイヤー_1
 62
     0
100
AcDbMText
 10
17.4079862563
 20
20.2260214892
 30
0.0
 40
17.5
 41
0.0
 71
     1
 72
     1
  1
3
  7
SLDTEXTSTYLE0
 73
     1
 44
1.0
  0
ENDBLK
  5
32D
330
32B
100
AcDbEntity
  8
0
100
AcDbBlockEnd
  0
BLOCK
  5
333
330
332
100
AcDbEntity
  8
0
100
AcDbBlockBegin
  2
_DOT
 70
     0
 10
0.0
 20
0.0
 30
0.0
  3
_DOT
  1

  0
POLYLINE
  5
335
330
332
100
AcDbEntity
  8
0
  6
ByBlock
 62
     0
100
AcDb2dPolyline
 66
     1
 10
0.0
 20
0.0
 30
0.0
 70
     1
 40
0.5
 41
0.5
  0
VERTEX
  5
337
330
335
100
AcDbEntity
  8
0
  6
ByBlock
 62
     0
100
AcDbVertex
100
AcDb2dVertex
 10
-0.25
 20
0.0
 30
0.0
 42
1.0
  0
VERTEX
  5
338
330
335
100
AcDbEntity
  8
0
  6
ByBlock
 62
     0
100
AcDbVertex
100
AcDb2dVertex
 10
0.25
 20
0.0
 30
0.0
 42
1.0
  0
SEQEND
  5
339
330
335
100
AcDbEntity
  8
0
  6
ByBlock
 62
     0
  0
LINE
  5
336
330
332
100
AcDbEntity
  8
0
  6
ByBlock
 62
     0
370
    -2
100
AcDbLine
 10
-0.5
 20
0.0
 30
0.0
 11
-1.0
 21
0.0
 31
0.0
  0
ENDBLK
  5
334
330
332
100
AcDbEntity
  8
0
100
AcDbBlockEnd
  0
BLOCK
  5
33C
330
33B
100
AcDbEntity
  8
0
100
AcDbBlockBegin
  2
SW_NOTE_5
 70
     0
 10
0.0
 20
0.0
 30
0.0
  3
SW_NOTE_5
  1

  0
LINE
  5
33E
330
33B
100
AcDbEntity
  8
レイヤー_1
 62
     0
100
AcDbLine
 10
-116.0247788312
 20
0.0
 30
0.0
 11
0.0
 21
0.0
 31
0.0
  0
MTEXT
  5
33F
330
33B
100
AcDbEntity
  8
レイヤー_1
 62
     0
100
AcDbMText
 10
-118.4999491917
 20
20.33544624870001
 30
0.0
 40
12.5
 41
0.0
 71
     1
 72
     1
  1
{ネカセ棒用穴}
  7
SLDTEXTSTYLE3
 73
     1
 44
1.0
1001
ACAD
1000
ACAD_MTEXT_DEFINED_HEIGHT_BEGIN
1070
    46
1040
14.0625
1000
ACAD_MTEXT_DEFINED_HEIGHT_END
  0
ENDBLK
  5
33D
330
33B
100
AcDbEntity
  8
0
100
AcDbBlockEnd
  0
BLOCK
  5
343
330
342
100
AcDbEntity
  8
0
100
AcDbBlockBegin
  2
SW_NOTE_6
 70
     0
 10
0.0
 20
0.0
 30
0.0
  3
SW_NOTE_6
  1

  0
LINE
  5
345
330
342
100
AcDbEntity
  8
レイヤー_1
 62
     0
100
AcDbLine
 10
148.2008978246
 20
0.0
 30
0.0
 11
0.0
 21
0.0
 31
0.0
  0
MTEXT
  5
346
330
342
100
AcDbEntity
  8
レイヤー_1
 62
     0
100
AcDbMText
 10
2.40268447669996
 20
20.71500905319999
 30
0.0
 40
12.5
 41
0.0
 71
     1
 72
     1
  1
{2-30×70 通線穴}
  7
SLDTEXTSTYLE3
 73
     1
 44
1.0
1001
ACAD
1000
ACAD_MTEXT_DEFINED_HEIGHT_BEGIN
1070
    46
1040
14.0625
1000
ACAD_MTEXT_DEFINED_HEIGHT_END
  0
ENDBLK
  5
344
330
342
100
AcDbEntity
  8
0
100
AcDbBlockEnd
  0
BLOCK
  5
34A
330
349
100
AcDbEntity
  8
0
100
AcDbBlockBegin
  2
SW_NOTE_7
 70
     0
 10
0.0
 20
0.0
 30
0.0
  3
SW_NOTE_7
  1

  0
LINE
  5
34C
330
349
100
AcDbEntity
  8
レイヤー_1
 62
     0
100
AcDbLine
 10
101.2668780504
 20
0.0
 30
0.0
 11
0.0
 21
0.0
 31
0.0
  0
MTEXT
  5
34D
330
349
100
AcDbEntity
  8
レイヤー_1
 62
     0
100
AcDbMText
 10
2.296393803800015
 20
20.6906376554
 30
0.0
 40
12.5
 41
0.0
 71
     1
 72
     1
  1
{Φ10水抜穴}
  7
SLDTEXTSTYLE3
 73
     1
 44
1.0
1001
ACAD
1000
ACAD_MTEXT_DEFINED_HEIGHT_BEGIN
1070
    46
1040
14.0625
1000
ACAD_MTEXT_DEFINED_HEIGHT_END
  0
ENDBLK
  5
34B
330
349
100
AcDbEntity
  8
0
100
AcDbBlockEnd
  0
ENDSEC
  0
SECTION
  2
ENTITIES
  0
HATCH
  5
77
330
1F
100
AcDbEntity
  8
0
  6
Continuous
 62
     7
100
AcDbHatch
 10
0.0
 20
0.0
 30
0.0
210
0.0
220
0.0
230
1.0
  2
SOLID
 70
     1
 71
     0
 91
        2
 92
        0
 93
        7
 72
     1
 10
1762.816507971831
 20
114.7922558605836
 11
1762.816507971831
 21
87.80968847984022
 72
     1
 10
1762.816507971831
 20
87.80968847984022
 11
1771.477167963156
 21
84.53673829002241
 72
     4
 94
        3
 73
     1
 74
     0
 95
        8
 96
        4
 40
1.0
 40
1.0
 40
1.0
 40
1.0
 40
2.0
 40
2.0
 40
2.0
 40
2.0
 10
1771.477167963156
 20
84.53673829002241
 42
1.0
 10
1776.186716844357
 20
84.53673829002244
 42
1.0
 10
1781.114753681233
 20
84.62934245666595
 42
1.0
 10
1784.893920075687
 20
87.91486111903902
 42
1.0
 72
     4
 94
        3
 73
     1
 74
     0
 95
        8
 96
        4
 40
2.0
 40
2.0
 40
2.0
 40
2.0
 40
3.0
 40
3.0
 40
3.0
 40
3.0
 10
1784.893920075687
 20
87.91486111903902
 42
1.0
 10
1788.22501735133
 20
90.84250326240438
 42
1.0
 10
1790.49044324052
 20
94.84980387989205
 42
1.0
 10
1790.49044324052
 20
101.0243796161956
 42
1.0
 72
     4
 94
        3
 73
     1
 74
     0
 95
        8
 96
        4
 40
3.0
 40
3.0
 40
3.0
 40
3.0
 40
4.0
 40
4.0
 40
4.0
 40
4.0
 10
1790.49044324052
 20
101.0243796161956
 42
1.0
 10
1790.49044324052
 20
105.2417277054191
 42
1.0
 10
1789.0693069019
 20
109.3749121119378
 42
1.0
 10
1785.737486156205
 20
112.1291625995306
 42
1.0
 72
     4
 94
        3
 73
     1
 74
     0
 95
        8
 96
        4
 40
4.0
 40
4.0
 40
4.0
 40
4.0
 40
5.0
 40
5.0
 40
5.0
 40
5.0
 10
1785.737486156205
 20
112.1291625995306
 42
1.0
 10
1782.003416061653
 20
115.2345372189799
 42
1.0
 10
1777.520313306697
 20
114.7922558605836
 42
1.0
 10
1772.897580831724
 20
114.7922558605836
 42
1.0
 72
     1
 10
1772.897580831724
 20
114.7922558605836
 11
1762.816507971831
 21
114.7922558605836
 97
        0
 92
        0
 93
        5
 72
     4
 94
        3
 73
     1
 74
     0
 95
        8
 96
        4
 40
2.0
 40
2.0
 40
2.0
 40
2.0
 40
3.0
 40
3.0
 40
3.0
 40
3.0
 10
1786.136118154803
 20
100.3573402283416
 42
1.0
 10
1786.136118154803
 20
94.93493218933264
 42
1.0
 10
1784.536525870046
 20
90.00327800219745
 42
1.0
 10
1779.742572149458
 20
87.60859213040024
 42
1.0
 72
     4
 94
        3
 73
     1
 74
     0
 95
        8
 96
        4
 40
3.0
 40
3.0
 40
3.0
 40
3.0
 40
4.0
 40
4.0
 40
4.0
 40
4.0
 10
1779.742572149458
 20
87.60859213040024
 42
1.0
 10
1776.142585171191
 20
85.78737685307777
 42
1.0
 10
1770.633601882638
 20
86.31550999096666
 42
1.0
 10
1766.722763938737
 20
86.53689182684872
 42
1.0
 72
     1
 10
1766.722763938737
 20
86.53689182684872
 11
1766.722763938737
 21
113.0134841596393
 72
     4
 94
        3
 73
     1
 74
     0
 95
        8
 96
        4
 40
0.0
 40
0.0
 40
0.0
 40
0.0
 40
1.0
 40
1.0
 40
1.0
 40
1.0
 10
1766.722763938737
 20
113.0134841596393
 42
1.0
 10
1768.634654129231
 20
113.0617154964329
 42
1.0
 10
1770.498554139616
 20
113.1909754790395
 42
1.0
 10
1772.322422140461
 20
113.1909754790395
 42
1.0
 72
     4
 94
        3
 73
     1
 74
     0
 95
        8
 96
        4
 40
1.0
 40
1.0
 40
1.0
 40
1.0
 40
2.0
 40
2.0
 40
2.0
 40
2.0
 10
1772.322422140461
 20
113.1909754790395
 42
1.0
 10
1782.27254692096
 20
113.1909754790394
 42
1.0
 10
1786.136118154803
 20
109.7725794838003
 42
1.0
 10
1786.136118154803
 20
100.3573402283416
 42
1.0
 97
        0
 75
     0
 76
     1
 98
        1
 10
0.0
 20
0.0
  0
HATCH
  5
78
330
1F
100
AcDbEntity
  8
0
  6
Continuous
 62
     7
100
AcDbHatch
 10
0.0
 20
0.0
 30
0.0
210
0.0
220
0.0
230
1.0
  2
SOLID
 70
     1
 71
     0
 91
        1
 92
        0
 93
        6
 72
     4
 94
        3
 73
     1
 74
     0
 95
        8
 96
        4
 40
4.0
 40
4.0
 40
4.0
 40
4.0
 40
5.0
 40
5.0
 40
5.0
 40
5.0
 10
1799.110347752254
 20
105.5029003941559
 42
1.0
 10
1799.685506443517
 20
105.5029003941559
 42
1.0
 10
1800.222080065345
 20
105.5996042244268
 42
1.0
 10
1800.885743259623
 20
105.6410831740693
 42
1.0
 72
     1
 10
1800.885743259623
 20
105.6410831740693
 11
1800.885743259623
 21
84.40651368068005
 72
     4
 94
        3
 73
     1
 74
     0
 95
        8
 96
        4
 40
0.0
 40
0.0
 40
0.0
 40
0.0
 40
1.0
 40
1.0
 40
1.0
 40
1.0
 10
1800.885743259623
 20
84.40651368068005
 42
1.0
 10
1800.222080065345
 20
84.45185113726583
 42
1.0
 10
1799.685506443517
 20
84.53673829002241
 42
1.0
 10
1799.110347752254
 20
84.53673829002241
 42
1.0
 72
     4
 94
        3
 73
     1
 74
     0
 95
        8
 96
        4
 40
1.0
 40
1.0
 40
1.0
 40
1.0
 40
2.0
 40
2.0
 40
2.0
 40
2.0
 10
1799.110347752254
 20
84.53673829002241
 42
1.0
 10
1798.489128134354
 20
84.53673829002241
 42
1.0
 10
1797.908422839361
 20
84.45185113726583
 42
1.0
 10
1797.333022991413
 20
84.40651368068005
 42
1.0
 72
     1
 10
1797.333022991413
 20
84.40651368068005
 11
1797.333022991413
 21
105.6410831740693
 72
     4
 94
        3
 73
     1
 74
     0
 95
        8
 96
        4
 40
3.0
 40
3.0
 40
3.0
 40
3.0
 40
4.0
 40
4.0
 40
4.0
 40
4.0
 10
1797.333022991413
 20
105.6410831740693
 42
1.0
 10
1797.908422839361
 20
105.5996042244268
 42
1.0
 10
1798.489128134354
 20
105.5029003941559
 42
1.0
 10
1799.110347752254
 20
105.5029003941559
 42
1.0
 97
        0
 75
     0
 76
     1
 98
        1
 10
0.0
 20
0.0
  0
HATCH
  5
79
330
1F
100
AcDbEntity
  8
0
  6
Continuous
 62
     7
100
AcDbHatch
 10
0.0
 20
0.0
 30
0.0
210
0.0
220
0.0
230
1.0
  2
SOLID
 70
     1
 71
     0
 91
        1
 92
        0
 93
        2
 72
     4
 94
        3
 73
     1
 74
     0
 95
       11
 96
        7
 40
0.0
 40
0.0
 40
0.0
 40
0.0
 40
1.0
 40
1.0
 40
1.0
 40
2.0
 40
2.0
 40
2.0
 40
2.0
 10
1799.110347752254
 20
110.9732986132743
 42
1.0
 10
1797.865014636247
 20
110.9732986132743
 42
1.0
 10
1796.840581042753
 20
111.9902563495654
 42
1.0
 10
1796.840581042753
 20
113.2375187190452
 42
1.0
 10
1796.840581042753
 20
114.4840576184731
 42
1.0
 10
1797.865014636247
 20
115.5072854285471
 42
1.0
 10
1799.110347752254
 20
115.5072854285471
 42
1.0
 72
     4
 94
        3
 73
     1
 74
     0
 95
       11
 96
        7
 40
2.0
 40
2.0
 40
2.0
 40
2.0
 40
3.0
 40
3.0
 40
3.0
 40
4.0
 40
4.0
 40
4.0
 40
4.0
 10
1799.110347752254
 20
115.5072854285471
 42
1.0
 10
1800.306484904733
 20
115.5072854285471
 42
1.0
 10
1801.373362074606
 20
114.4840576184731
 42
1.0
 10
1801.373362074606
 20
113.2375187190452
 42
1.0
 10
1801.373362074606
 20
111.9902563495654
 42
1.0
 10
1800.306484904733
 20
110.9732986132743
 42
1.0
 10
1799.110347752254
 20
110.9732986132743
 42
1.0
 97
        0
 75
     0
 76
     1
 98
        1
 10
0.0
 20
0.0
  0
HATCH
  5
7A
330
1F
100
AcDbEntity
  8
0
  6
Continuous
 62
     7
100
AcDbHatch
 10
0.0
 20
0.0
 30
0.0
210
0.0
220
0.0
230
1.0
  2
SOLID
 70
     1
 71
     0
 91
        1
 92
        0
 93
       14
 72
     4
 94
        3
 73
     1
 74
     0
 95
        8
 96
        4
 40
12.0
 40
12.0
 40
12.0
 40
12.0
 40
13.0
 40
13.0
 40
13.0
 40
13.0
 10
1836.77926294466
 20
112.8856711171366
 42
1.0
 10
1836.378460535906
 20
111.7710449238389
 42
1.0
 10
1836.068333040324
 20
110.6161455643186
 42
1.0
 10
1835.757240918006
 20
109.4651047117417
 42
1.0
 72
     1
 10
1835.757240918006
 20
109.4651047117417
 11
1835.26817516292
 21
109.4651047117417
 72
     4
 94
        3
 73
     1
 74
     0
 95
        8
 96
        4
 40
0.0
 40
0.0
 40
0.0
 40
0.0
 40
1.0
 40
1.0
 40
1.0
 40
1.0
 10
1835.26817516292
 20
109.4651047117417
 42
1.0
 10
1832.779920497743
 20
112.3061716055627
 42
1.0
 10
1829.046332716559
 20
113.7707161472972
 42
1.0
 10
1825.272712925835
 20
113.7707161472972
 42
1.0
 72
     4
 94
        3
 73
     1
 74
     0
 95
        8
 96
        4
 40
1.0
 40
1.0
 40
1.0
 40
1.0
 40
2.0
 40
2.0
 40
2.0
 40
2.0
 10
1825.272712925835
 20
113.7707161472972
 42
1.0
 10
1817.718720957238
 20
113.7707161472972
 42
1.0
 10
1812.479833154728
 20
108.7968595404679
 42
1.0
 10
1812.479833154728
 20
99.82727783698101
 42
1.0
 72
     4
 94
        3
 73
     1
 74
     0
 95
        8
 96
        4
 40
2.0
 40
2.0
 40
2.0
 40
2.0
 40
3.0
 40
3.0
 40
3.0
 40
3.0
 10
1812.479833154728
 20
99.82727783698101
 42
1.0
 10
1812.479833154728
 20
91.02385308874797
 42
1.0
 10
1817.00827336627
 20
85.56117188351634
 42
1.0
 10
1825.75984942745
 20
85.56117188351634
 42
1.0
 72
     4
 94
        3
 73
     1
 74
     0
 95
        8
 96
        4
 40
3.0
 40
3.0
 40
3.0
 40
3.0
 40
4.0
 40
4.0
 40
4.0
 40
4.0
 10
1825.75984942745
 20
85.56117188351634
 42
1.0
 10
1828.161769999766
 20
85.56117188351634
 42
1.0
 10
1830.650989291678
 20
86.00924100232795
 42
1.0
 10
1832.692139464779
 20
87.07177735188856
 42
1.0
 72
     1
 10
1832.692139464779
 20
87.07177735188856
 11
1832.692139464779
 21
98.49078749443329
 72
     4
 94
        3
 73
     1
 74
     0
 95
        8
 96
        4
 40
5.0
 40
5.0
 40
5.0
 40
5.0
 40
6.0
 40
6.0
 40
6.0
 40
6.0
 10
1832.692139464779
 20
98.49078749443329
 42
1.0
 10
1833.314806022782
 20
98.44327962769161
 42
1.0
 10
1833.981845410637
 20
98.35405165462376
 42
1.0
 10
1834.648402485123
 20
98.35405165462376
 42
1.0
 72
     4
 94
        3
 73
     1
 74
     0
 95
        8
 96
        4
 40
6.0
 40
6.0
 40
6.0
 40
6.0
 40
7.0
 40
7.0
 40
7.0
 40
7.0
 10
1834.648402485123
 20
98.35405165462376
 42
1.0
 10
1835.266245909447
 20
98.35405165462376
 42
1.0
 10
1835.892288661028
 20
98.44327962769161
 42
1.0
 10
1836.603218565364
 20
98.49078749443329
 42
1.0
 72
     1
 10
1836.603218565364
 20
98.49078749443329
 11
1836.603218565364
 21
85.91808377578828
 72
     4
 94
        3
 73
     1
 74
     0
 95
        8
 96
        4
 40
8.0
 40
8.0
 40
8.0
 40
8.0
 40
9.0
 40
9.0
 40
9.0
 40
9.0
 10
1836.603218565364
 20
85.91808377578828
 42
1.0
 10
1832.736512294628
 20
84.5859342535518
 42
1.0
 10
1828.650353441484
 20
83.87307509574399
 42
1.0
 10
1824.515963251545
 20
83.87307509574399
 42
1.0
 72
     4
 94
        3
 73
     1
 74
     0
 95
        8
 96
        4
 40
9.0
 40
9.0
 40
9.0
 40
9.0
 40
10.0
 40
10.0
 40
10.0
 40
10.0
 10
1824.515963251545
 20
83.87307509574399
 42
1.0
 10
1813.278061778661
 20
83.87307509574399
 42
1.0
 10
1808.127678479167
 20
90.58301867045529
 42
1.0
 10
1808.127678479167
 20
99.6010728674195
 42
1.0
 72
     4
 94
        3
 73
     1
 74
     0
 95
        8
 96
        4
 40
10.0
 40
10.0
 40
10.0
 40
10.0
 40
11.0
 40
11.0
 40
11.0
 40
11.0
 10
1808.127678479167
 20
99.6010728674195
 42
1.0
 10
1808.127678479167
 20
109.9915497528427
 42
1.0
 10
1815.59027206454
 20
115.456883681598
 42
1.0
 10
1825.448757305132
 20
115.456883681598
 42
1.0
 72
     4
 94
        3
 73
     1
 74
     0
 95
        8
 96
        4
 40
11.0
 40
11.0
 40
11.0
 40
11.0
 40
12.0
 40
12.0
 40
12.0
 40
12.0
 10
1825.448757305132
 20
115.456883681598
 42
1.0
 10
1832.07284910035
 20
115.456883681598
 42
1.0
 10
1835.799202181016
 20
113.5076142050888
 42
1.0
 10
1836.77926294466
 20
112.8856711171366
 42
1.0
 97
        0
 75
     0
 76
     1
 98
        1
 10
0.0
 20
0.0
  0
HATCH
  5
7B
330
1F
100
AcDbEntity
  8
0
  6
Continuous
 62
     7
100
AcDbHatch
 10
0.0
 20
0.0
 30
0.0
210
0.0
220
0.0
230
1.0
  2
SOLID
 70
     1
 71
     0
 91
        1
 92
        0
 93
        6
 72
     4
 94
        3
 73
     1
 74
     0
 95
        8
 96
        4
 40
4.0
 40
4.0
 40
4.0
 40
4.0
 40
5.0
 40
5.0
 40
5.0
 40
5.0
 10
1846.019904760926
 20
105.5029003941559
 42
1.0
 10
1846.596751548976
 20
105.5029003941559
 42
1.0
 10
1847.130190133912
 20
105.5996042244268
 42
1.0
 10
1847.797229521766
 20
105.6410831740693
 42
1.0
 72
     1
 10
1847.797229521766
 20
105.6410831740693
 11
1847.797229521766
 21
84.40651368068005
 72
     4
 94
        3
 73
     1
 74
     0
 95
        8
 96
        4
 40
0.0
 40
0.0
 40
0.0
 40
0.0
 40
1.0
 40
1.0
 40
1.0
 40
1.0
 10
1847.797229521766
 20
84.40651368068005
 42
1.0
 10
1847.130190133912
 20
84.45185113726583
 42
1.0
 10
1846.596751548976
 20
84.53673829002241
 42
1.0
 10
1846.019904760926
 20
84.53673829002241
 42
1.0
 72
     4
 94
        3
 73
     1
 74
     0
 95
        8
 96
        4
 40
1.0
 40
1.0
 40
1.0
 40
1.0
 40
2.0
 40
2.0
 40
2.0
 40
2.0
 10
1846.019904760926
 20
84.53673829002241
 42
1.0
 10
1845.393379695979
 20
84.53673829002241
 42
1.0
 10
1844.816532907928
 20
84.45185113726583
 42
1.0
 10
1844.243062313453
 20
84.40651368068005
 42
1.0
 72
     1
 10
1844.243062313453
 20
84.40651368068005
 11
1844.243062313453
 21
105.6410831740693
 72
     4
 94
        3
 73
     1
 74
     0
 95
        8
 96
        4
 40
3.0
 40
3.0
 40
3.0
 40
3.0
 40
4.0
 40
4.0
 40
4.0
 40
4.0
 10
1844.243062313453
 20
105.6410831740693
 42
1.0
 10
1844.816532907928
 20
105.5996042244268
 42
1.0
 10
1845.393379695979
 20
105.5029003941559
 42
1.0
 10
1846.019904760926
 20
105.5029003941559
 42
1.0
 97
        0
 75
     0
 76
     1
 98
        1
 10
0.0
 20
0.0
  0
HATCH
  5
7C
330
1F
100
AcDbEntity
  8
0
  6
Continuous
 62
     7
100
AcDbHatch
 10
0.0
 20
0.0
 30
0.0
210
0.0
220
0.0
230
1.0
  2
SOLID
 70
     1
 71
     0
 91
        1
 92
        0
 93
        2
 72
     4
 94
        3
 73
     1
 74
     0
 95
       11
 96
        7
 40
0.0
 40
0.0
 40
0.0
 40
0.0
 40
1.0
 40
1.0
 40
1.0
 40
2.0
 40
2.0
 40
2.0
 40
2.0
 10
1846.019904760926
 20
110.9732986132743
 42
1.0
 10
1844.77650089839
 20
110.9732986132743
 42
1.0
 10
1843.750620364792
 20
111.9902563495654
 42
1.0
 10
1843.750620364792
 20
113.2375187190452
 42
1.0
 10
1843.750620364792
 20
114.4840576184731
 42
1.0
 10
1844.77650089839
 20
115.5072854285471
 42
1.0
 10
1846.019904760926
 20
115.5072854285471
 42
1.0
 72
     4
 94
        3
 73
     1
 74
     0
 95
       11
 96
        7
 40
2.0
 40
2.0
 40
2.0
 40
2.0
 40
3.0
 40
3.0
 40
3.0
 40
4.0
 40
4.0
 40
4.0
 40
4.0
 10
1846.019904760926
 20
115.5072854285471
 42
1.0
 10
1847.216041913405
 20
115.5072854285471
 42
1.0
 10
1848.284848336749
 20
114.4840576184731
 42
1.0
 10
1848.284848336749
 20
113.2375187190452
 42
1.0
 10
1848.284848336749
 20
111.9902563495654
 42
1.0
 10
1847.216041913405
 20
110.9732986132743
 42
1.0
 10
1846.019904760926
 20
110.9732986132743
 42
1.0
 97
        0
 75
     0
 76
     1
 98
        1
 10
0.0
 20
0.0
  0
HATCH
  5
7D
330
1F
100
AcDbEntity
  8
0
  6
Continuous
 62
     7
100
AcDbHatch
 10
0.0
 20
0.0
 30
0.0
210
0.0
220
0.0
230
1.0
  2
SOLID
 70
     1
 71
     0
 91
        1
 92
        0
 93
       11
 72
     4
 94
        3
 73
     1
 74
     0
 95
        8
 96
        4
 40
9.0
 40
9.0
 40
9.0
 40
9.0
 40
10.0
 40
10.0
 40
10.0
 40
10.0
 10
1876.00629147218
 20
112.1291625995306
 42
1.0
 10
1873.782344532631
 20
112.3939526385269
 42
1.0
 10
1870.677211069866
 20
112.6640481245705
 42
1.0
 10
1866.723688392903
 20
112.6640481245705
 42
1.0
 72
     1
 10
1866.723688392903
 20
112.6640481245705
 11
1866.723688392903
 21
84.32066190118748
 72
     4
 94
        3
 73
     1
 74
     0
 95
        8
 96
        4
 40
0.0
 40
0.0
 40
0.0
 40
0.0
 40
1.0
 40
1.0
 40
1.0
 40
1.0
 10
1866.723688392903
 20
84.32066190118748
 42
1.0
 10
1866.012758488567
 20
84.36792861124523
 42
1.0
 10
1865.388644990459
 20
84.45185113726583
 42
1.0
 10
1864.767425372559
 20
84.45185113726583
 42
1.0
 72
     4
 94
        3
 73
     1
 74
     0
 95
        8
 96
        4
 40
1.0
 40
1.0
 40
1.0
 40
1.0
 40
2.0
 40
2.0
 40
2.0
 40
2.0
 10
1864.767425372559
 20
84.45185113726583
 42
1.0
 10
1864.102315238177
 20
84.45185113726583
 42
1.0
 10
1863.431417343379
 20
84.36792861124523
 42
1.0
 10
1862.810197725479
 20
84.32066190118748
 42
1.0
 72
     1
 10
1862.810197725479
 20
84.32066190118748
 11
1862.810197725479
 21
112.6640481245705
 72
     4
 94
        3
 73
     1
 74
     0
 95
        8
 96
        4
 40
3.0
 40
3.0
 40
3.0
 40
3.0
 40
4.0
 40
4.0
 40
4.0
 40
4.0
 10
1862.810197725479
 20
112.6640481245705
 42
1.0
 10
1858.325648030419
 20
112.6640481245705
 42
1.0
 10
1855.618423096201
 20
112.3939526385269
 42
1.0
 10
1853.082901720966
 20
112.1291625995306
 42
1.0
 72
     4
 94
        3
 73
     1
 74
     0
 95
        8
 96
        4
 40
4.0
 40
4.0
 40
4.0
 40
4.0
 40
5.0
 40
5.0
 40
5.0
 40
5.0
 10
1853.082901720966
 20
112.1291625995306
 42
1.0
 10
1853.124380670608
 20
112.5743378381345
 42
1.0
 10
1853.216020210516
 20
113.0134841596393
 42
1.0
 10
1853.216020210516
 20
113.4608298083989
 42
1.0
 72
     4
 94
        3
 73
     1
 74
     0
 95
        8
 96
        4
 40
5.0
 40
5.0
 40
5.0
 40
5.0
 40
6.0
 40
6.0
 40
6.0
 40
6.0
 10
1853.216020210516
 20
113.4608298083989
 42
1.0
 10
1853.216020210516
 20
113.9043169502153
 42
1.0
 10
1853.124380670608
 20
114.3036724188655
 42
1.0
 10
1853.082901720966
 20
114.7922558605836
 42
1.0
 72
     1
 10
1853.082901720966
 20
114.7922558605836
 11
1876.00629147218
 21
114.7922558605836
 72
     4
 94
        3
 73
     1
 74
     0
 95
        8
 96
        4
 40
7.0
 40
7.0
 40
7.0
 40
7.0
 40
8.0
 40
8.0
 40
8.0
 40
8.0
 10
1876.00629147218
 20
114.7922558605836
 42
1.0
 10
1875.957095508651
 20
114.3036724188655
 42
1.0
 10
1875.872690669262
 20
113.9043169502153
 42
1.0
 10
1875.872690669262
 20
113.4608298083989
 42
1.0
 72
     4
 94
        3
 73
     1
 74
     0
 95
        8
 96
        4
 40
8.0
 40
8.0
 40
8.0
 40
8.0
 40
9.0
 40
9.0
 40
9.0
 40
9.0
 10
1875.872690669262
 20
113.4608298083989
 42
1.0
 10
1875.872690669262
 20
113.0134841596393
 42
1.0
 10
1875.957095508651
 20
112.5743378381345
 42
1.0
 10
1876.00629147218
 20
112.1291625995306
 42
1.0
 97
        0
 75
     0
 76
     1
 98
        1
 10
0.0
 20
0.0
  0
HATCH
  5
7E
330
1F
100
AcDbEntity
  8
0
  6
Continuous
 62
     7
100
AcDbHatch
 10
0.0
 20
0.0
 30
0.0
210
0.0
220
0.0
230
1.0
  2
SOLID
 70
     1
 71
     0
 91
        1
 92
        0
 93
       20
 72
     4
 94
        3
 73
     1
 74
     0
 95
        8
 96
        4
 40
16.0
 40
16.0
 40
16.0
 40
16.0
 40
17.0
 40
17.0
 40
17.0
 40
17.0
 10
1896.615059370673
 20
112.1291625995306
 42
1.0
 10
1895.284839101909
 20
112.3939526385269
 42
1.0
 10
1893.947866445993
 20
112.5277945981288
 42
1.0
 10
1892.619093117332
 20
112.6146110043572
 42
1.0
 72
     1
 10
1892.619093117332
 20
112.6146110043572
 11
1888.18181013233
 21
112.7028743506892
 72
     1
 10
1888.18181013233
 20
112.7028743506892
 11
1884.75304439968
 21
112.7028743506892
 72
     1
 10
1884.75304439968
 20
112.7028743506892
 11
1884.75304439968
 21
101.5563712610279
 72
     1
 10
1884.75304439968
 20
101.5563712610279
 11
1891.641443920528
 21
101.5563712610279
 72
     4
 94
        3
 73
     1
 74
     0
 95
        8
 96
        4
 40
1.0
 40
1.0
 40
1.0
 40
1.0
 40
2.0
 40
2.0
 40
2.0
 40
2.0
 10
1891.641443920528
 20
101.5563712610279
 42
1.0
 10
1892.970699562556
 20
101.5563712610279
 42
1.0
 10
1894.26137013515
 20
101.7324156403242
 42
1.0
 10
1895.593037344019
 20
101.7775119402261
 42
1.0
 72
     4
 94
        3
 73
     1
 74
     0
 95
        8
 96
        4
 40
2.0
 40
2.0
 40
2.0
 40
2.0
 40
3.0
 40
3.0
 40
3.0
 40
3.0
 10
1895.593037344019
 20
101.7775119402261
 42
1.0
 10
1895.553969961216
 20
101.4218058313741
 42
1.0
 10
1895.462330421308
 20
101.0243796161956
 42
1.0
 10
1895.462330421308
 20
100.6257476175973
 42
1.0
 72
     4
 94
        3
 73
     1
 74
     0
 95
        8
 96
        4
 40
3.0
 40
3.0
 40
3.0
 40
3.0
 40
4.0
 40
4.0
 40
4.0
 40
4.0
 10
1895.462330421308
 20
100.6257476175973
 42
1.0
 10
1895.462330421308
 20
100.264977218382
 42
1.0
 10
1895.553969961216
 20
99.86296902620829
 42
1.0
 10
1895.593037344019
 20
99.37848524811747
 42
1.0
 72
     4
 94
        3
 73
     1
 74
     0
 95
        8
 96
        4
 40
4.0
 40
4.0
 40
4.0
 40
4.0
 40
5.0
 40
5.0
 40
5.0
 40
5.0
 10
1895.593037344019
 20
99.37848524811747
 42
1.0
 10
1894.26137013515
 20
99.4293693084347
 42
1.0
 10
1892.970699562556
 20
99.6010728674195
 42
1.0
 10
1891.641443920528
 20
99.6010728674195
 42
1.0
 72
     1
 10
1891.641443920528
 20
99.6010728674195
 11
1884.75304439968
 21
99.6010728674195
 72
     1
 10
1884.75304439968
 20
99.6010728674195
 11
1884.75304439968
 21
86.62708442665262
 72
     4
 94
        3
 73
     1
 74
     0
 95
        8
 96
        4
 40
7.0
 40
7.0
 40
7.0
 40
7.0
 40
8.0
 40
8.0
 40
8.0
 40
8.0
 10
1884.75304439968
 20
86.62708442665262
 42
1.0
 10
1887.464127840842
 20
86.53689182684872
 42
1.0
 10
1890.12746225858
 20
86.71872396656016
 42
1.0
 10
1892.798996003572
 20
86.80602268615658
 42
1.0
 72
     4
 94
        3
 73
     1
 74
     0
 95
        8
 96
        4
 40
8.0
 40
8.0
 40
8.0
 40
8.0
 40
9.0
 40
9.0
 40
9.0
 40
9.0
 10
1892.798996003572
 20
86.80602268615658
 42
1.0
 10
1894.17262447545
 20
86.85184245611042
 42
1.0
 10
1895.508150191262
 20
86.98592557239625
 42
1.0
 10
1896.882743289877
 20
87.2058604681746
 42
1.0
 72
     4
 94
        3
 73
     1
 74
     0
 95
        8
 96
        4
 40
9.0
 40
9.0
 40
9.0
 40
9.0
 40
10.0
 40
10.0
 40
10.0
 40
10.0
 10
1896.882743289877
 20
87.2058604681746
 42
1.0
 10
1896.839817400131
 20
86.71872396656016
 42
1.0
 10
1896.752518680535
 20
86.31550999096666
 42
1.0
 10
1896.752518680535
 20
85.86985243899481
 42
1.0
 72
     4
 94
        3
 73
     1
 74
     0
 95
        8
 96
        4
 40
10.0
 40
10.0
 40
10.0
 40
10.0
 40
11.0
 40
11.0
 40
11.0
 40
11.0
 10
1896.752518680535
 20
85.86985243899481
 42
1.0
 10
1896.752518680535
 20
85.42998264743798
 42
1.0
 10
1896.839817400131
 20
84.98336046873027
 42
1.0
 10
1896.882743289877
 20
84.53673829002241
 42
1.0
 72
     1
 10
1896.882743289877
 20
84.53673829002241
 11
1880.846788432775
 21
84.53673829002241
 72
     1
 10
1880.846788432775
 20
84.53673829002241
 11
1880.846788432775
 21
114.7922558605836
 72
     1
 10
1880.846788432775
 20
114.7922558605836
 11
1896.615059370673
 21
114.7922558605836
 72
     4
 94
        3
 73
     1
 74
     0
 95
        8
 96
        4
 40
14.0
 40
14.0
 40
14.0
 40
14.0
 40
15.0
 40
15.0
 40
15.0
 40
15.0
 10
1896.615059370673
 20
114.7922558605836
 42
1.0
 10
1896.576474301238
 20
114.3036724188655
 42
1.0
 10
1896.483387821228
 20
113.9043169502153
 42
1.0
 10
1896.483387821228
 20
113.4608298083989
 42
1.0
 72
     4
 94
        3
 73
     1
 74
     0
 95
        8
 96
        4
 40
15.0
 40
15.0
 40
15.0
 40
15.0
 40
16.0
 40
16.0
 40
16.0
 40
16.0
 10
1896.483387821228
 20
113.4608298083989
 42
1.0
 10
1896.483387821228
 20
113.0134841596393
 42
1.0
 10
1896.576474301238
 20
112.5743378381345
 42
1.0
 10
1896.615059370673
 20
112.1291625995306
 42
1.0
 97
        0
 75
     0
 76
     1
 98
        1
 10
0.0
 20
0.0
  0
HATCH
  5
7F
330
1F
100
AcDbEntity
  8
0
  6
Continuous
 62
     7
100
AcDbHatch
 10
0.0
 20
0.0
 30
0.0
210
0.0
220
0.0
230
1.0
  2
SOLID
 70
     1
 71
     0
 91
        1
 92
        0
 93
       11
 72
     4
 94
        3
 73
     1
 74
     0
 95
        8
 96
        4
 40
9.0
 40
9.0
 40
9.0
 40
9.0
 40
10.0
 40
10.0
 40
10.0
 40
10.0
 10
1917.049712143342
 20
85.60650934010218
 42
1.0
 10
1921.849212467664
 20
85.60650934010218
 42
1.0
 10
1925.579424055273
 20
88.4511935841827
 42
1.0
 10
1926.471221472585
 20
89.20553169163311
 42
1.0
 72
     1
 10
1926.471221472585
 20
89.20553169163311
 11
1926.24791038323
 21
86.4052202774025
 72
     4
 94
        3
 73
     1
 74
     0
 95
        8
 96
        4
 40
0.0
 40
0.0
 40
0.0
 40
0.0
 40
1.0
 40
1.0
 40
1.0
 40
1.0
 10
1926.24791038323
 20
86.4052202774025
 42
1.0
 10
1923.451939789312
 20
84.53673829002241
 42
1.0
 10
1919.808544607931
 20
83.87307509574399
 42
1.0
 10
1916.430421778914
 20
83.87307509574399
 42
1.0
 72
     4
 94
        3
 73
     1
 74
     0
 95
        8
 96
        4
 40
1.0
 40
1.0
 40
1.0
 40
1.0
 40
2.0
 40
2.0
 40
2.0
 40
2.0
 10
1916.430421778914
 20
83.87307509574399
 42
1.0
 10
1906.660199884655
 20
83.87307509574399
 42
1.0
 10
1900.79189313699
 20
90.04620389194368
 42
1.0
 10
1900.79189313699
 20
99.77928765687155
 42
1.0
 72
     4
 94
        3
 73
     1
 74
     0
 95
        8
 96
        4
 40
2.0
 40
2.0
 40
2.0
 40
2.0
 40
3.0
 40
3.0
 40
3.0
 40
3.0
 10
1900.79189313699
 20
99.77928765687155
 42
1.0
 10
1900.79189313699
 20
109.7725794838003
 42
1.0
 10
1908.16549990598
 20
115.456883681598
 42
1.0
 10
1917.542154092004
 20
115.456883681598
 42
1.0
 72
     4
 94
        3
 73
     1
 74
     0
 95
        8
 96
        4
 40
3.0
 40
3.0
 40
3.0
 40
3.0
 40
4.0
 40
4.0
 40
4.0
 40
4.0
 10
1917.542154092004
 20
115.456883681598
 42
1.0
 10
1920.783299924527
 20
115.456883681598
 42
1.0
 10
1924.117049923694
 20
114.707368707827
 42
1.0
 10
1927.092441090485
 20
113.4179039186528
 42
1.0
 72
     4
 94
        3
 73
     1
 74
     0
 95
        8
 96
        4
 40
4.0
 40
4.0
 40
4.0
 40
4.0
 40
5.0
 40
5.0
 40
5.0
 40
5.0
 10
1927.092441090485
 20
113.4179039186528
 42
1.0
 10
1926.645336598408
 20
112.3061716055627
 42
1.0
 10
1926.38344043962
 20
111.1507899326745
 42
1.0
 10
1926.160129350267
 20
109.9915497528427
 42
1.0
 72
     1
 10
1926.160129350267
 20
109.9915497528427
 11
1925.847107974477
 21
109.9493473331484
 72
     4
 94
        3
 73
     1
 74
     0
 95
        8
 96
        4
 40
6.0
 40
6.0
 40
6.0
 40
6.0
 40
7.0
 40
7.0
 40
7.0
 40
7.0
 10
1925.847107974477
 20
109.9493473331484
 42
1.0
 10
1925.225888356576
 20
110.7521579340762
 42
1.0
 10
1921.937475813995
 20
113.7707161472972
 42
1.0
 10
1917.364662772604
 20
113.7707161472972
 42
1.0
 72
     4
 94
        3
 73
     1
 74
     0
 95
        8
 96
        4
 40
7.0
 40
7.0
 40
7.0
 40
7.0
 40
8.0
 40
8.0
 40
8.0
 40
8.0
 10
1917.364662772604
 20
113.7707161472972
 42
1.0
 10
1909.189933499474
 20
113.7707161472972
 42
1.0
 10
1905.146218222707
 20
107.1497593889698
 42
1.0
 10
1905.146218222707
 20
99.6010728674195
 42
1.0
 72
     4
 94
        3
 73
     1
 74
     0
 95
        8
 96
        4
 40
8.0
 40
8.0
 40
8.0
 40
8.0
 40
9.0
 40
9.0
 40
9.0
 40
9.0
 10
1905.146218222707
 20
99.6010728674195
 42
1.0
 10
1905.146218222707
 20
91.06726129186204
 42
1.0
 10
1910.031088013152
 20
85.60650934010218
 42
1.0
 10
1917.049712143342
 20
85.60650934010218
 42
1.0
 97
        0
 75
     0
 76
     1
 98
        1
 10
0.0
 20
0.0
  0
HATCH
  5
80
330
1F
100
AcDbEntity
  8
0
  6
Continuous
 62
     7
100
AcDbHatch
 10
0.0
 20
0.0
 30
0.0
210
0.0
220
0.0
230
1.0
  2
SOLID
 70
     1
 71
     0
 91
        1
 92
        0
 93
        8
 72
     1
 10
1768.666969124882
 20
73.35165013092627
 11
1768.666969124882
 21
71.98091553925505
 72
     1
 10
1768.666969124882
 20
71.98091553925505
 11
1765.777912050952
 21
71.98091553925505
 72
     1
 10
1765.777912050952
 20
71.98091553925505
 11
1765.777912050952
 21
64.27161866618248
 72
     1
 10
1765.777912050952
 20
64.27161866618248
 11
1764.187242563502
 21
64.27161866618248
 72
     1
 10
1764.187242563502
 20
64.27161866618248
 11
1764.187242563502
 21
71.98091553925505
 72
     1
 10
1764.187242563502
 20
71.98091553925505
 11
1761.311690263874
 21
71.98091553925505
 72
     1
 10
1761.311690263874
 20
71.98091553925505
 11
1761.311690263874
 21
73.35165013092627
 72
     1
 10
1761.311690263874
 20
73.35165013092627
 11
1768.666969124882
 21
73.35165013092627
 97
        0
 75
     0
 76
     1
 98
        1
 10
0.0
 20
0.0
  0
HATCH
  5
81
330
1F
100
AcDbEntity
  8
0
  6
Continuous
 62
     7
100
AcDbHatch
 10
0.0
 20
0.0
 30
0.0
210
0.0
220
0.0
230
1.0
  2
SOLID
 70
     1
 71
     0
 91
        2
 92
        0
 93
        8
 72
     1
 10
1770.979902880814
 20
73.35165013092627
 11
1767.495429954168
 21
64.27161866618248
 72
     1
 10
1767.495429954168
 20
64.27161866618248
 11
1769.137706971987
 21
64.27161866618248
 72
     1
 10
1769.137706971987
 20
64.27161866618248
 11
1769.993330886704
 21
66.67257461176278
 72
     1
 10
1769.993330886704
 20
66.67257461176278
 11
1773.615745436579
 21
66.67257461176278
 72
     1
 10
1773.615745436579
 20
66.67257461176278
 11
1774.468957784457
 21
64.27161866618248
 72
     1
 10
1774.468957784457
 20
64.27161866618248
 11
1776.175623636894
 21
64.27161866618248
 72
     1
 10
1776.175623636894
 20
64.27161866618248
 11
1772.674993212422
 21
73.35165013092627
 72
     1
 10
1772.674993212422
 20
73.35165013092627
 11
1770.979902880814
 21
73.35165013092627
 97
        0
 92
        0
 93
        4
 72
     1
 10
1773.198062059948
 20
67.88221653854376
 11
1770.42162515743
 21
67.88221653854376
 72
     1
 10
1770.42162515743
 20
67.88221653854376
 11
1771.798629822884
 21
71.78991944555283
 72
     1
 10
1771.798629822884
 20
71.78991944555283
 11
1771.833838698743
 21
71.78991944555283
 72
     1
 10
1771.833838698743
 20
71.78991944555283
 11
1773.198062059948
 21
67.88221653854376
 97
        0
 75
     0
 76
     1
 98
        1
 10
0.0
 20
0.0
  0
HATCH
  5
82
330
1F
100
AcDbEntity
  8
0
  6
Continuous
 62
     7
100
AcDbHatch
 10
0.0
 20
0.0
 30
0.0
210
0.0
220
0.0
230
1.0
  2
SOLID
 70
     1
 71
     0
 91
        1
 92
        0
 93
       12
 72
     1
 10
1782.675037426503
 20
73.35165013092627
 11
1784.633712013686
 21
73.35165013092627
 72
     1
 10
1784.633712013686
 20
73.35165013092627
 11
1781.007921270235
 21
69.73044136447051
 72
     1
 10
1781.007921270235
 20
69.73044136447051
 11
1784.886685375168
 21
64.27161866618248
 72
     1
 10
1784.886685375168
 20
64.27161866618248
 11
1782.903895119587
 21
64.27161866618248
 72
     1
 10
1782.903895119587
 20
64.27161866618248
 11
1779.927298169376
 21
68.60858047065375
 72
     1
 10
1779.927298169376
 20
68.60858047065375
 11
1778.628187112843
 21
67.31887452479565
 72
     1
 10
1778.628187112843
 20
67.31887452479565
 11
1778.628187112843
 21
64.27161866618248
 72
     1
 10
1778.628187112843
 20
64.27161866618248
 11
1777.038482252129
 21
64.27161866618248
 72
     1
 10
1777.038482252129
 20
64.27161866618248
 11
1777.038482252129
 21
73.35165013092627
 72
     1
 10
1777.038482252129
 20
73.35165013092627
 11
1778.628187112843
 21
73.35165013092627
 72
     1
 10
1778.628187112843
 20
73.35165013092627
 11
1778.628187112843
 21
69.22015382119532
 72
     1
 10
1778.628187112843
 20
69.22015382119532
 11
1782.675037426503
 21
73.35165013092627
 97
        0
 75
     0
 76
     1
 98
        1
 10
0.0
 20
0.0
  0
HATCH
  5
83
330
1F
100
AcDbEntity
  8
0
  6
Continuous
 62
     7
100
AcDbHatch
 10
0.0
 20
0.0
 30
0.0
210
0.0
220
0.0
230
1.0
  2
SOLID
 70
     1
 71
     0
 91
        2
 92
        0
 93
        8
 72
     1
 10
1788.184020715055
 20
73.35165013092627
 11
1784.698824318357
 21
64.27161866618248
 72
     1
 10
1784.698824318357
 20
64.27161866618248
 11
1786.338448612652
 21
64.27161866618248
 72
     1
 10
1786.338448612652
 20
64.27161866618248
 11
1787.190214020426
 21
66.67257461176278
 72
     1
 10
1787.190214020426
 20
66.67257461176278
 11
1790.814316667089
 21
66.67257461176278
 72
     1
 10
1790.814316667089
 20
66.67257461176278
 11
1791.666805544914
 21
64.27161866618248
 72
     1
 10
1791.666805544914
 20
64.27161866618248
 11
1793.374677180772
 21
64.27161866618248
 72
     1
 10
1793.374677180772
 20
64.27161866618248
 11
1789.873564442931
 21
73.35165013092627
 72
     1
 10
1789.873564442931
 20
73.35165013092627
 11
1788.184020715055
 21
73.35165013092627
 97
        0
 92
        0
 93
        4
 72
     1
 10
1790.394945193669
 20
67.88221653854376
 11
1787.620678701307
 21
67.88221653854376
 72
     1
 10
1787.620678701307
 20
67.88221653854376
 11
1788.995512956606
 21
71.78991944555283
 72
     1
 10
1788.995512956606
 20
71.78991944555283
 11
1789.033856869357
 21
71.78991944555283
 72
     1
 10
1789.033856869357
 20
71.78991944555283
 11
1790.394945193669
 21
67.88221653854376
 97
        0
 75
     0
 76
     1
 98
        1
 10
0.0
 20
0.0
  0
HATCH
  5
84
330
1F
100
AcDbEntity
  8
0
  6
Continuous
 62
     7
100
AcDbHatch
 10
0.0
 20
0.0
 30
0.0
210
0.0
220
0.0
230
1.0
  2
SOLID
 70
     1
 71
     0
 91
        1
 92
        0
 93
       16
 72
     4
 94
        3
 73
     1
 74
     0
 95
        8
 96
        4
 40
14.0
 40
14.0
 40
14.0
 40
14.0
 40
15.0
 40
15.0
 40
15.0
 40
15.0
 10
1797.482540135474
 20
64.05264839713999
 42
1.0
 10
1795.410521906825
 20
64.05264839713999
 42
1.0
 10
1793.728212879468
 20
65.0452493083501
 42
1.0
 10
1793.692039376872
 20
67.30151124354994
 42
1.0
 72
     1
 10
1793.692039376872
 20
67.30151124354994
 11
1795.280538454166
 21
67.30151124354994
 72
     4
 94
        3
 73
     1
 74
     0
 95
        8
 96
        4
 40
0.0
 40
0.0
 40
0.0
 40
0.0
 40
1.0
 40
1.0
 40
1.0
 40
1.0
 10
1795.280538454166
 20
67.30151124354994
 42
1.0
 10
1795.280538454166
 20
65.89701471612321
 42
1.0
 10
1796.312689061547
 20
65.35007135688502
 42
1.0
 10
1797.584549412792
 20
65.35007135688502
 42
1.0
 72
     4
 94
        3
 73
     1
 74
     0
 95
        8
 96
        4
 40
1.0
 40
1.0
 40
1.0
 40
1.0
 40
2.0
 40
2.0
 40
2.0
 40
2.0
 10
1797.584549412792
 20
65.35007135688502
 42
1.0
 10
1798.985669746644
 20
65.35007135688502
 42
1.0
 10
1799.503191990437
 20
66.04170872650387
 42
1.0
 10
1799.503191990437
 20
66.72755833570741
 42
1.0
 72
     4
 94
        3
 73
     1
 74
     0
 95
        8
 96
        4
 40
2.0
 40
2.0
 40
2.0
 40
2.0
 40
3.0
 40
3.0
 40
3.0
 40
3.0
 10
1799.503191990437
 20
66.72755833570741
 42
1.0
 10
1799.503191990437
 20
67.42594809247734
 42
1.0
 10
1799.123129056505
 20
67.70954835282289
 42
1.0
 10
1798.753435859982
 20
67.84652534931648
 42
1.0
 72
     4
 94
        3
 73
     1
 74
     0
 95
        8
 96
        4
 40
3.0
 40
3.0
 40
3.0
 40
3.0
 40
4.0
 40
4.0
 40
4.0
 40
4.0
 10
1798.753435859982
 20
67.84652534931648
 42
1.0
 10
1798.117987997729
 20
68.08961128675571
 42
1.0
 10
1797.291302885087
 20
68.24877469817433
 42
1.0
 10
1796.04355820224
 20
68.5960403230875
 42
1.0
 72
     4
 94
        3
 73
     1
 74
     0
 95
        8
 96
        4
 40
4.0
 40
4.0
 40
4.0
 40
4.0
 40
5.0
 40
5.0
 40
5.0
 40
5.0
 10
1796.04355820224
 20
68.5960403230875
 42
1.0
 10
1794.493885351064
 20
69.01661757992663
 42
1.0
 10
1794.03592880821
 20
69.96098715434348
 42
1.0
 10
1794.03592880821
 20
70.8966750881372
 42
1.0
 72
     4
 94
        3
 73
     1
 74
     0
 95
        8
 96
        4
 40
5.0
 40
5.0
 40
5.0
 40
5.0
 40
6.0
 40
6.0
 40
6.0
 40
6.0
 10
1794.03592880821
 20
70.8966750881372
 42
1.0
 10
1794.03592880821
 20
72.71692573872382
 42
1.0
 10
1795.71413817194
 20
73.57351428017645
 42
1.0
 10
1797.354727092971
 20
73.57351428017645
 42
1.0
 72
     4
 94
        3
 73
     1
 74
     0
 95
        8
 96
        4
 40
6.0
 40
6.0
 40
6.0
 40
6.0
 40
7.0
 40
7.0
 40
7.0
 40
7.0
 10
1797.354727092971
 20
73.57351428017645
 42
1.0
 10
1799.249977472272
 20
73.57351428017645
 42
1.0
 10
1800.84305852656
 20
72.56355008772064
 42
1.0
 10
1800.84305852656
 20
70.66902317847197
 42
1.0
 72
     1
 10
1800.84305852656
 20
70.66902317847197
 11
1799.249977472272
 21
70.66902317847197
 72
     4
 94
        3
 73
     1
 74
     0
 95
        8
 96
        4
 40
8.0
 40
8.0
 40
8.0
 40
8.0
 40
9.0
 40
9.0
 40
9.0
 40
9.0
 10
1799.249977472272
 20
70.66902317847197
 42
1.0
 10
1799.172807333402
 20
71.8429739160256
 42
1.0
 10
1798.383983820143
 20
72.27512669369543
 42
1.0
 10
1797.291302885087
 20
72.27512669369543
 42
1.0
 72
     4
 94
        3
 73
     1
 74
     0
 95
        8
 96
        4
 40
9.0
 40
9.0
 40
9.0
 40
9.0
 40
10.0
 40
10.0
 40
10.0
 40
10.0
 10
1797.291302885087
 20
72.27512669369543
 42
1.0
 10
1796.553845745515
 20
72.27512669369543
 42
1.0
 10
1795.625151355556
 20
72.0059958343877
 42
1.0
 10
1795.625151355556
 20
71.09056506204718
 42
1.0
 72
     4
 94
        3
 73
     1
 74
     0
 95
        8
 96
        4
 40
10.0
 40
10.0
 40
10.0
 40
10.0
 40
11.0
 40
11.0
 40
11.0
 40
11.0
 10
1795.625151355556
 20
71.09056506204718
 42
1.0
 10
1795.625151355556
 20
70.45391141637302
 42
1.0
 10
1796.058027603278
 20
70.09507027062932
 42
1.0
 10
1796.704809829678
 20
69.91950820470096
 42
1.0
 72
     4
 94
        3
 73
     1
 74
     0
 95
        8
 96
        4
 40
11.0
 40
11.0
 40
11.0
 40
11.0
 40
12.0
 40
12.0
 40
12.0
 40
12.0
 10
1796.704809829678
 20
69.91950820470096
 42
1.0
 10
1796.848539213323
 20
69.87995850853042
 42
1.0
 10
1798.855445137301
 20
69.36291857810409
 42
1.0
 10
1799.325459514353
 20
69.22015382119532
 42
1.0
 72
     4
 94
        3
 73
     1
 74
     0
 95
        8
 96
        4
 40
12.0
 40
12.0
 40
12.0
 40
12.0
 40
13.0
 40
13.0
 40
13.0
 40
13.0
 10
1799.325459514353
 20
69.22015382119532
 42
1.0
 10
1800.521837823516
 20
68.86324192892346
 42
1.0
 10
1801.093138007835
 20
67.84652534931648
 42
1.0
 10
1801.093138007835
 20
66.90312040163576
 42
1.0
 72
     4
 94
        3
 73
     1
 74
     0
 95
        8
 96
        4
 40
13.0
 40
13.0
 40
13.0
 40
13.0
 40
14.0
 40
14.0
 40
14.0
 40
14.0
 10
1801.093138007835
 20
66.90312040163576
 42
1.0
 10
1801.093138007835
 20
64.86872261568595
 42
1.0
 10
1799.287839071654
 20
64.05264839713999
 42
1.0
 10
1797.482540135474
 20
64.05264839713999
 42
1.0
 97
        0
 75
     0
 76
     1
 98
        1
 10
0.0
 20
0.0
  0
HATCH
  5
85
330
1F
100
AcDbEntity
  8
0
  6
Continuous
 62
     7
100
AcDbHatch
 10
0.0
 20
0.0
 30
0.0
210
0.0
220
0.0
230
1.0
  2
SOLID
 70
     1
 71
     0
 91
        1
 92
        0
 93
       12
 72
     1
 10
1802.441203871214
 20
64.27161866618248
 11
1802.441203871214
 21
73.35165013092627
 72
     1
 10
1802.441203871214
 20
73.35165013092627
 11
1804.036696492342
 21
73.35165013092627
 72
     1
 10
1804.036696492342
 20
73.35165013092627
 11
1804.036696492342
 21
69.73912300509336
 72
     1
 10
1804.036696492342
 20
69.73912300509336
 11
1808.170122055545
 21
69.73912300509336
 72
     1
 10
1808.170122055545
 20
69.73912300509336
 11
1808.170122055545
 21
73.35165013092627
 72
     1
 10
1808.170122055545
 20
73.35165013092627
 11
1809.757656506103
 21
73.35165013092627
 72
     1
 10
1809.757656506103
 20
73.35165013092627
 11
1809.757656506103
 21
64.27161866618248
 72
     1
 10
1809.757656506103
 20
64.27161866618248
 11
1808.170122055545
 21
64.27161866618248
 72
     1
 10
1808.170122055545
 20
64.27161866618248
 11
1808.170122055545
 21
68.37031766689391
 72
     1
 10
1808.170122055545
 20
68.37031766689391
 11
1804.036696492342
 21
68.37031766689391
 72
     1
 10
1804.036696492342
 20
68.37031766689391
 11
1804.036696492342
 21
64.27161866618248
 72
     1
 10
1804.036696492342
 20
64.27161866618248
 11
1802.441203871214
 21
64.27161866618248
 97
        0
 75
     0
 76
     1
 98
        1
 10
0.0
 20
0.0
  0
HATCH
  5
86
330
1F
100
AcDbEntity
  8
0
  6
Continuous
 62
     7
100
AcDbHatch
 10
0.0
 20
0.0
 30
0.0
210
0.0
220
0.0
230
1.0
  2
SOLID
 70
     1
 71
     0
 91
        2
 92
        0
 93
        2
 72
     4
 94
        3
 73
     1
 74
     0
 95
       11
 96
        7
 40
0.0
 40
0.0
 40
0.0
 40
0.0
 40
1.0
 40
1.0
 40
1.0
 40
2.0
 40
2.0
 40
2.0
 40
2.0
 10
1815.533841400492
 20
73.57351428017645
 42
1.0
 10
1812.808770871659
 20
73.57351428017645
 42
1.0
 10
1811.183857135086
 20
71.40696263141238
 42
1.0
 10
1811.183857135086
 20
68.8101874584506
 42
1.0
 10
1811.183857135086
 20
66.22016467263984
 42
1.0
 10
1812.808770871659
 20
64.05264839713999
 42
1.0
 10
1815.533841400492
 20
64.05264839713999
 42
1.0
 72
     4
 94
        3
 73
     1
 74
     0
 95
       11
 96
        7
 40
2.0
 40
2.0
 40
2.0
 40
2.0
 40
3.0
 40
3.0
 40
3.0
 40
4.0
 40
4.0
 40
4.0
 40
4.0
 10
1815.533841400492
 20
64.05264839713999
 42
1.0
 10
1818.254088795646
 20
64.05264839713999
 42
1.0
 10
1819.88334335253
 20
66.22016467263984
 42
1.0
 10
1819.88334335253
 20
68.8101874584506
 42
1.0
 10
1819.88334335253
 20
71.40696263141238
 42
1.0
 10
1818.254088795646
 20
73.57351428017645
 42
1.0
 10
1815.533841400492
 20
73.57351428017645
 42
1.0
 97
        0
 92
        0
 93
        2
 72
     4
 94
        3
 73
     1
 74
     0
 95
       11
 96
        7
 40
2.0
 40
2.0
 40
2.0
 40
2.0
 40
3.0
 40
3.0
 40
3.0
 40
4.0
 40
4.0
 40
4.0
 40
4.0
 10
1815.533841400492
 20
65.35007135688502
 42
1.0
 10
1813.583366140563
 20
65.35007135688502
 42
1.0
 10
1812.772115055697
 20
67.07193008041295
 42
1.0
 10
1812.772115055697
 20
68.8101874584506
 42
1.0
 10
1812.772115055697
 20
70.55423259690349
 42
1.0
 10
1813.583366140563
 20
72.27512669369543
 42
1.0
 10
1815.533841400492
 20
72.27512669369543
 42
1.0
 72
     4
 94
        3
 73
     1
 74
     0
 95
       11
 96
        7
 40
0.0
 40
0.0
 40
0.0
 40
0.0
 40
1.0
 40
1.0
 40
1.0
 40
2.0
 40
2.0
 40
2.0
 40
2.0
 10
1815.533841400492
 20
72.27512669369543
 42
1.0
 10
1817.47997584011
 20
72.27512669369543
 42
1.0
 10
1818.291226924977
 20
70.55423259690349
 42
1.0
 10
1818.291226924977
 20
68.8101874584506
 42
1.0
 10
1818.291226924977
 20
67.07193008041295
 42
1.0
 10
1817.47997584011
 20
65.35007135688502
 42
1.0
 10
1815.533841400492
 20
65.35007135688502
 42
1.0
 97
        0
 75
     0
 76
     1
 98
        1
 10
0.0
 20
0.0
  0
HATCH
  5
87
330
1F
100
AcDbEntity
  8
0
  6
Continuous
 62
     7
100
AcDbHatch
 10
0.0
 20
0.0
 30
0.0
210
0.0
220
0.0
230
1.0
  2
SOLID
 70
     1
 71
     0
 91
        2
 92
        0
 93
        5
 72
     4
 94
        3
 73
     1
 74
     0
 95
        8
 96
        4
 40
2.0
 40
2.0
 40
2.0
 40
2.0
 40
3.0
 40
3.0
 40
3.0
 40
3.0
 10
1832.643425814618
 20
68.8101874584506
 42
1.0
 10
1832.643425814618
 20
71.31918159844824
 42
1.0
 10
1831.434266201204
 20
73.35165013092627
 42
1.0
 10
1828.632990160238
 20
73.35165013092627
 42
1.0
 72
     1
 10
1828.632990160238
 20
73.35165013092627
 11
1824.869498950241
 21
73.35165013092627
 72
     1
 10
1824.869498950241
 20
73.35165013092627
 11
1824.869498950241
 21
64.27161866618248
 72
     1
 10
1824.869498950241
 20
64.27161866618248
 11
1828.632990160238
 21
64.27161866618248
 72
     4
 94
        3
 73
     1
 74
     0
 95
        8
 96
        4
 40
1.0
 40
1.0
 40
1.0
 40
1.0
 40
2.0
 40
2.0
 40
2.0
 40
2.0
 10
1828.632990160238
 20
64.27161866618248
 42
1.0
 10
1831.434266201204
 20
64.27161866618248
 42
1.0
 10
1832.643425814618
 20
66.30505182539629
 42
1.0
 10
1832.643425814618
 20
68.8101874584506
 42
1.0
 97
        0
 92
        0
 93
        5
 72
     4
 94
        3
 73
     1
 74
     0
 95
        8
 96
        4
 40
1.0
 40
1.0
 40
1.0
 40
1.0
 40
2.0
 40
2.0
 40
2.0
 40
2.0
 10
1828.026239943376
 20
72.055191797917
 42
1.0
 10
1830.515941548656
 20
72.055191797917
 42
1.0
 10
1831.052756327168
 20
70.63333198924471
 42
1.0
 10
1831.052756327168
 20
68.8101874584506
 42
1.0
 72
     4
 94
        3
 73
     1
 74
     0
 95
        8
 96
        4
 40
2.0
 40
2.0
 40
2.0
 40
2.0
 40
3.0
 40
3.0
 40
3.0
 40
3.0
 10
1831.052756327168
 20
68.8101874584506
 42
1.0
 10
1831.052756327168
 20
66.99668919501507
 42
1.0
 10
1830.515941548656
 20
65.57000625266338
 42
1.0
 10
1828.026239943376
 20
65.57000625266338
 42
1.0
 72
     1
 10
1828.026239943376
 20
65.57000625266338
 11
1826.460168437692
 21
65.57000625266338
 72
     1
 10
1826.460168437692
 20
65.57000625266338
 11
1826.460168437692
 21
72.055191797917
 72
     1
 10
1826.460168437692
 20
72.055191797917
 11
1828.026239943376
 21
72.055191797917
 97
        0
 75
     0
 76
     1
 98
        1
 10
0.0
 20
0.0
  0
HATCH
  5
88
330
1F
100
AcDbEntity
  8
0
  6
Continuous
 62
     7
100
AcDbHatch
 10
0.0
 20
0.0
 30
0.0
210
0.0
220
0.0
230
1.0
  2
SOLID
 70
     1
 71
     0
 91
        1
 92
        0
 93
        4
 72
     1
 10
1834.055639355931
 20
64.27161866618248
 11
1834.055639355931
 21
73.35165013092627
 72
     1
 10
1834.055639355931
 20
73.35165013092627
 11
1835.646308843381
 21
73.35165013092627
 72
     1
 10
1835.646308843381
 20
73.35165013092627
 11
1835.646308843381
 21
64.27161866618248
 72
     1
 10
1835.646308843381
 20
64.27161866618248
 11
1834.055639355931
 21
64.27161866618248
 97
        0
 75
     0
 76
     1
 98
        1
 10
0.0
 20
0.0
  0
HATCH
  5
89
330
1F
100
AcDbEntity
  8
0
  6
Continuous
 62
     7
100
AcDbHatch
 10
0.0
 20
0.0
 30
0.0
210
0.0
220
0.0
230
1.0
  2
SOLID
 70
     1
 71
     0
 91
        1
 92
        0
 93
       15
 72
     4
 94
        3
 73
     1
 74
     0
 95
        8
 96
        4
 40
10.0
 40
10.0
 40
10.0
 40
10.0
 40
11.0
 40
11.0
 40
11.0
 40
11.0
 10
1841.522332604933
 20
65.35007135688502
 42
1.0
 10
1843.151587161817
 20
65.33077882216769
 42
1.0
 10
1844.040490698921
 20
66.30505182539629
 42
1.0
 10
1844.067017934157
 20
67.84652534931648
 42
1.0
 72
     1
 10
1844.067017934157
 20
67.84652534931648
 11
1841.646287140492
 21
67.84652534931648
 72
     1
 10
1841.646287140492
 20
67.84652534931648
 11
1841.646287140492
 21
69.0552026493616
 72
     1
 10
1841.646287140492
 20
69.0552026493616
 11
1845.518781171641
 21
69.0552026493616
 72
     1
 10
1845.518781171641
 20
69.0552026493616
 11
1845.518781171641
 21
64.27161866618248
 72
     1
 10
1845.518781171641
 20
64.27161866618248
 11
1844.498206085091
 21
64.27161866618248
 72
     1
 10
1844.498206085091
 20
64.27161866618248
 11
1844.257531714492
 21
65.33946046279054
 72
     4
 94
        3
 73
     1
 74
     0
 95
        8
 96
        4
 40
2.0
 40
2.0
 40
2.0
 40
2.0
 40
3.0
 40
3.0
 40
3.0
 40
3.0
 10
1844.257531714492
 20
65.33946046279054
 42
1.0
 10
1843.404319366615
 20
64.37386910018479
 42
1.0
 10
1842.623936337296
 20
64.05264839713999
 42
1.0
 10
1841.522332604933
 20
64.05264839713999
 42
1.0
 72
     4
 94
        3
 73
     1
 74
     0
 95
        8
 96
        4
 40
3.0
 40
3.0
 40
3.0
 40
3.0
 40
4.0
 40
4.0
 40
4.0
 40
4.0
 10
1841.522332604933
 20
64.05264839713999
 42
1.0
 10
1838.7972620761
 20
64.05264839713999
 42
1.0
 10
1837.169936772687
 20
66.22016467263984
 42
1.0
 10
1837.169936772687
 20
68.8101874584506
 42
1.0
 72
     4
 94
        3
 73
     1
 74
     0
 95
        8
 96
        4
 40
4.0
 40
4.0
 40
4.0
 40
4.0
 40
5.0
 40
5.0
 40
5.0
 40
5.0
 10
1837.169936772687
 20
68.8101874584506
 42
1.0
 10
1837.169936772687
 20
71.40696263141238
 42
1.0
 10
1838.7972620761
 20
73.57351428017645
 42
1.0
 10
1841.522332604933
 20
73.57351428017645
 42
1.0
 72
     4
 94
        3
 73
     1
 74
     0
 95
        8
 96
        4
 40
5.0
 40
5.0
 40
5.0
 40
5.0
 40
6.0
 40
6.0
 40
6.0
 40
6.0
 10
1841.522332604933
 20
73.57351428017645
 42
1.0
 10
1843.503675920409
 20
73.57351428017645
 42
1.0
 10
1845.173927113568
 20
72.51917725787064
 42
1.0
 10
1845.415083797536
 20
70.46645156393922
 42
1.0
 72
     1
 10
1845.415083797536
 20
70.46645156393922
 11
1843.86107012605
 21
70.46645156393922
 72
     4
 94
        3
 73
     1
 74
     0
 95
        8
 96
        4
 40
7.0
 40
7.0
 40
7.0
 40
7.0
 40
8.0
 40
8.0
 40
8.0
 40
8.0
 10
1843.86107012605
 20
70.46645156393922
 42
1.0
 10
1843.710106041885
 20
71.6645179698897
 42
1.0
 10
1842.66493297357
 20
72.27512669369543
 42
1.0
 10
1841.522332604933
 20
72.27512669369543
 42
1.0
 72
     4
 94
        3
 73
     1
 74
     0
 95
        8
 96
        4
 40
8.0
 40
8.0
 40
8.0
 40
8.0
 40
9.0
 40
9.0
 40
9.0
 40
9.0
 10
1841.522332604933
 20
72.27512669369543
 42
1.0
 10
1839.575233538579
 20
72.27512669369543
 42
1.0
 10
1838.760606260137
 20
70.55423259690349
 42
1.0
 10
1838.760606260137
 20
68.8101874584506
 42
1.0
 72
     4
 94
        3
 73
     1
 74
     0
 95
        8
 96
        4
 40
9.0
 40
9.0
 40
9.0
 40
9.0
 40
10.0
 40
10.0
 40
10.0
 40
10.0
 10
1838.760606260137
 20
68.8101874584506
 42
1.0
 10
1838.760606260137
 20
67.07193008041295
 42
1.0
 10
1839.575233538579
 20
65.35007135688502
 42
1.0
 10
1841.522332604933
 20
65.35007135688502
 42
1.0
 97
        0
 75
     0
 76
     1
 98
        1
 10
0.0
 20
0.0
  0
HATCH
  5
8A
330
1F
100
AcDbEntity
  8
0
  6
Continuous
 62
     7
100
AcDbHatch
 10
0.0
 20
0.0
 30
0.0
210
0.0
220
0.0
230
1.0
  2
SOLID
 70
     1
 71
     0
 91
        1
 92
        0
 93
        4
 72
     1
 10
1847.246909968953
 20
64.27161866618248
 11
1847.246909968953
 21
73.35165013092627
 72
     1
 10
1847.246909968953
 20
73.35165013092627
 11
1848.835167889562
 21
73.35165013092627
 72
     1
 10
1848.835167889562
 20
73.35165013092627
 11
1848.835167889562
 21
64.27161866618248
 72
     1
 10
1848.835167889562
 20
64.27161866618248
 11
1847.246909968953
 21
64.27161866618248
 97
        0
 75
     0
 76
     1
 98
        1
 10
0.0
 20
0.0
  0
HATCH
  5
8B
330
1F
100
AcDbEntity
  8
0
  6
Continuous
 62
     7
100
AcDbHatch
 10
0.0
 20
0.0
 30
0.0
210
0.0
220
0.0
230
1.0
  2
SOLID
 70
     1
 71
     0
 91
        1
 92
        0
 93
        8
 72
     1
 10
1849.917479087209
 20
71.98091553925505
 11
1849.917479087209
 21
73.35165013092627
 72
     1
 10
1849.917479087209
 20
73.35165013092627
 11
1857.271793321481
 21
73.35165013092627
 72
     1
 10
1857.271793321481
 20
73.35165013092627
 11
1857.271793321481
 21
71.98091553925505
 72
     1
 10
1857.271793321481
 20
71.98091553925505
 11
1854.382736247551
 21
71.98091553925505
 72
     1
 10
1854.382736247551
 20
71.98091553925505
 11
1854.382736247551
 21
64.27161866618248
 72
     1
 10
1854.382736247551
 20
64.27161866618248
 11
1852.79447832694
 21
64.27161866618248
 72
     1
 10
1852.79447832694
 20
64.27161866618248
 11
1852.79447832694
 21
71.98091553925505
 72
     1
 10
1852.79447832694
 20
71.98091553925505
 11
1849.917479087209
 21
71.98091553925505
 97
        0
 75
     0
 76
     1
 98
        1
 10
0.0
 20
0.0
  0
HATCH
  5
8C
330
1F
100
AcDbEntity
  8
0
  6
Continuous
 62
     7
100
AcDbHatch
 10
0.0
 20
0.0
 30
0.0
210
0.0
220
0.0
230
1.0
  2
SOLID
 70
     1
 71
     0
 91
        1
 92
        0
 93
       12
 72
     1
 10
1858.325648030419
 20
64.27161866618248
 11
1858.325648030419
 21
73.35165013092627
 72
     1
 10
1858.325648030419
 20
73.35165013092627
 11
1864.863888046146
 21
73.35165013092627
 72
     1
 10
1864.863888046146
 20
73.35165013092627
 11
1864.863888046146
 21
71.98091553925505
 72
     1
 10
1864.863888046146
 20
71.98091553925505
 11
1859.918246771341
 21
71.98091553925505
 72
     1
 10
1859.918246771341
 20
71.98091553925505
 11
1859.918246771341
 21
69.59828750165637
 72
     1
 10
1859.918246771341
 20
69.59828750165637
 11
1864.494436006308
 21
69.59828750165637
 72
     1
 10
1864.494436006308
 20
69.59828750165637
 11
1864.494436006308
 21
68.30568767559052
 72
     1
 10
1864.494436006308
 20
68.30568767559052
 11
1859.918246771341
 21
68.30568767559052
 72
     1
 10
1859.918246771341
 20
68.30568767559052
 11
1859.918246771341
 21
65.64717639153302
 72
     1
 10
1859.918246771341
 20
65.64717639153302
 11
1864.949739825638
 21
65.64717639153302
 72
     1
 10
1864.949739825638
 20
65.64717639153302
 11
1864.949739825638
 21
64.27161866618248
 72
     1
 10
1864.949739825638
 20
64.27161866618248
 11
1858.325648030419
 21
64.27161866618248
 97
        0
 75
     0
 76
     1
 98
        1
 10
0.0
 20
0.0
  0
HATCH
  5
8D
330
1F
100
AcDbEntity
  8
0
  6
Continuous
 62
     7
100
AcDbHatch
 10
0.0
 20
0.0
 30
0.0
210
0.0
220
0.0
230
1.0
  2
SOLID
 70
     1
 71
     0
 91
        1
 92
        0
 93
       10
 72
     4
 94
        3
 73
     1
 74
     0
 95
        8
 96
        4
 40
8.0
 40
8.0
 40
8.0
 40
8.0
 40
9.0
 40
9.0
 40
9.0
 40
9.0
 10
1870.208884789601
 20
73.57351428017645
 42
1.0
 10
1872.259198916693
 20
73.5590448791385
 42
1.0
 10
1873.872537132435
 20
72.42850234469874
 42
1.0
 10
1874.065944792977
 20
70.46645156393922
 42
1.0
 72
     1
 10
1874.065944792977
 20
70.46645156393922
 11
1872.473828365424
 21
70.46645156393922
 72
     4
 94
        3
 73
     1
 74
     0
 95
        8
 96
        4
 40
0.0
 40
0.0
 40
0.0
 40
0.0
 40
1.0
 40
1.0
 40
1.0
 40
1.0
 10
1872.473828365424
 20
70.46645156393922
 42
1.0
 10
1872.206144446219
 20
71.51114231888653
 42
1.0
 10
1871.531870357847
 20
72.27512669369543
 42
1.0
 10
1870.208884789601
 20
72.27512669369543
 42
1.0
 72
     4
 94
        3
 73
     1
 74
     0
 95
        8
 96
        4
 40
1.0
 40
1.0
 40
1.0
 40
1.0
 40
2.0
 40
2.0
 40
2.0
 40
2.0
 10
1870.208884789601
 20
72.27512669369543
 42
1.0
 10
1868.264679603456
 20
72.27512669369543
 42
1.0
 10
1867.44860538491
 20
70.55423259690349
 42
1.0
 10
1867.44860538491
 20
68.8101874584506
 42
1.0
 72
     4
 94
        3
 73
     1
 74
     0
 95
        8
 96
        4
 40
2.0
 40
2.0
 40
2.0
 40
2.0
 40
3.0
 40
3.0
 40
3.0
 40
3.0
 10
1867.44860538491
 20
68.8101874584506
 42
1.0
 10
1867.44860538491
 20
67.07193008041295
 42
1.0
 10
1868.264679603456
 20
65.35007135688502
 42
1.0
 10
1870.208884789601
 20
65.35007135688502
 42
1.0
 72
     4
 94
        3
 73
     1
 74
     0
 95
        8
 96
        4
 40
3.0
 40
3.0
 40
3.0
 40
3.0
 40
4.0
 40
4.0
 40
4.0
 40
4.0
 10
1870.208884789601
 20
65.35007135688502
 42
1.0
 10
1871.620616017547
 20
65.35007135688502
 42
1.0
 10
1872.392317406243
 20
66.40923151287029
 42
1.0
 10
1872.524471269057
 20
67.731734767748
 42
1.0
 72
     1
 10
1872.524471269057
 20
67.731734767748
 11
1874.0746264336
 21
67.731734767748
 72
     4
 94
        3
 73
     1
 74
     0
 95
        8
 96
        4
 40
5.0
 40
5.0
 40
5.0
 40
5.0
 40
6.0
 40
6.0
 40
6.0
 40
6.0
 10
1874.0746264336
 20
67.731734767748
 42
1.0
 10
1873.942954884154
 20
65.55939535856889
 42
1.0
 10
1872.410163000856
 20
64.05264839713999
 42
1.0
 10
1870.208884789601
 20
64.05264839713999
 42
1.0
 72
     4
 94
        3
 73
     1
 74
     0
 95
        8
 96
        4
 40
6.0
 40
6.0
 40
6.0
 40
6.0
 40
7.0
 40
7.0
 40
7.0
 40
7.0
 10
1870.208884789601
 20
64.05264839713999
 42
1.0
 10
1867.485261200872
 20
64.05264839713999
 42
1.0
 10
1865.856006643988
 20
66.22016467263984
 42
1.0
 10
1865.856006643988
 20
68.8101874584506
 42
1.0
 72
     4
 94
        3
 73
     1
 74
     0
 95
        8
 96
        4
 40
7.0
 40
7.0
 40
7.0
 40
7.0
 40
8.0
 40
8.0
 40
8.0
 40
8.0
 10
1865.856006643988
 20
68.8101874584506
 42
1.0
 10
1865.856006643988
 20
71.40696263141238
 42
1.0
 10
1867.485261200872
 20
73.57351428017645
 42
1.0
 10
1870.208884789601
 20
73.57351428017645
 42
1.0
 97
        0
 75
     0
 76
     1
 98
        1
 10
0.0
 20
0.0
  0
HATCH
  5
8E
330
1F
100
AcDbEntity
  8
0
  6
Continuous
 62
     7
100
AcDbHatch
 10
0.0
 20
0.0
 30
0.0
210
0.0
220
0.0
230
1.0
  2
SOLID
 70
     1
 71
     0
 91
        1
 92
        0
 93
       10
 72
     4
 94
        3
 73
     1
 74
     0
 95
        8
 96
        4
 40
8.0
 40
8.0
 40
8.0
 40
8.0
 40
9.0
 40
9.0
 40
9.0
 40
9.0
 10
1882.928452928782
 20
73.57351428017645
 42
1.0
 10
1884.979249369242
 20
73.5590448791385
 42
1.0
 10
1886.59114064488
 20
72.42850234469874
 42
1.0
 10
1886.783101365318
 20
70.46645156393922
 42
1.0
 72
     1
 10
1886.783101365318
 20
70.46645156393922
 11
1885.190502624398
 21
70.46645156393922
 72
     4
 94
        3
 73
     1
 74
     0
 95
        8
 96
        4
 40
0.0
 40
0.0
 40
0.0
 40
0.0
 40
1.0
 40
1.0
 40
1.0
 40
1.0
 10
1885.190502624398
 20
70.46645156393922
 42
1.0
 10
1884.927159525505
 20
71.51114231888653
 42
1.0
 10
1884.253367750499
 20
72.27512669369543
 42
1.0
 10
1882.928452928782
 20
72.27512669369543
 42
1.0
 72
     4
 94
        3
 73
     1
 74
     0
 95
        8
 96
        4
 40
1.0
 40
1.0
 40
1.0
 40
1.0
 40
2.0
 40
2.0
 40
2.0
 40
2.0
 10
1882.928452928782
 20
72.27512669369543
 42
1.0
 10
1880.982318489165
 20
72.27512669369543
 42
1.0
 10
1880.167691210723
 20
70.55423259690349
 42
1.0
 10
1880.167691210723
 20
68.8101874584506
 42
1.0
 72
     4
 94
        3
 73
     1
 74
     0
 95
        8
 96
        4
 40
2.0
 40
2.0
 40
2.0
 40
2.0
 40
3.0
 40
3.0
 40
3.0
 40
3.0
 10
1880.167691210723
 20
68.8101874584506
 42
1.0
 10
1880.167691210723
 20
67.07193008041295
 42
1.0
 10
1880.982318489165
 20
65.35007135688502
 42
1.0
 10
1882.928452928782
 20
65.35007135688502
 42
1.0
 72
     4
 94
        3
 73
     1
 74
     0
 95
        8
 96
        4
 40
3.0
 40
3.0
 40
3.0
 40
3.0
 40
4.0
 40
4.0
 40
4.0
 40
4.0
 10
1882.928452928782
 20
65.35007135688502
 42
1.0
 10
1884.339219529993
 20
65.35007135688502
 42
1.0
 10
1885.116708679104
 20
66.40923151287029
 42
1.0
 10
1885.24355709487
 20
67.731734767748
 42
1.0
 72
     1
 10
1885.24355709487
 20
67.731734767748
 11
1886.79901770646
 21
67.731734767748
 72
     4
 94
        3
 73
     1
 74
     0
 95
        8
 96
        4
 40
5.0
 40
5.0
 40
5.0
 40
5.0
 40
6.0
 40
6.0
 40
6.0
 40
6.0
 10
1886.79901770646
 20
67.731734767748
 42
1.0
 10
1886.668793097118
 20
65.55939535856889
 42
1.0
 10
1885.129731140038
 20
64.05264839713999
 42
1.0
 10
1882.928452928782
 20
64.05264839713999
 42
1.0
 72
     4
 94
        3
 73
     1
 74
     0
 95
        8
 96
        4
 40
6.0
 40
6.0
 40
6.0
 40
6.0
 40
7.0
 40
7.0
 40
7.0
 40
7.0
 10
1882.928452928782
 20
64.05264839713999
 42
1.0
 10
1880.206276280158
 20
64.05264839713999
 42
1.0
 10
1878.578468663377
 20
66.22016467263984
 42
1.0
 10
1878.578468663377
 20
68.8101874584506
 42
1.0
 72
     4
 94
        3
 73
     1
 74
     0
 95
        8
 96
        4
 40
7.0
 40
7.0
 40
7.0
 40
7.0
 40
8.0
 40
8.0
 40
8.0
 40
8.0
 10
1878.578468663377
 20
68.8101874584506
 42
1.0
 10
1878.578468663377
 20
71.40696263141238
 42
1.0
 10
1880.206276280158
 20
73.57351428017645
 42
1.0
 10
1882.928452928782
 20
73.57351428017645
 42
1.0
 97
        0
 75
     0
 76
     1
 98
        1
 10
0.0
 20
0.0
  0
HATCH
  5
8F
330
1F
100
AcDbEntity
  8
0
  6
Continuous
 62
     7
100
AcDbHatch
 10
0.0
 20
0.0
 30
0.0
210
0.0
220
0.0
230
1.0
  2
SOLID
 70
     1
 71
     0
 91
        2
 92
        0
 93
        2
 72
     4
 94
        3
 73
     1
 74
     0
 95
       11
 96
        7
 40
0.0
 40
0.0
 40
0.0
 40
0.0
 40
1.0
 40
1.0
 40
1.0
 40
2.0
 40
2.0
 40
2.0
 40
2.0
 10
1892.114593334472
 20
73.57351428017645
 42
1.0
 10
1889.389522805639
 20
73.57351428017645
 42
1.0
 10
1887.757374368548
 20
71.40696263141238
 42
1.0
 10
1887.757374368548
 20
68.8101874584506
 42
1.0
 10
1887.757374368548
 20
66.22016467263984
 42
1.0
 10
1889.389522805639
 20
64.05264839713999
 42
1.0
 10
1892.114593334472
 20
64.05264839713999
 42
1.0
 72
     4
 94
        3
 73
     1
 74
     0
 95
       11
 96
        7
 40
2.0
 40
2.0
 40
2.0
 40
2.0
 40
3.0
 40
3.0
 40
3.0
 40
4.0
 40
4.0
 40
4.0
 40
4.0
 10
1892.114593334472
 20
64.05264839713999
 42
1.0
 10
1894.836287669729
 20
64.05264839713999
 42
1.0
 10
1896.460236779566
 20
66.22016467263984
 42
1.0
 10
1896.460236779566
 20
68.8101874584506
 42
1.0
 10
1896.460236779566
 20
71.40696263141238
 42
1.0
 10
1894.836287669729
 20
73.57351428017645
 42
1.0
 10
1892.114593334472
 20
73.57351428017645
 42
1.0
 97
        0
 92
        0
 93
        2
 72
     4
 94
        3
 73
     1
 74
     0
 95
       11
 96
        7
 40
2.0
 40
2.0
 40
2.0
 40
2.0
 40
3.0
 40
3.0
 40
3.0
 40
4.0
 40
4.0
 40
4.0
 40
4.0
 10
1892.114593334472
 20
65.35007135688502
 42
1.0
 10
1890.16701195475
 20
65.35007135688502
 42
1.0
 10
1889.352384676308
 20
67.07193008041295
 42
1.0
 10
1889.352384676308
 20
68.8101874584506
 42
1.0
 10
1889.352384676308
 20
70.55423259690349
 42
1.0
 10
1890.16701195475
 20
72.27512669369543
 42
1.0
 10
1892.114593334472
 20
72.27512669369543
 42
1.0
 72
     4
 94
        3
 73
     1
 74
     0
 95
       11
 96
        7
 40
0.0
 40
0.0
 40
0.0
 40
0.0
 40
1.0
 40
1.0
 40
1.0
 40
2.0
 40
2.0
 40
2.0
 40
2.0
 10
1892.114593334472
 20
72.27512669369543
 42
1.0
 10
1894.058798520617
 20
72.27512669369543
 42
1.0
 10
1894.874872739164
 20
70.55423259690349
 42
1.0
 10
1894.874872739164
 20
68.8101874584506
 42
1.0
 10
1894.874872739164
 20
67.07193008041295
 42
1.0
 10
1894.058798520617
 20
65.35007135688502
 42
1.0
 10
1892.114593334472
 20
65.35007135688502
 42
1.0
 97
        0
 75
     0
 76
     1
 98
        1
 10
0.0
 20
0.0
  0
HATCH
  5
90
330
1F
100
AcDbEntity
  8
0
  6
Continuous
 62
     7
100
AcDbHatch
 10
0.0
 20
0.0
 30
0.0
210
0.0
220
0.0
230
1.0
  2
SOLID
 70
     1
 71
     0
 91
        1
 92
        0
 93
        4
 72
     1
 10
1897.82566592419
 20
64.27161866618248
 11
1897.82566592419
 21
65.98865425603096
 72
     1
 10
1897.82566592419
 20
65.98865425603096
 11
1899.595755984511
 21
65.98865425603096
 72
     1
 10
1899.595755984511
 20
65.98865425603096
 11
1899.595755984511
 21
64.27161866618248
 72
     1
 10
1899.595755984511
 20
64.27161866618248
 11
1897.82566592419
 21
64.27161866618248
 97
        0
 75
     0
 76
     1
 98
        1
 10
0.0
 20
0.0
  0
HATCH
  5
91
330
1F
100
AcDbEntity
  8
0
  6
Continuous
 62
     7
100
AcDbHatch
 10
0.0
 20
0.0
 30
0.0
210
0.0
220
0.0
230
1.0
  2
SOLID
 70
     1
 71
     0
 91
        1
 92
        0
 93
        7
 72
     4
 94
        3
 73
     1
 74
     0
 95
        8
 96
        4
 40
4.0
 40
4.0
 40
4.0
 40
4.0
 40
5.0
 40
5.0
 40
5.0
 40
5.0
 10
1901.413112754891
 20
63.03593181753288
 42
1.0
 10
1901.970667008223
 20
63.17676732097001
 42
1.0
 10
1902.252338015097
 20
63.72756918715179
 42
1.0
 10
1902.242209434371
 20
64.27161866618248
 42
1.0
 72
     1
 10
1902.242209434371
 20
64.27161866618248
 11
1901.360058284417
 21
64.27161866618248
 72
     1
 10
1901.360058284417
 20
64.27161866618248
 11
1901.360058284417
 21
65.98865425603096
 72
     1
 10
1901.360058284417
 20
65.98865425603096
 11
1903.130630658107
 21
65.98865425603096
 72
     1
 10
1903.130630658107
 20
65.98865425603096
 11
1903.130630658107
 21
64.27161866618248
 72
     4
 94
        3
 73
     1
 74
     0
 95
        8
 96
        4
 40
2.0
 40
2.0
 40
2.0
 40
2.0
 40
3.0
 40
3.0
 40
3.0
 40
3.0
 10
1903.130630658107
 20
64.27161866618248
 42
1.0
 10
1903.119537450644
 20
63.2278925379713
 42
1.0
 10
1902.41970075377
 20
62.46776667010552
 42
1.0
 10
1901.413112754891
 20
62.26230117536534
 42
1.0
 72
     1
 10
1901.413112754891
 20
62.26230117536534
 11
1901.413112754891
 21
63.03593181753288
 97
        0
 75
     0
 76
     1
 98
        1
 10
0.0
 20
0.0
  0
HATCH
  5
92
330
1F
100
AcDbEntity
  8
0
  6
Continuous
 62
     7
100
AcDbHatch
 10
0.0
 20
0.0
 30
0.0
210
0.0
220
0.0
230
1.0
  2
SOLID
 70
     1
 71
     0
 91
        1
 92
        0
 93
        6
 72
     1
 10
1904.988019438025
 20
64.27161866618248
 11
1904.988019438025
 21
73.35165013092627
 72
     1
 10
1904.988019438025
 20
73.35165013092627
 11
1906.580618178946
 21
73.35165013092627
 72
     1
 10
1906.580618178946
 20
73.35165013092627
 11
1906.580618178946
 21
65.64717639153302
 72
     1
 10
1906.580618178946
 20
65.64717639153302
 11
1911.195874796715
 21
65.64717639153302
 72
     1
 10
1911.195874796715
 20
65.64717639153302
 11
1911.195874796715
 21
64.27161866618248
 72
     1
 10
1911.195874796715
 20
64.27161866618248
 11
1904.988019438025
 21
64.27161866618248
 97
        0
 75
     0
 76
     1
 98
        1
 10
0.0
 20
0.0
  0
HATCH
  5
93
330
1F
100
AcDbEntity
  8
0
  6
Continuous
 62
     7
100
AcDbHatch
 10
0.0
 20
0.0
 30
0.0
210
0.0
220
0.0
230
1.0
  2
SOLID
 70
     1
 71
     0
 91
        1
 92
        0
 93
        8
 72
     1
 10
1913.128986775399
 20
71.98091553925505
 11
1910.254399102507
 21
71.98091553925505
 72
     1
 10
1910.254399102507
 20
71.98091553925505
 11
1910.254399102507
 21
73.35165013092627
 72
     1
 10
1910.254399102507
 20
73.35165013092627
 11
1917.607266396675
 21
73.35165013092627
 72
     1
 10
1917.607266396675
 20
73.35165013092627
 11
1917.607266396675
 21
71.98091553925505
 72
     1
 10
1917.607266396675
 20
71.98091553925505
 11
1914.723032456424
 21
71.98091553925505
 72
     1
 10
1914.723032456424
 20
71.98091553925505
 11
1914.723032456424
 21
64.27161866618248
 72
     1
 10
1914.723032456424
 20
64.27161866618248
 11
1913.128986775399
 21
64.27161866618248
 72
     1
 10
1913.128986775399
 20
64.27161866618248
 11
1913.128986775399
 21
71.98091553925505
 97
        0
 75
     0
 76
     1
 98
        1
 10
0.0
 20
0.0
  0
HATCH
  5
94
330
1F
100
AcDbEntity
  8
0
  6
Continuous
 62
     7
100
AcDbHatch
 10
0.0
 20
0.0
 30
0.0
210
0.0
220
0.0
230
1.0
  2
SOLID
 70
     1
 71
     0
 91
        2
 92
        0
 93
        5
 72
     4
 94
        3
 73
     1
 74
     0
 95
        8
 96
        4
 40
2.0
 40
2.0
 40
2.0
 40
2.0
 40
3.0
 40
3.0
 40
3.0
 40
3.0
 10
1926.441318043773
 20
68.8101874584506
 42
1.0
 10
1926.441318043773
 20
71.31918159844824
 42
1.0
 10
1925.230711490256
 20
73.35165013092627
 42
1.0
 10
1922.429917762657
 20
73.35165013092627
 42
1.0
 72
     1
 10
1922.429917762657
 20
73.35165013092627
 11
1918.665944239292
 21
73.35165013092627
 72
     1
 10
1918.665944239292
 20
73.35165013092627
 11
1918.665944239292
 21
64.27161866618248
 72
     1
 10
1918.665944239292
 20
64.27161866618248
 11
1922.429917762657
 21
64.27161866618248
 72
     4
 94
        3
 73
     1
 74
     0
 95
        8
 96
        4
 40
1.0
 40
1.0
 40
1.0
 40
1.0
 40
2.0
 40
2.0
 40
2.0
 40
2.0
 10
1922.429917762657
 20
64.27161866618248
 42
1.0
 10
1925.230711490256
 20
64.27161866618248
 42
1.0
 10
1926.441318043773
 20
66.30505182539629
 42
1.0
 10
1926.441318043773
 20
68.8101874584506
 42
1.0
 97
        0
 92
        0
 93
        5
 72
     4
 94
        3
 73
     1
 74
     0
 95
        8
 96
        4
 40
1.0
 40
1.0
 40
1.0
 40
1.0
 40
2.0
 40
2.0
 40
2.0
 40
2.0
 10
1921.822685232426
 20
72.055191797917
 42
1.0
 10
1924.312386837707
 20
72.055191797917
 42
1.0
 10
1924.843413855804
 20
70.63333198924471
 42
1.0
 10
1924.843413855804
 20
68.8101874584506
 42
1.0
 72
     4
 94
        3
 73
     1
 74
     0
 95
        8
 96
        4
 40
2.0
 40
2.0
 40
2.0
 40
2.0
 40
3.0
 40
3.0
 40
3.0
 40
3.0
 10
1924.843413855804
 20
68.8101874584506
 42
1.0
 10
1924.843413855804
 20
66.99668919501507
 42
1.0
 10
1924.312386837707
 20
65.57000625266338
 42
1.0
 10
1921.822685232426
 20
65.57000625266338
 42
1.0
 72
     1
 10
1921.822685232426
 20
65.57000625266338
 11
1920.253719846535
 21
65.57000625266338
 72
     1
 10
1920.253719846535
 20
65.57000625266338
 11
1920.253719846535
 21
72.055191797917
 72
     1
 10
1920.253719846535
 20
72.055191797917
 11
1921.822685232426
 21
72.055191797917
 97
        0
 75
     0
 76
     1
 98
        1
 10
0.0
 20
0.0
  0
HATCH
  5
95
330
1F
100
AcDbEntity
  8
0
  6
Continuous
 62
     7
100
AcDbHatch
 10
0.0
 20
0.0
 30
0.0
210
0.0
220
0.0
230
1.0
  2
SOLID
 70
     1
 71
     0
 91
        1
 92
        0
 93
        4
 72
     1
 10
1927.75899816497
 20
61.97193275320301
 11
1927.75899816497
 21
63.68896834305153
 72
     1
 10
1927.75899816497
 20
63.68896834305153
 11
1929.525712031716
 21
63.68896834305153
 72
     1
 10
1929.525712031716
 20
63.68896834305153
 11
1929.525712031716
 21
61.97193275320301
 72
     1
 10
1929.525712031716
 20
61.97193275320301
 11
1927.75899816497
 21
61.97193275320301
 97
        0
 75
     0
 76
     1
 98
        1
 10
0.0
 20
0.0
  0
HATCH
  5
96
330
1F
100
AcDbEntity
  8
0
  6
Continuous
 62
     7
100
AcDbHatch
 10
0.0
 20
0.0
 30
0.0
210
0.0
220
0.0
230
1.0
  2
ANSI31
 70
     0
 71
     0
 91
        1
 92
        0
 93
        3
 72
     4
 94
        3
 73
     1
 74
     0
 95
       14
 96
       10
 40
5.0
 40
5.0
 40
5.0
 40
5.0
 40
6.0
 40
6.0
 40
6.0
 40
7.0
 40
7.0
 40
7.0
 40
8.0
 40
8.0
 40
8.0
 40
8.0
 10
1703.804617034883
 20
68.34827445361574
 42
1.0
 10
1708.988038800081
 20
64.17722844771392
 42
1.0
 10
1715.570410488974
 20
61.68270370875431
 42
1.0
 10
1722.737587136487
 20
61.68270370875431
 42
1.0
 10
1739.419841906622
 20
61.68270370875432
 42
1.0
 10
1752.949455347251
 20
75.20580591891516
 42
1.0
 10
1752.94945534725
 20
91.89312497941356
 42
1.0
 10
1752.94945534725
 20
108.5732093393929
 42
1.0
 10
1739.419841906622
 20
122.1016169966009
 42
1.0
 10
1722.737587136487
 20
122.1016169966009
 42
1.0
 72
     4
 94
        3
 73
     1
 74
     0
 95
        8
 96
        4
 40
0.0
 40
0.0
 40
0.0
 40
0.0
 40
1.0
 40
1.0
 40
1.0
 40
1.0
 10
1722.737587136487
 20
122.1016169966009
 42
1.0
 10
1715.570410488974
 20
122.1016169966009
 42
1.0
 10
1708.988038800081
 20
119.6051630041696
 42
1.0
 10
1703.804617034883
 20
115.4350816250038
 42
1.0
 72
     4
 94
        3
 73
     1
 74
     0
 95
       17
 96
       13
 40
1.0
 40
1.0
 40
1.0
 40
1.0
 40
2.0
 40
2.0
 40
2.0
 40
3.0
 40
3.0
 40
3.0
 40
4.0
 40
4.0
 40
4.0
 40
5.0
 40
5.0
 40
5.0
 40
5.0
 10
1703.804617034883
 20
115.4350816250038
 42
1.0
 10
1705.933548240949
 20
116.0394202750264
 42
1.0
 10
1708.180646222158
 20
116.3649817983825
 42
1.0
 10
1710.500573521925
 20
116.3649817983825
 42
1.0
 10
1724.014511778095
 20
116.3649817983825
 42
1.0
 10
1734.972430340894
 20
105.4080278623195
 42
1.0
 10
1734.972430340894
 20
91.89312497941366
 42
1.0
 10
1734.972430340894
 20
78.37484590293201
 42
1.0
 10
1724.014511778095
 20
67.42223278718059
 42
1.0
 10
1710.500573521925
 20
67.42223278718059
 42
1.0
 10
1708.180646222158
 20
67.42223278718059
 42
1.0
 10
1705.933548240949
 20
67.7424888634894
 42
1.0
 10
1703.804617034883
 20
68.34827445361574
 42
1.0
 97
        0
 75
     0
 76
     1
 52
0.0
 41
0.009765625
 77
     0
 78
     1
 53
45.0
 43
0.0
 44
0.0
 45
-0.021924453420579
 46
0.021924453420579
 79
     0
 98
        1
 10
0.0
 20
0.0
  0
HATCH
  5
97
330
1F
100
AcDbEntity
  8
0
  6
Continuous
 62
     7
100
AcDbHatch
 10
0.0
 20
0.0
 30
0.0
210
0.0
220
0.0
230
1.0
  2
ANSI31
 70
     0
 71
     0
 91
        1
 92
        0
 93
        3
 72
     4
 94
        3
 73
     1
 74
     0
 95
        8
 96
        4
 40
3.0
 40
3.0
 40
3.0
 40
3.0
 40
4.0
 40
4.0
 40
4.0
 40
4.0
 10
1703.804617034883
 20
68.34827445361574
 42
1.0
 10
1696.927069564815
 20
73.8833026640375
 42
1.0
 10
1692.524754298988
 20
82.37032984290535
 42
1.0
 10
1692.524754298988
 20
91.89312497941366
 42
1.0
 72
     4
 94
        3
 73
     1
 74
     0
 95
        8
 96
        4
 40
0.0
 40
0.0
 40
0.0
 40
0.0
 40
1.0
 40
1.0
 40
1.0
 40
1.0
 10
1692.524754298988
 20
91.89312497941366
 42
1.0
 10
1692.524754298988
 20
101.4139908624501
 42
1.0
 10
1696.927069564815
 20
109.8978830044263
 42
1.0
 10
1703.804617034883
 20
115.4350816250038
 42
1.0
 72
     4
 94
        3
 73
     1
 74
     0
 95
       11
 96
        7
 40
1.0
 40
1.0
 40
1.0
 40
1.0
 40
2.0
 40
2.0
 40
2.0
 40
3.0
 40
3.0
 40
3.0
 40
3.0
 10
1703.804617034883
 20
115.4350816250038
 42
1.0
 10
1693.547017482327
 20
112.5257673896201
 42
1.0
 10
1686.027993232904
 20
103.0890651892882
 42
1.0
 10
1686.027993232904
 20
91.89312497941366
 42
1.0
 10
1686.027993232904
 20
80.69573782943503
 42
1.0
 10
1693.547017482327
 20
71.25758868899953
 42
1.0
 10
1703.804617034883
 20
68.34827445361574
 42
1.0
 97
        0
 75
     0
 76
     1
 52
0.0
 41
0.009765625
 77
     0
 78
     1
 53
45.0
 43
0.0
 44
0.0
 45
-0.021924453420579
 46
0.021924453420579
 79
     0
 98
        1
 10
0.0
 20
0.0
  0
LINE
  5
98
330
1F
100
AcDbEntity
  8
FORMAT
370
    70
100
AcDbLine
 10
2050.0
 20
1435.0
 30
0.0
 11
2050.0
 21
50.0
 31
0.0
  0
LINE
  5
99
330
1F
100
AcDbEntity
  8
0
  6
SLD-実線
 62
   179
370
    18
100
AcDbLine
 10
1761.3116902639
 20
73.3516501309
 30
0.0
 11
1768.6669691249
 21
73.3516501309
 31
0.0
  0
LINE
  5
9A
330
1F
100
AcDbEntity
  8
FORMAT
370
    50
100
AcDbLine
 10
2050.0
 20
357.0915197419
 30
0.0
 11
50.0
 21
357.0915197419
 31
0.0
  0
LINE
  5
9B
330
1F
100
AcDbEntity
  8
0
  6
SLD-実線
 62
   179
370
    18
100
AcDbLine
 10
1768.6669691249
 20
73.3516501309
 30
0.0
 11
1768.6669691249
 21
71.9809155393
 31
0.0
  0
LINE
  5
9C
330
1F
100
AcDbEntity
  8
0
  6
SLD-実線
 62
     7
370
    35
100
AcDbLine
 10
2100.0
 20
742.5
 30
0.0
 11
2025.0
 21
742.5
 31
0.0
  0
LINE
  5
9D
330
1F
100
AcDbEntity
  8
FORMAT
370
    70
100
AcDbLine
 10
50.0
 20
50.0
 30
0.0
 11
2050.0
 21
50.0
 31
0.0
  0
LINE
  5
9E
330
1F
100
AcDbEntity
  8
0
  6
SLD-実線
 62
   179
370
    18
100
AcDbLine
 10
1768.6669691249
 20
71.9809155393
 30
0.0
 11
1765.777912051
 21
71.9809155393
 31
0.0
  0
LINE
  5
9F
330
1F
100
AcDbEntity
  8
0
  6
SLD-実線
 62
     7
370
    35
100
AcDbLine
 10
300.0
 20
1435.0
 30
0.0
 11
300.0
 21
1485.0
 31
0.0
  0
LINE
  5
A0
330
1F
100
AcDbEntity
  8
0
  6
SLD-実線
 62
     7
370
    35
100
AcDbLine
 10
300.0
 20
50.0
 30
0.0
 11
300.0
 21
0.0
 31
0.0
  0
LINE
  5
A1
330
1F
100
AcDbEntity
  8
0
  6
SLD-実線
 62
     7
370
    35
100
AcDbLine
 10
550.0
 20
1435.0
 30
0.0
 11
550.0
 21
1485.0
 31
0.0
  0
LINE
  5
A2
330
1F
100
AcDbEntity
  8
0
  6
SLD-実線
 62
     7
370
    35
100
AcDbLine
 10
550.0
 20
50.0
 30
0.0
 11
550.0
 21
0.0
 31
0.0
  0
LINE
  5
A3
330
1F
100
AcDbEntity
  8
0
  6
SLD-実線
 62
     7
370
    35
100
AcDbLine
 10
800.0
 20
1435.0
 30
0.0
 11
800.0
 21
1485.0
 31
0.0
  0
LINE
  5
A4
330
1F
100
AcDbEntity
  8
0
  6
SLD-実線
 62
     7
370
    35
100
AcDbLine
 10
800.0
 20
50.0
 30
0.0
 11
800.0
 21
0.0
 31
0.0
  0
LINE
  5
A5
330
1F
100
AcDbEntity
  8
0
  6
SLD-実線
 62
   179
370
    18
100
AcDbLine
 10
1765.777912051
 20
71.9809155393
 30
0.0
 11
1765.777912051
 21
64.2716186662
 31
0.0
  0
LINE
  5
A6
330
1F
100
AcDbEntity
  8
0
  6
SLD-実線
 62
   179
370
    18
100
AcDbLine
 10
1765.777912051
 20
64.2716186662
 30
0.0
 11
1764.1872425635
 21
64.2716186662
 31
0.0
  0
LINE
  5
A7
330
1F
100
AcDbEntity
  8
0
  6
SLD-実線
 62
   179
370
    18
100
AcDbLine
 10
1764.1872425635
 20
64.2716186662
 30
0.0
 11
1764.1872425635
 21
71.9809155393
 31
0.0
  0
LINE
  5
A8
330
1F
100
AcDbEntity
  8
0
  6
SLD-実線
 62
   179
370
    18
100
AcDbLine
 10
1764.1872425635
 20
71.9809155393
 30
0.0
 11
1761.3116902639
 21
71.9809155393
 31
0.0
  0
LINE
  5
A9
330
1F
100
AcDbEntity
  8
0
  6
SLD-実線
 62
   179
370
    18
100
AcDbLine
 10
1761.3116902639
 20
71.9809155393
 30
0.0
 11
1761.3116902639
 21
73.3516501309
 31
0.0
  0
LINE
  5
AA
330
1F
100
AcDbEntity
  8
0
  6
SLD-実線
 62
   179
370
    18
100
AcDbLine
 10
1771.7986298229
 20
71.7899194456
 30
0.0
 11
1771.8227454913
 21
71.7899194456
 31
0.0
  0
LINE
  5
AB
330
1F
100
AcDbEntity
  8
0
  6
SLD-実線
 62
   179
370
    18
100
AcDbLine
 10
1771.8227454913
 20
71.7899194456
 30
0.0
 11
1771.8338386987
 21
71.7899194456
 31
0.0
  0
LINE
  5
AC
330
1F
100
AcDbEntity
  8
0
  6
SLD-実線
 62
   179
370
    18
100
AcDbLine
 10
1771.8338386987
 20
71.7899194456
 30
0.0
 11
1773.1980620599
 21
67.8822165385
 31
0.0
  0
LINE
  5
AD
330
1F
100
AcDbEntity
  8
0
  6
SLD-実線
 62
   179
370
    18
100
AcDbLine
 10
1773.1980620599
 20
67.8822165385
 30
0.0
 11
1770.4216251574
 21
67.8822165385
 31
0.0
  0
LINE
  5
AE
330
1F
100
AcDbEntity
  8
0
  6
SLD-実線
 62
   179
370
    18
100
AcDbLine
 10
1770.4216251574
 20
67.8822165385
 30
0.0
 11
1771.7986298229
 21
71.7899194456
 31
0.0
  0
LINE
  5
AF
330
1F
100
AcDbEntity
  8
0
  6
SLD-実線
 62
   179
370
    18
100
AcDbLine
 10
1767.4954299542
 20
64.2716186662
 30
0.0
 11
1769.137706972
 21
64.2716186662
 31
0.0
  0
LINE
  5
B0
330
1F
100
AcDbEntity
  8
0
  6
SLD-実線
 62
   179
370
    18
100
AcDbLine
 10
1769.137706972
 20
64.2716186662
 30
0.0
 11
1769.9933308867
 21
66.6725746118
 31
0.0
  0
LINE
  5
B1
330
1F
100
AcDbEntity
  8
0
  6
SLD-実線
 62
   179
370
    18
100
AcDbLine
 10
1769.9933308867
 20
66.6725746118
 30
0.0
 11
1773.6157454366
 21
66.6725746118
 31
0.0
  0
LINE
  5
B2
330
1F
100
AcDbEntity
  8
レイヤー_1
 62
     7
370
    35
100
AcDbLine
 10
1300.0
 20
319.5915197419
 30
0.0
 11
2050.0
 21
319.5915197419
 31
0.0
  0
LINE
  5
B3
330
1F
100
AcDbEntity
  8
FORMAT
370
    50
100
AcDbLine
 10
2050.0
 20
132.4105637621
 30
0.0
 11
1300.0
 21
132.4105637621
 31
0.0
  0
LINE
  5
B4
330
1F
100
AcDbEntity
  8
FORMAT
370
    50
100
AcDbLine
 10
1665.0
 20
50.0
 30
0.0
 11
1665.0
 21
357.0915197419
 31
0.0
  0
LINE
  5
B5
330
1F
100
AcDbEntity
  8
0
  6
SLD-実線
 62
   179
370
    18
100
AcDbLine
 10
1773.6157454366
 20
66.6725746118
 30
0.0
 11
1774.4689577845
 21
64.2716186662
 31
0.0
  0
LINE
  5
B6
330
1F
100
AcDbEntity
  8
0
  6
SLD-実線
 62
   179
370
    18
100
AcDbLine
 10
1774.4689577845
 20
64.2716186662
 30
0.0
 11
1776.1756236369
 21
64.2716186662
 31
0.0
  0
LINE
  5
B7
330
1F
100
AcDbEntity
  8
0
  6
SLD-実線
 62
   179
370
    18
100
AcDbLine
 10
1776.1756236369
 20
64.2716186662
 30
0.0
 11
1772.6749932124
 21
73.3516501309
 31
0.0
  0
LINE
  5
B8
330
1F
100
AcDbEntity
  8
0
  6
SLD-実線
 62
   179
370
    18
100
AcDbLine
 10
1772.6749932124
 20
73.3516501309
 30
0.0
 11
1770.9799028808
 21
73.3516501309
 31
0.0
  0
LINE
  5
B9
330
1F
100
AcDbEntity
  8
0
  6
SLD-実線
 62
   179
370
    18
100
AcDbLine
 10
1770.9799028808
 20
73.3516501309
 30
0.0
 11
1767.4954299542
 21
64.2716186662
 31
0.0
  0
LINE
  5
BA
330
1F
100
AcDbEntity
  8
0
  6
SLD-実線
 62
   179
370
    18
100
AcDbLine
 10
1777.0384822521
 20
73.3516501309
 30
0.0
 11
1778.6281871128
 21
73.3516501309
 31
0.0
  0
LINE
  5
BB
330
1F
100
AcDbEntity
  8
0
  6
SLD-実線
 62
   179
370
    18
100
AcDbLine
 10
1778.6281871128
 20
73.3516501309
 30
0.0
 11
1778.6281871128
 21
69.2201538212
 31
0.0
  0
LINE
  5
BC
330
1F
100
AcDbEntity
  8
0
  6
SLD-実線
 62
   179
370
    18
100
AcDbLine
 10
1778.6281871128
 20
69.2201538212
 30
0.0
 11
1782.6750374265
 21
73.3516501309
 31
0.0
  0
LINE
  5
BD
330
1F
100
AcDbEntity
  8
0
  6
SLD-実線
 62
   179
370
    18
100
AcDbLine
 10
1782.6750374265
 20
73.3516501309
 30
0.0
 11
1784.6337120137
 21
73.3516501309
 31
0.0
  0
LINE
  5
BE
330
1F
100
AcDbEntity
  8
0
  6
SLD-実線
 62
   179
370
    18
100
AcDbLine
 10
1784.6337120137
 20
73.3516501309
 30
0.0
 11
1781.0079212702
 21
69.7304413645
 31
0.0
  0
LINE
  5
BF
330
1F
100
AcDbEntity
  8
0
  6
SLD-実線
 62
     7
370
    35
100
AcDbLine
 10
1050.0
 20
1410.0
 30
0.0
 11
1050.0
 21
1485.0
 31
0.0
  0
LINE
  5
C0
330
1F
100
AcDbEntity
  8
0
  6
SLD-実線
 62
     7
370
    35
100
AcDbLine
 10
1050.0
 20
50.0
 30
0.0
 11
1050.0
 21
0.0
 31
0.0
  0
LINE
  5
C1
330
1F
100
AcDbEntity
  8
FORMAT
370
    70
100
AcDbLine
 10
2050.0
 20
1435.0
 30
0.0
 11
50.0
 21
1435.0
 31
0.0
  0
LINE
  5
C2
330
1F
100
AcDbEntity
  8
0
  6
SLD-実線
 62
     7
370
    35
100
AcDbLine
 10
1300.0
 20
1435.0
 30
0.0
 11
1300.0
 21
1485.0
 31
0.0
  0
LINE
  5
C3
330
1F
100
AcDbEntity
  8
FORMAT
370
    70
100
AcDbLine
 10
50.0
 20
1435.0
 30
0.0
 11
50.0
 21
50.0
 31
0.0
  0
LINE
  5
C4
330
1F
100
AcDbEntity
  8
0
  6
SLD-実線
 62
     7
370
    35
100
AcDbLine
 10
1300.0
 20
50.0
 30
0.0
 11
1300.0
 21
0.0
 31
0.0
  0
LINE
  5
C5
330
1F
100
AcDbEntity
  8
0
  6
SLD-実線
 62
     7
370
    35
100
AcDbLine
 10
1550.0
 20
1435.0
 30
0.0
 11
1550.0
 21
1485.0
 31
0.0
  0
LINE
  5
C6
330
1F
100
AcDbEntity
  8
0
  6
SLD-実線
 62
     7
370
    35
100
AcDbLine
 10
1549.9939272243
 20
50.0
 30
0.0
 11
1549.9939272243
 21
0.0
 31
0.0
  0
LINE
  5
C7
330
1F
100
AcDbEntity
  8
0
  6
SLD-実線
 62
     7
370
    35
100
AcDbLine
 10
1800.0
 20
1435.0
 30
0.0
 11
1800.0
 21
1485.0
 31
0.0
  0
LINE
  5
C8
330
1F
100
AcDbEntity
  8
0
  6
SLD-実線
 62
     7
370
    35
100
AcDbLine
 10
1800.0195758927
 20
50.0
 30
0.0
 11
1800.0195758927
 21
0.0
 31
0.0
  0
LINE
  5
C9
330
1F
100
AcDbEntity
  8
0
  6
SLD-実線
 62
     7
370
    35
100
AcDbLine
 10
2050.0
 20
1242.5
 30
0.0
 11
2100.0
 21
1242.5
 31
0.0
  0
LINE
  5
CA
330
1F
100
AcDbEntity
  8
0
  6
SLD-実線
 62
     7
370
    35
100
AcDbLine
 10
50.0
 20
1242.5
 30
0.0
 11
0.0
 21
1242.5
 31
0.0
  0
LINE
  5
CB
330
1F
100
AcDbEntity
  8
0
  6
SLD-実線
 62
     7
370
    35
100
AcDbLine
 10
2050.0
 20
992.5
 30
0.0
 11
2100.0
 21
992.5
 31
0.0
  0
LINE
  5
CC
330
1F
100
AcDbEntity
  8
0
  6
SLD-実線
 62
     7
370
    35
100
AcDbLine
 10
50.0
 20
992.5
 30
0.0
 11
0.0
 21
992.5
 31
0.0
  0
LINE
  5
CD
330
1F
100
AcDbEntity
  8
0
  6
SLD-実線
 62
   179
370
    18
100
AcDbLine
 10
1781.0079212702
 20
69.7304413645
 30
0.0
 11
1784.8866853752
 21
64.2716186662
 31
0.0
  0
LINE
  5
CE
330
1F
100
AcDbEntity
  8
0
  6
SLD-実線
 62
     7
370
    35
100
AcDbLine
 10
75.0
 20
742.5
 30
0.0
 11
0.0
 21
742.5
 31
0.0
  0
LINE
  5
CF
330
1F
100
AcDbEntity
  8
0
  6
SLD-実線
 62
     7
370
    35
100
AcDbLine
 10
2050.0
 20
492.5
 30
0.0
 11
2100.0
 21
492.5
 31
0.0
  0
LINE
  5
D0
330
1F
100
AcDbEntity
  8
0
  6
SLD-実線
 62
     7
370
    35
100
AcDbLine
 10
50.0
 20
492.5
 30
0.0
 11
0.0
 21
492.5
 31
0.0
  0
LINE
  5
D1
330
1F
100
AcDbEntity
  8
0
  6
SLD-実線
 62
   179
370
    18
100
AcDbLine
 10
1784.8866853752
 20
64.2716186662
 30
0.0
 11
1782.9038951196
 21
64.2716186662
 31
0.0
  0
LINE
  5
D2
330
1F
100
AcDbEntity
  8
0
  6
SLD-実線
 62
   179
370
    18
100
AcDbLine
 10
1782.9038951196
 20
64.2716186662
 30
0.0
 11
1779.9272981694
 21
68.6085804707
 31
0.0
  0
LINE
  5
D3
330
1F
100
AcDbEntity
  8
0
  6
SLD-実線
 62
     7
370
    35
100
AcDbLine
 10
2050.0
 20
242.5
 30
0.0
 11
2100.0
 21
242.5
 31
0.0
  0
LINE
  5
D4
330
1F
100
AcDbEntity
  8
0
  6
SLD-実線
 62
     7
370
    35
100
AcDbLine
 10
50.0
 20
242.5
 30
0.0
 11
0.0
 21
242.5
 31
0.0
  0
LINE
  5
D5
330
1F
100
AcDbEntity
  8
0
  6
SLD-実線
 62
   179
370
    18
100
AcDbLine
 10
1779.9272981694
 20
68.6085804707
 30
0.0
 11
1778.6281871128
 21
67.3188745248
 31
0.0
  0
LINE
  5
D6
330
1F
100
AcDbEntity
  8
0
  6
SLD-実線
 62
   179
370
    18
100
AcDbLine
 10
1778.6281871128
 20
67.3188745248
 30
0.0
 11
1778.6281871128
 21
64.2716186662
 31
0.0
  0
LINE
  5
D7
330
1F
100
AcDbEntity
  8
0
  6
SLD-実線
 62
   179
370
    18
100
AcDbLine
 10
1778.6281871128
 20
64.2716186662
 30
0.0
 11
1777.0384822521
 21
64.2716186662
 31
0.0
  0
LINE
  5
D8
330
1F
100
AcDbEntity
  8
0
  6
SLD-実線
 62
   179
370
    18
100
AcDbLine
 10
1777.0384822521
 20
64.2716186662
 30
0.0
 11
1777.0384822521
 21
73.3516501309
 31
0.0
  0
LINE
  5
D9
330
1F
100
AcDbEntity
  8
0
  6
SLD-実線
 62
   179
370
    18
100
AcDbLine
 10
1788.9955129566
 20
71.7899194456
 30
0.0
 11
1789.0220401918
 21
71.7899194456
 31
0.0
  0
LINE
  5
DA
330
1F
100
AcDbEntity
  8
0
  6
SLD-実線
 62
   179
370
    18
100
AcDbLine
 10
1789.0220401918
 20
71.7899194456
 30
0.0
 11
1789.0338568694
 21
71.7899194456
 31
0.0
  0
LINE
  5
DB
330
1F
100
AcDbEntity
  8
0
  6
SLD-実線
 62
   179
370
    18
100
AcDbLine
 10
1789.0338568694
 20
71.7899194456
 30
0.0
 11
1790.3949451937
 21
67.8822165385
 31
0.0
  0
LINE
  5
DC
330
1F
100
AcDbEntity
  8
0
  6
SLD-実線
 62
   179
370
    18
100
AcDbLine
 10
1790.3949451937
 20
67.8822165385
 30
0.0
 11
1787.6206787013
 21
67.8822165385
 31
0.0
  0
LINE
  5
DD
330
1F
100
AcDbEntity
  8
0
  6
SLD-実線
 62
   179
370
    18
100
AcDbLine
 10
1787.6206787013
 20
67.8822165385
 30
0.0
 11
1788.9955129566
 21
71.7899194456
 31
0.0
  0
LINE
  5
DE
330
1F
100
AcDbEntity
  8
0
  6
SLD-実線
 62
   179
370
    18
100
AcDbLine
 10
1784.6988243184
 20
64.2716186662
 30
0.0
 11
1786.3384486127
 21
64.2716186662
 31
0.0
  0
LINE
  5
DF
330
1F
100
AcDbEntity
  8
0
  6
SLD-実線
 62
   179
370
    18
100
AcDbLine
 10
1786.3384486127
 20
64.2716186662
 30
0.0
 11
1787.1902140204
 21
66.6725746118
 31
0.0
  0
LINE
  5
E0
330
1F
100
AcDbEntity
  8
0
  6
SLD-実線
 62
   179
370
    18
100
AcDbLine
 10
1787.1902140204
 20
66.6725746118
 30
0.0
 11
1790.8143166671
 21
66.6725746118
 31
0.0
  0
LINE
  5
E1
330
1F
100
AcDbEntity
  8
0
  6
SLD-実線
 62
   179
370
    18
100
AcDbLine
 10
1790.8143166671
 20
66.6725746118
 30
0.0
 11
1791.6668055449
 21
64.2716186662
 31
0.0
  0
LINE
  5
E2
330
1F
100
AcDbEntity
  8
0
  6
SLD-実線
 62
   179
370
    18
100
AcDbLine
 10
1791.6668055449
 20
64.2716186662
 30
0.0
 11
1793.3746771808
 21
64.2716186662
 31
0.0
  0
LINE
  5
E3
330
1F
100
AcDbEntity
  8
0
  6
SLD-実線
 62
   179
370
    18
100
AcDbLine
 10
1793.3746771808
 20
64.2716186662
 30
0.0
 11
1789.8735644429
 21
73.3516501309
 31
0.0
  0
LINE
  5
E4
330
1F
100
AcDbEntity
  8
0
  6
SLD-実線
 62
   179
370
    18
100
AcDbLine
 10
1789.8735644429
 20
73.3516501309
 30
0.0
 11
1788.1840207151
 21
73.3516501309
 31
0.0
  0
LINE
  5
E5
330
1F
100
AcDbEntity
  8
0
  6
SLD-実線
 62
   179
370
    18
100
AcDbLine
 10
1788.1840207151
 20
73.3516501309
 30
0.0
 11
1784.6988243184
 21
64.2716186662
 31
0.0
  0
LINE
  5
E6
330
1F
100
AcDbEntity
  8
0
  6
SLD-実線
 62
   179
370
    18
100
AcDbLine
 10
1800.8430585266
 20
70.6690231785
 30
0.0
 11
1799.2499774723
 21
70.6690231785
 31
0.0
  0
LINE
  5
E7
330
1F
100
AcDbEntity
  8
0
  6
SLD-実線
 62
   179
370
    18
100
AcDbLine
 10
1793.6920393769
 20
67.3015112435
 30
0.0
 11
1795.2805384542
 21
67.3015112435
 31
0.0
  0
LINE
  5
E8
330
1F
100
AcDbEntity
  8
0
  6
SLD-実線
 62
   179
370
    18
100
AcDbLine
 10
1802.4412038712
 20
73.3516501309
 30
0.0
 11
1804.0366964923
 21
73.3516501309
 31
0.0
  0
LINE
  5
E9
330
1F
100
AcDbEntity
  8
0
  6
SLD-実線
 62
   179
370
    18
100
AcDbLine
 10
1804.0366964923
 20
73.3516501309
 30
0.0
 11
1804.0366964923
 21
69.7391230051
 31
0.0
  0
LINE
  5
EA
330
1F
100
AcDbEntity
  8
0
  6
SLD-実線
 62
   179
370
    18
100
AcDbLine
 10
1804.0366964923
 20
69.7391230051
 30
0.0
 11
1808.1701220555
 21
69.7391230051
 31
0.0
  0
LINE
  5
EB
330
1F
100
AcDbEntity
  8
0
  6
SLD-実線
 62
   179
370
    18
100
AcDbLine
 10
1808.1701220555
 20
69.7391230051
 30
0.0
 11
1808.1701220555
 21
73.3516501309
 31
0.0
  0
LINE
  5
EC
330
1F
100
AcDbEntity
  8
0
  6
SLD-実線
 62
   179
370
    18
100
AcDbLine
 10
1808.1701220555
 20
73.3516501309
 30
0.0
 11
1809.7576565061
 21
73.3516501309
 31
0.0
  0
LINE
  5
ED
330
1F
100
AcDbEntity
  8
0
  6
SLD-実線
 62
   179
370
    18
100
AcDbLine
 10
1809.7576565061
 20
73.3516501309
 30
0.0
 11
1809.7576565061
 21
64.2716186662
 31
0.0
  0
LINE
  5
EE
330
1F
100
AcDbEntity
  8
0
  6
SLD-実線
 62
   179
370
    18
100
AcDbLine
 10
1809.7576565061
 20
64.2716186662
 30
0.0
 11
1808.1701220555
 21
64.2716186662
 31
0.0
  0
LINE
  5
EF
330
1F
100
AcDbEntity
  8
0
  6
SLD-実線
 62
   179
370
    18
100
AcDbLine
 10
1808.1701220555
 20
64.2716186662
 30
0.0
 11
1808.1701220555
 21
68.3703176669
 31
0.0
  0
LINE
  5
F0
330
1F
100
AcDbEntity
  8
0
  6
SLD-実線
 62
   179
370
    18
100
AcDbLine
 10
1808.1701220555
 20
68.3703176669
 30
0.0
 11
1804.0366964923
 21
68.3703176669
 31
0.0
  0
LINE
  5
F1
330
1F
100
AcDbEntity
  8
0
  6
SLD-実線
 62
   179
370
    18
100
AcDbLine
 10
1804.0366964923
 20
68.3703176669
 30
0.0
 11
1804.0366964923
 21
64.2716186662
 31
0.0
  0
LINE
  5
F2
330
1F
100
AcDbEntity
  8
0
  6
SLD-実線
 62
   179
370
    18
100
AcDbLine
 10
1804.0366964923
 20
64.2716186662
 30
0.0
 11
1802.4412038712
 21
64.2716186662
 31
0.0
  0
LINE
  5
F3
330
1F
100
AcDbEntity
  8
0
  6
SLD-実線
 62
   179
370
    18
100
AcDbLine
 10
1802.4412038712
 20
64.2716186662
 30
0.0
 11
1802.4412038712
 21
73.3516501309
 31
0.0
  0
LINE
  5
F4
330
1F
100
AcDbEntity
  8
0
  6
SLD-実線
 62
   179
370
    18
100
AcDbLine
 10
1826.4601684377
 20
72.0551917979
 30
0.0
 11
1828.0262399434
 21
72.0551917979
 31
0.0
  0
LINE
  5
F5
330
1F
100
AcDbEntity
  8
0
  6
SLD-実線
 62
   179
370
    18
100
AcDbLine
 10
1828.0262399434
 20
65.5700062527
 30
0.0
 11
1826.4601684377
 21
65.5700062527
 31
0.0
  0
LINE
  5
F6
330
1F
100
AcDbEntity
  8
0
  6
SLD-実線
 62
   179
370
    18
100
AcDbLine
 10
1826.4601684377
 20
65.5700062527
 30
0.0
 11
1826.4601684377
 21
72.0551917979
 31
0.0
  0
LINE
  5
F7
330
1F
100
AcDbEntity
  8
0
  6
SLD-実線
 62
   179
370
    18
100
AcDbLine
 10
1824.8694989502
 20
64.2716186662
 30
0.0
 11
1828.6329901602
 21
64.2716186662
 31
0.0
  0
LINE
  5
F8
330
1F
100
AcDbEntity
  8
0
  6
SLD-実線
 62
   179
370
    18
100
AcDbLine
 10
1828.6329901602
 20
73.3516501309
 30
0.0
 11
1824.8694989502
 21
73.3516501309
 31
0.0
  0
LINE
  5
F9
330
1F
100
AcDbEntity
  8
0
  6
SLD-実線
 62
   179
370
    18
100
AcDbLine
 10
1824.8694989502
 20
73.3516501309
 30
0.0
 11
1824.8694989502
 21
64.2716186662
 31
0.0
  0
LINE
  5
FA
330
1F
100
AcDbEntity
  8
0
  6
SLD-実線
 62
   179
370
    18
100
AcDbLine
 10
1834.0556393559
 20
73.3516501309
 30
0.0
 11
1835.6463088434
 21
73.3516501309
 31
0.0
  0
LINE
  5
FB
330
1F
100
AcDbEntity
  8
0
  6
SLD-実線
 62
   179
370
    18
100
AcDbLine
 10
1835.6463088434
 20
73.3516501309
 30
0.0
 11
1835.6463088434
 21
64.2716186662
 31
0.0
  0
LINE
  5
FC
330
1F
100
AcDbEntity
  8
0
  6
SLD-実線
 62
   179
370
    18
100
AcDbLine
 10
1835.6463088434
 20
64.2716186662
 30
0.0
 11
1834.0556393559
 21
64.2716186662
 31
0.0
  0
LINE
  5
FD
330
1F
100
AcDbEntity
  8
0
  6
SLD-実線
 62
   179
370
    18
100
AcDbLine
 10
1834.0556393559
 20
64.2716186662
 30
0.0
 11
1834.0556393559
 21
73.3516501309
 31
0.0
  0
LINE
  5
FE
330
1F
100
AcDbEntity
  8
0
  6
SLD-実線
 62
   179
370
    18
100
AcDbLine
 10
1845.5187811716
 20
64.2716186662
 30
0.0
 11
1844.4982060851
 21
64.2716186662
 31
0.0
  0
LINE
  5
FF
330
1F
100
AcDbEntity
  8
0
  6
SLD-実線
 62
   179
370
    18
100
AcDbLine
 10
1844.4982060851
 20
64.2716186662
 30
0.0
 11
1844.2575317145
 21
65.3394604628
 31
0.0
  0
LINE
  5
100
330
1F
100
AcDbEntity
  8
0
  6
SLD-実線
 62
   179
370
    18
100
AcDbLine
 10
1845.4150837975
 20
70.4664515639
 30
0.0
 11
1843.861070126
 21
70.4664515639
 31
0.0
  0
LINE
  5
101
330
1F
100
AcDbEntity
  8
0
  6
SLD-実線
 62
   179
370
    18
100
AcDbLine
 10
1844.0670179342
 20
67.8465253493
 30
0.0
 11
1841.6462871405
 21
67.8465253493
 31
0.0
  0
LINE
  5
102
330
1F
100
AcDbEntity
  8
0
  6
SLD-実線
 62
   179
370
    18
100
AcDbLine
 10
1841.6462871405
 20
67.8465253493
 30
0.0
 11
1841.6462871405
 21
69.0552026494
 31
0.0
  0
LINE
  5
103
330
1F
100
AcDbEntity
  8
0
  6
SLD-実線
 62
   179
370
    18
100
AcDbLine
 10
1841.6462871405
 20
69.0552026494
 30
0.0
 11
1845.5187811716
 21
69.0552026494
 31
0.0
  0
LINE
  5
104
330
1F
100
AcDbEntity
  8
0
  6
SLD-実線
 62
   179
370
    18
100
AcDbLine
 10
1845.5187811716
 20
69.0552026494
 30
0.0
 11
1845.5187811716
 21
64.2716186662
 31
0.0
  0
LINE
  5
105
330
1F
100
AcDbEntity
  8
0
  6
SLD-実線
 62
   179
370
    18
100
AcDbLine
 10
1847.246909969
 20
73.3516501309
 30
0.0
 11
1848.8351678896
 21
73.3516501309
 31
0.0
  0
LINE
  5
106
330
1F
100
AcDbEntity
  8
0
  6
SLD-実線
 62
   179
370
    18
100
AcDbLine
 10
1848.8351678896
 20
73.3516501309
 30
0.0
 11
1848.8351678896
 21
64.2716186662
 31
0.0
  0
LINE
  5
107
330
1F
100
AcDbEntity
  8
0
  6
SLD-実線
 62
   179
370
    18
100
AcDbLine
 10
1848.8351678896
 20
64.2716186662
 30
0.0
 11
1847.246909969
 21
64.2716186662
 31
0.0
  0
LINE
  5
108
330
1F
100
AcDbEntity
  8
0
  6
SLD-実線
 62
   179
370
    18
100
AcDbLine
 10
1847.246909969
 20
64.2716186662
 30
0.0
 11
1847.246909969
 21
73.3516501309
 31
0.0
  0
LINE
  5
109
330
1F
100
AcDbEntity
  8
0
  6
SLD-実線
 62
   179
370
    18
100
AcDbLine
 10
1849.9174790872
 20
73.3516501309
 30
0.0
 11
1857.2717933215
 21
73.3516501309
 31
0.0
  0
LINE
  5
10A
330
1F
100
AcDbEntity
  8
0
  6
SLD-実線
 62
   179
370
    18
100
AcDbLine
 10
1857.2717933215
 20
73.3516501309
 30
0.0
 11
1857.2717933215
 21
71.9809155393
 31
0.0
  0
LINE
  5
10B
330
1F
100
AcDbEntity
  8
0
  6
SLD-実線
 62
   179
370
    18
100
AcDbLine
 10
1857.2717933215
 20
71.9809155393
 30
0.0
 11
1854.3827362476
 21
71.9809155393
 31
0.0
  0
LINE
  5
10C
330
1F
100
AcDbEntity
  8
0
  6
SLD-実線
 62
   179
370
    18
100
AcDbLine
 10
1854.3827362476
 20
71.9809155393
 30
0.0
 11
1854.3827362476
 21
64.2716186662
 31
0.0
  0
LINE
  5
10D
330
1F
100
AcDbEntity
  8
0
  6
SLD-実線
 62
   179
370
    18
100
AcDbLine
 10
1854.3827362476
 20
64.2716186662
 30
0.0
 11
1852.7944783269
 21
64.2716186662
 31
0.0
  0
LINE
  5
10E
330
1F
100
AcDbEntity
  8
0
  6
SLD-実線
 62
   179
370
    18
100
AcDbLine
 10
1852.7944783269
 20
64.2716186662
 30
0.0
 11
1852.7944783269
 21
71.9809155393
 31
0.0
  0
LINE
  5
10F
330
1F
100
AcDbEntity
  8
0
  6
SLD-実線
 62
   179
370
    18
100
AcDbLine
 10
1852.7944783269
 20
71.9809155393
 30
0.0
 11
1849.9174790872
 21
71.9809155393
 31
0.0
  0
LINE
  5
110
330
1F
100
AcDbEntity
  8
0
  6
SLD-実線
 62
   179
370
    18
100
AcDbLine
 10
1849.9174790872
 20
71.9809155393
 30
0.0
 11
1849.9174790872
 21
73.3516501309
 31
0.0
  0
LINE
  5
111
330
1F
100
AcDbEntity
  8
0
  6
SLD-実線
 62
   179
370
    18
100
AcDbLine
 10
1858.3256480304
 20
73.3516501309
 30
0.0
 11
1864.8638880461
 21
73.3516501309
 31
0.0
  0
LINE
  5
112
330
1F
100
AcDbEntity
  8
0
  6
SLD-実線
 62
   179
370
    18
100
AcDbLine
 10
1864.8638880461
 20
73.3516501309
 30
0.0
 11
1864.8638880461
 21
71.9809155393
 31
0.0
  0
LINE
  5
113
330
1F
100
AcDbEntity
  8
0
  6
SLD-実線
 62
   179
370
    18
100
AcDbLine
 10
1864.8638880461
 20
71.9809155393
 30
0.0
 11
1859.9182467713
 21
71.9809155393
 31
0.0
  0
LINE
  5
114
330
1F
100
AcDbEntity
  8
0
  6
SLD-実線
 62
   179
370
    18
100
AcDbLine
 10
1859.9182467713
 20
71.9809155393
 30
0.0
 11
1859.9182467713
 21
69.5982875017
 31
0.0
  0
LINE
  5
115
330
1F
100
AcDbEntity
  8
0
  6
SLD-実線
 62
   179
370
    18
100
AcDbLine
 10
1859.9182467713
 20
69.5982875017
 30
0.0
 11
1864.4944360063
 21
69.5982875017
 31
0.0
  0
LINE
  5
116
330
1F
100
AcDbEntity
  8
0
  6
SLD-実線
 62
   179
370
    18
100
AcDbLine
 10
1864.4944360063
 20
69.5982875017
 30
0.0
 11
1864.4944360063
 21
68.3056876756
 31
0.0
  0
LINE
  5
117
330
1F
100
AcDbEntity
  8
0
  6
SLD-実線
 62
   179
370
    18
100
AcDbLine
 10
1864.4944360063
 20
68.3056876756
 30
0.0
 11
1859.9182467713
 21
68.3056876756
 31
0.0
  0
LINE
  5
118
330
1F
100
AcDbEntity
  8
0
  6
SLD-実線
 62
   179
370
    18
100
AcDbLine
 10
1859.9182467713
 20
68.3056876756
 30
0.0
 11
1859.9182467713
 21
65.6471763915
 31
0.0
  0
LINE
  5
119
330
1F
100
AcDbEntity
  8
0
  6
SLD-実線
 62
   179
370
    18
100
AcDbLine
 10
1859.9182467713
 20
65.6471763915
 30
0.0
 11
1864.9497398256
 21
65.6471763915
 31
0.0
  0
LINE
  5
11A
330
1F
100
AcDbEntity
  8
0
  6
SLD-実線
 62
   179
370
    18
100
AcDbLine
 10
1864.9497398256
 20
65.6471763915
 30
0.0
 11
1864.9497398256
 21
64.2716186662
 31
0.0
  0
LINE
  5
11B
330
1F
100
AcDbEntity
  8
0
  6
SLD-実線
 62
   179
370
    18
100
AcDbLine
 10
1864.9497398256
 20
64.2716186662
 30
0.0
 11
1858.3256480304
 21
64.2716186662
 31
0.0
  0
LINE
  5
11C
330
1F
100
AcDbEntity
  8
0
  6
SLD-実線
 62
   179
370
    18
100
AcDbLine
 10
1858.3256480304
 20
64.2716186662
 30
0.0
 11
1858.3256480304
 21
73.3516501309
 31
0.0
  0
LINE
  5
11D
330
1F
100
AcDbEntity
  8
0
  6
SLD-実線
 62
   179
370
    18
100
AcDbLine
 10
1872.5244712691
 20
67.7317347677
 30
0.0
 11
1874.0746264336
 21
67.7317347677
 31
0.0
  0
LINE
  5
11E
330
1F
100
AcDbEntity
  8
0
  6
SLD-実線
 62
   179
370
    18
100
AcDbLine
 10
1874.065944793
 20
70.4664515639
 30
0.0
 11
1872.4738283654
 21
70.4664515639
 31
0.0
  0
LINE
  5
11F
330
1F
100
AcDbEntity
  8
0
  6
SLD-実線
 62
   179
370
    18
100
AcDbLine
 10
1885.2435570949
 20
67.7317347677
 30
0.0
 11
1886.7990177065
 21
67.7317347677
 31
0.0
  0
LINE
  5
120
330
1F
100
AcDbEntity
  8
0
  6
SLD-実線
 62
   179
370
    18
100
AcDbLine
 10
1886.7831013653
 20
70.4664515639
 30
0.0
 11
1885.1905026244
 21
70.4664515639
 31
0.0
  0
LINE
  5
121
330
1F
100
AcDbEntity
  8
0
  6
SLD-実線
 62
   179
370
    18
100
AcDbLine
 10
1897.8256659242
 20
65.988654256
 30
0.0
 11
1899.5957559845
 21
65.988654256
 31
0.0
  0
LINE
  5
122
330
1F
100
AcDbEntity
  8
0
  6
SLD-実線
 62
   179
370
    18
100
AcDbLine
 10
1899.5957559845
 20
65.988654256
 30
0.0
 11
1899.5957559845
 21
64.2716186662
 31
0.0
  0
LINE
  5
123
330
1F
100
AcDbEntity
  8
0
  6
SLD-実線
 62
   179
370
    18
100
AcDbLine
 10
1899.5957559845
 20
64.2716186662
 30
0.0
 11
1897.8256659242
 21
64.2716186662
 31
0.0
  0
LINE
  5
124
330
1F
100
AcDbEntity
  8
0
  6
SLD-実線
 62
   179
370
    18
100
AcDbLine
 10
1897.8256659242
 20
64.2716186662
 30
0.0
 11
1897.8256659242
 21
65.988654256
 31
0.0
  0
LINE
  5
125
330
1F
100
AcDbEntity
  8
0
  6
SLD-実線
 62
   179
370
    18
100
AcDbLine
 10
1901.3600582844
 20
65.988654256
 30
0.0
 11
1903.1306306581
 21
65.988654256
 31
0.0
  0
LINE
  5
126
330
1F
100
AcDbEntity
  8
0
  6
SLD-実線
 62
   179
370
    18
100
AcDbLine
 10
1903.1306306581
 20
65.988654256
 30
0.0
 11
1903.1306306581
 21
64.2716186662
 31
0.0
  0
LINE
  5
127
330
1F
100
AcDbEntity
  8
0
  6
SLD-実線
 62
   179
370
    18
100
AcDbLine
 10
1901.4131127549
 20
62.2623011754
 30
0.0
 11
1901.4131127549
 21
63.0359318175
 31
0.0
  0
LINE
  5
128
330
1F
100
AcDbEntity
  8
0
  6
SLD-実線
 62
   179
370
    18
100
AcDbLine
 10
1902.2422094344
 20
64.2716186662
 30
0.0
 11
1901.3600582844
 21
64.2716186662
 31
0.0
  0
LINE
  5
129
330
1F
100
AcDbEntity
  8
0
  6
SLD-実線
 62
   179
370
    18
100
AcDbLine
 10
1901.3600582844
 20
64.2716186662
 30
0.0
 11
1901.3600582844
 21
65.988654256
 31
0.0
  0
LINE
  5
12A
330
1F
100
AcDbEntity
  8
0
  6
SLD-実線
 62
   179
370
    18
100
AcDbLine
 10
1904.988019438
 20
73.3516501309
 30
0.0
 11
1906.5806181789
 21
73.3516501309
 31
0.0
  0
LINE
  5
12B
330
1F
100
AcDbEntity
  8
0
  6
SLD-実線
 62
   179
370
    18
100
AcDbLine
 10
1906.5806181789
 20
73.3516501309
 30
0.0
 11
1906.5806181789
 21
65.6471763915
 31
0.0
  0
LINE
  5
12C
330
1F
100
AcDbEntity
  8
0
  6
SLD-実線
 62
   179
370
    18
100
AcDbLine
 10
1906.5806181789
 20
65.6471763915
 30
0.0
 11
1911.1958747967
 21
65.6471763915
 31
0.0
  0
LINE
  5
12D
330
1F
100
AcDbEntity
  8
0
  6
SLD-実線
 62
   179
370
    18
100
AcDbLine
 10
1911.1958747967
 20
65.6471763915
 30
0.0
 11
1911.1958747967
 21
64.2716186662
 31
0.0
  0
LINE
  5
12E
330
1F
100
AcDbEntity
  8
0
  6
SLD-実線
 62
   179
370
    18
100
AcDbLine
 10
1911.1958747967
 20
64.2716186662
 30
0.0
 11
1904.988019438
 21
64.2716186662
 31
0.0
  0
LINE
  5
12F
330
1F
100
AcDbEntity
  8
0
  6
SLD-実線
 62
   179
370
    18
100
AcDbLine
 10
1904.988019438
 20
64.2716186662
 30
0.0
 11
1904.988019438
 21
73.3516501309
 31
0.0
  0
LINE
  5
130
330
1F
100
AcDbEntity
  8
0
  6
SLD-実線
 62
   179
370
    18
100
AcDbLine
 10
1910.2543991025
 20
73.3516501309
 30
0.0
 11
1917.6072663967
 21
73.3516501309
 31
0.0
  0
LINE
  5
131
330
1F
100
AcDbEntity
  8
0
  6
SLD-実線
 62
   179
370
    18
100
AcDbLine
 10
1917.6072663967
 20
73.3516501309
 30
0.0
 11
1917.6072663967
 21
71.9809155393
 31
0.0
  0
LINE
  5
132
330
1F
100
AcDbEntity
  8
0
  6
SLD-実線
 62
   179
370
    18
100
AcDbLine
 10
1917.6072663967
 20
71.9809155393
 30
0.0
 11
1914.7230324564
 21
71.9809155393
 31
0.0
  0
LINE
  5
133
330
1F
100
AcDbEntity
  8
0
  6
SLD-実線
 62
   179
370
    18
100
AcDbLine
 10
1914.7230324564
 20
71.9809155393
 30
0.0
 11
1914.7230324564
 21
64.2716186662
 31
0.0
  0
LINE
  5
134
330
1F
100
AcDbEntity
  8
0
  6
SLD-実線
 62
   179
370
    18
100
AcDbLine
 10
1914.7230324564
 20
64.2716186662
 30
0.0
 11
1913.1289867754
 21
64.2716186662
 31
0.0
  0
LINE
  5
135
330
1F
100
AcDbEntity
  8
0
  6
SLD-実線
 62
   179
370
    18
100
AcDbLine
 10
1913.1289867754
 20
64.2716186662
 30
0.0
 11
1913.1289867754
 21
71.9809155393
 31
0.0
  0
LINE
  5
136
330
1F
100
AcDbEntity
  8
0
  6
SLD-実線
 62
   179
370
    18
100
AcDbLine
 10
1913.1289867754
 20
71.9809155393
 30
0.0
 11
1910.2543991025
 21
71.9809155393
 31
0.0
  0
LINE
  5
137
330
1F
100
AcDbEntity
  8
0
  6
SLD-実線
 62
   179
370
    18
100
AcDbLine
 10
1910.2543991025
 20
71.9809155393
 30
0.0
 11
1910.2543991025
 21
73.3516501309
 31
0.0
  0
LINE
  5
138
330
1F
100
AcDbEntity
  8
0
  6
SLD-実線
 62
   179
370
    18
100
AcDbLine
 10
1920.2537198465
 20
72.0551917979
 30
0.0
 11
1921.8226852324
 21
72.0551917979
 31
0.0
  0
LINE
  5
139
330
1F
100
AcDbEntity
  8
0
  6
SLD-実線
 62
   179
370
    18
100
AcDbLine
 10
1921.8226852324
 20
65.5700062527
 30
0.0
 11
1920.2537198465
 21
65.5700062527
 31
0.0
  0
LINE
  5
13A
330
1F
100
AcDbEntity
  8
0
  6
SLD-実線
 62
   179
370
    18
100
AcDbLine
 10
1920.2537198465
 20
65.5700062527
 30
0.0
 11
1920.2537198465
 21
72.0551917979
 31
0.0
  0
LINE
  5
13B
330
1F
100
AcDbEntity
  8
0
  6
SLD-実線
 62
   179
370
    18
100
AcDbLine
 10
1918.6659442393
 20
64.2716186662
 30
0.0
 11
1922.4299177627
 21
64.2716186662
 31
0.0
  0
LINE
  5
13C
330
1F
100
AcDbEntity
  8
0
  6
SLD-実線
 62
   179
370
    18
100
AcDbLine
 10
1922.4299177627
 20
73.3516501309
 30
0.0
 11
1918.6659442393
 21
73.3516501309
 31
0.0
  0
LINE
  5
13D
330
1F
100
AcDbEntity
  8
0
  6
SLD-実線
 62
   179
370
    18
100
AcDbLine
 10
1918.6659442393
 20
73.3516501309
 30
0.0
 11
1918.6659442393
 21
64.2716186662
 31
0.0
  0
LINE
  5
13E
330
1F
100
AcDbEntity
  8
0
  6
SLD-実線
 62
   179
370
    18
100
AcDbLine
 10
1927.758998165
 20
63.6889683431
 30
0.0
 11
1929.5257120317
 21
63.6889683431
 31
0.0
  0
LINE
  5
13F
330
1F
100
AcDbEntity
  8
0
  6
SLD-実線
 62
   179
370
    18
100
AcDbLine
 10
1929.5257120317
 20
63.6889683431
 30
0.0
 11
1929.5257120317
 21
61.9719327532
 31
0.0
  0
LINE
  5
140
330
1F
100
AcDbEntity
  8
0
  6
SLD-実線
 62
   179
370
    18
100
AcDbLine
 10
1929.5257120317
 20
61.9719327532
 30
0.0
 11
1927.758998165
 21
61.9719327532
 31
0.0
  0
LINE
  5
141
330
1F
100
AcDbEntity
  8
0
  6
SLD-実線
 62
   179
370
    18
100
AcDbLine
 10
1927.758998165
 20
61.9719327532
 30
0.0
 11
1927.758998165
 21
63.6889683431
 31
0.0
  0
LINE
  5
142
330
1F
100
AcDbEntity
  8
0
  6
SLD-実線
 62
   179
370
    18
100
AcDbLine
 10
1766.7227639387
 20
86.5368918268
 30
0.0
 11
1766.7227639387
 21
113.0134841596
 31
0.0
  0
LINE
  5
143
330
1F
100
AcDbEntity
  8
0
  6
SLD-実線
 62
   179
370
    18
100
AcDbLine
 10
1762.8165079718
 20
87.8096884798
 30
0.0
 11
1771.4771679632
 21
84.53673829
 31
0.0
  0
LINE
  5
144
330
1F
100
AcDbEntity
  8
0
  6
SLD-実線
 62
   179
370
    18
100
AcDbLine
 10
1772.8975808317
 20
114.7922558606
 30
0.0
 11
1762.8165079718
 21
114.7922558606
 31
0.0
  0
LINE
  5
145
330
1F
100
AcDbEntity
  8
0
  6
SLD-実線
 62
   179
370
    18
100
AcDbLine
 10
1762.8165079718
 20
114.7922558606
 30
0.0
 11
1762.8165079718
 21
87.8096884798
 31
0.0
  0
LINE
  5
146
330
1F
100
AcDbEntity
  8
0
  6
SLD-実線
 62
   179
370
    18
100
AcDbLine
 10
1797.3330229914
 20
84.4065136807
 30
0.0
 11
1797.3330229914
 21
105.6410831741
 31
0.0
  0
LINE
  5
147
330
1F
100
AcDbEntity
  8
0
  6
SLD-実線
 62
   179
370
    18
100
AcDbLine
 10
1800.8857432596
 20
105.6410831741
 30
0.0
 11
1800.8857432596
 21
84.4065136807
 31
0.0
  0
LINE
  5
148
330
1F
100
AcDbEntity
  8
0
  6
SLD-実線
 62
   179
370
    18
100
AcDbLine
 10
1832.6921394648
 20
87.0717773519
 30
0.0
 11
1832.6921394648
 21
98.4907874944
 31
0.0
  0
LINE
  5
149
330
1F
100
AcDbEntity
  8
0
  6
SLD-実線
 62
   179
370
    18
100
AcDbLine
 10
1836.6032185654
 20
98.4907874944
 30
0.0
 11
1836.6032185654
 21
85.9180837758
 31
0.0
  0
LINE
  5
14A
330
1F
100
AcDbEntity
  8
0
  6
SLD-実線
 62
   179
370
    18
100
AcDbLine
 10
1835.757240918
 20
109.4651047117
 30
0.0
 11
1835.2681751629
 21
109.4651047117
 31
0.0
  0
LINE
  5
14B
330
1F
100
AcDbEntity
  8
0
  6
SLD-実線
 62
   179
370
    18
100
AcDbLine
 10
1844.2430623135
 20
84.4065136807
 30
0.0
 11
1844.2430623135
 21
105.6410831741
 31
0.0
  0
LINE
  5
14C
330
1F
100
AcDbEntity
  8
0
  6
SLD-実線
 62
   179
370
    18
100
AcDbLine
 10
1847.7972295218
 20
105.6410831741
 30
0.0
 11
1847.7972295218
 21
84.4065136807
 31
0.0
  0
LINE
  5
14D
330
1F
100
AcDbEntity
  8
0
  6
SLD-実線
 62
   179
370
    18
100
AcDbLine
 10
1862.8101977255
 20
84.3206619012
 30
0.0
 11
1862.8101977255
 21
112.6640481246
 31
0.0
  0
LINE
  5
14E
330
1F
100
AcDbEntity
  8
0
  6
SLD-実線
 62
   179
370
    18
100
AcDbLine
 10
1853.082901721
 20
114.7922558606
 30
0.0
 11
1876.0062914722
 21
114.7922558606
 31
0.0
  0
LINE
  5
14F
330
1F
100
AcDbEntity
  8
0
  6
SLD-実線
 62
   179
370
    18
100
AcDbLine
 10
1866.7236883929
 20
112.6640481246
 30
0.0
 11
1866.7236883929
 21
84.3206619012
 31
0.0
  0
LINE
  5
150
330
1F
100
AcDbEntity
  8
0
  6
SLD-実線
 62
   179
370
    18
100
AcDbLine
 10
1884.7530443997
 20
101.556371261
 30
0.0
 11
1891.6414439205
 21
101.556371261
 31
0.0
  0
LINE
  5
151
330
1F
100
AcDbEntity
  8
0
  6
SLD-実線
 62
   179
370
    18
100
AcDbLine
 10
1891.6414439205
 20
99.6010728674
 30
0.0
 11
1884.7530443997
 21
99.6010728674
 31
0.0
  0
LINE
  5
152
330
1F
100
AcDbEntity
  8
0
  6
SLD-実線
 62
   179
370
    18
100
AcDbLine
 10
1884.7530443997
 20
99.6010728674
 30
0.0
 11
1884.7530443997
 21
86.6270844267
 31
0.0
  0
LINE
  5
153
330
1F
100
AcDbEntity
  8
0
  6
SLD-実線
 62
   179
370
    18
100
AcDbLine
 10
1896.8827432899
 20
84.53673829
 30
0.0
 11
1880.8467884328
 21
84.53673829
 31
0.0
  0
LINE
  5
154
330
1F
100
AcDbEntity
  8
0
  6
SLD-実線
 62
   179
370
    18
100
AcDbLine
 10
1880.8467884328
 20
84.53673829
 30
0.0
 11
1880.8467884328
 21
114.7922558606
 31
0.0
  0
LINE
  5
155
330
1F
100
AcDbEntity
  8
0
  6
SLD-実線
 62
   179
370
    18
100
AcDbLine
 10
1880.8467884328
 20
114.7922558606
 30
0.0
 11
1896.6150593707
 21
114.7922558606
 31
0.0
  0
LINE
  5
156
330
1F
100
AcDbEntity
  8
0
  6
SLD-実線
 62
   179
370
    18
100
AcDbLine
 10
1892.6190931173
 20
112.6146110044
 30
0.0
 11
1888.1818101323
 21
112.7028743507
 31
0.0
  0
LINE
  5
157
330
1F
100
AcDbEntity
  8
0
  6
SLD-実線
 62
   179
370
    18
100
AcDbLine
 10
1888.1818101323
 20
112.7028743507
 30
0.0
 11
1884.7530443997
 21
112.7028743507
 31
0.0
  0
LINE
  5
158
330
1F
100
AcDbEntity
  8
0
  6
SLD-実線
 62
   179
370
    18
100
AcDbLine
 10
1884.7530443997
 20
112.7028743507
 30
0.0
 11
1884.7530443997
 21
101.556371261
 31
0.0
  0
LINE
  5
159
330
1F
100
AcDbEntity
  8
0
  6
SLD-実線
 62
   179
370
    18
100
AcDbLine
 10
1926.1601293503
 20
109.9915497528
 30
0.0
 11
1925.8471079745
 21
109.9493473331
 31
0.0
  0
LINE
  5
15A
330
1F
100
AcDbEntity
  8
0
  6
SLD-実線
 62
   179
370
    18
100
AcDbLine
 10
1926.4712214726
 20
89.2055316916
 30
0.0
 11
1926.2479103832
 21
86.4052202774
 31
0.0
  0
LINE
  5
15B
330
1F
100
AcDbEntity
  8
レイヤー_1
 62
     7
370
    35
100
AcDbLine
 10
1300.0
 20
282.0915197419
 30
0.0
 11
2050.0
 21
282.0915197419
 31
0.0
  0
LINE
  5
15C
330
1F
100
AcDbEntity
  8
FORMAT
370
    50
100
AcDbLine
 10
1963.8146245561
 20
50.0
 30
0.0
 11
1963.7791126975
 21
132.4105637621
 31
0.0
  0
LINE
  5
15D
330
1F
100
AcDbEntity
  8
レイヤー_1
 62
     7
370
    35
100
AcDbLine
 10
1300.0
 20
244.5915197419
 30
0.0
 11
2050.0
 21
244.5915197419
 31
0.0
  0
LINE
  5
15E
330
1F
100
AcDbEntity
  8
FORMAT
370
    50
100
AcDbLine
 10
1300.0
 20
50.0
 30
0.0
 11
1300.0
 21
357.0915197419
 31
0.0
  0
LINE
  5
15F
330
1F
100
AcDbEntity
  8
レイヤー_1
 62
     7
370
    35
100
AcDbLine
 10
1300.0
 20
207.0915197419
 30
0.0
 11
2050.0
 21
207.0915197419
 31
0.0
  0
LINE
  5
160
330
1F
100
AcDbEntity
  8
レイヤー_1
 62
     7
370
    35
100
AcDbLine
 10
1300.0
 20
169.5915197419
 30
0.0
 11
2050.0
 21
169.5915197419
 31
0.0
  0
LINE
  5
161
330
1F
100
AcDbEntity
  8
FORMAT
 62
     7
100
AcDbLine
 10
1665.0
 20
97.3288441609
 30
0.0
 11
1300.0
 21
97.3288441609
 31
0.0
  0
LINE
  5
162
330
1F
100
AcDbEntity
  8
FORMAT
370
    50
100
AcDbLine
 10
1497.9608648165
 20
50.0
 30
0.0
 11
1497.925352958
 21
132.4105637621
 31
0.0
  0
LINE
  5
163
330
1F
100
AcDbEntity
  8
FORMAT
370
    50
100
AcDbLine
 10
1050.0
 20
50.0
 30
0.0
 11
1050.0
 21
357.0915197419
 31
0.0
  0
LINE
  5
164
330
1F
100
AcDbEntity
  8
FORMAT
 62
     7
100
AcDbLine
 10
1300.0
 20
319.5915197419
 30
0.0
 11
1050.0
 21
319.5915197419
 31
0.0
  0
LINE
  5
165
330
1F
100
AcDbEntity
  8
0
  6
SLD-実線
 62
     7
100
AcDbLine
 10
1138.3886831416
 20
319.5915197419
 30
0.0
 11
1138.3886831416
 21
50.0
 31
0.0
  0
LINE
  5
166
330
1F
100
AcDbEntity
  8
FORMAT
 62
     7
100
AcDbLine
 10
1050.0
 20
119.7356533549
 30
0.0
 11
1300.0
 21
119.7356533549
 31
0.0
  0
LINE
  5
167
330
1F
100
AcDbEntity
  8
FORMAT
 62
     7
100
AcDbLine
 10
1050.0
 20
253.5668438997
 30
0.0
 11
1300.0
 21
253.5668438997
 31
0.0
  0
LINE
  5
168
330
1F
100
AcDbEntity
  8
FORMAT
 62
     7
100
AcDbLine
 10
1300.0
 20
187.4031092483
 30
0.0
 11
1050.0
 21
187.4031092483
 31
0.0
  0
LINE
  5
169
330
1F
100
AcDbEntity
  8
レイヤー_1
 62
     7
370
    25
100
AcDbLine
 10
100.0
 20
1435.0
 30
0.0
 11
100.0
 21
1185.0
 31
0.0
  0
LINE
  5
16A
330
1F
100
AcDbEntity
  8
レイヤー_1
 62
     7
370
    25
100
AcDbLine
 10
350.0
 20
1435.0
 30
0.0
 11
350.0
 21
1185.0
 31
0.0
  0
LINE
  5
16B
330
1F
100
AcDbEntity
  8
レイヤー_1
 62
     7
370
    25
100
AcDbLine
 10
300.0
 20
1435.0
 30
0.0
 11
300.0
 21
1185.0
 31
0.0
  0
LINE
  5
16C
330
1F
100
AcDbEntity
  8
FORMAT
 62
     7
370
    35
100
AcDbLine
 10
1300.0
 20
84.7811924124
 30
0.0
 11
1050.0
 21
84.7811924124
 31
0.0
  0
LINE
  5
16D
330
1F
100
AcDbEntity
  8
FORMAT
 62
     7
100
AcDbLine
 10
1050.0
 20
84.7811924124
 30
0.0
 11
50.0
 21
84.7811924124
 31
0.0
  0
LINE
  5
16E
330
1F
100
AcDbEntity
  8
FORMAT
 62
     7
370
    18
100
AcDbLine
 10
1050.0
 20
119.7356533549
 30
0.0
 11
50.0
 21
119.7356533549
 31
0.0
  0
LINE
  5
16F
330
1F
100
AcDbEntity
  8
FORMAT
 62
     7
370
    18
100
AcDbLine
 10
1050.0
 20
152.4247496535
 30
0.0
 11
50.0
 21
152.4247496535
 31
0.0
  0
LINE
  5
170
330
1F
100
AcDbEntity
  8
FORMAT
 62
     7
370
    18
100
AcDbLine
 10
1050.0
 20
187.4031092483
 30
0.0
 11
50.0
 21
187.4031092483
 31
0.0
  0
LINE
  5
171
330
1F
100
AcDbEntity
  8
FORMAT
 62
     7
370
    18
100
AcDbLine
 10
1050.0
 20
219.671182214
 30
0.0
 11
50.0
 21
219.671182214
 31
0.0
  0
LINE
  5
172
330
1F
100
AcDbEntity
  8
FORMAT
 62
     7
370
    18
100
AcDbLine
 10
1050.0
 20
253.5668438997
 30
0.0
 11
50.0
 21
253.5668438997
 31
0.0
  0
LINE
  5
173
330
1F
100
AcDbEntity
  8
FORMAT
 62
     7
370
    18
100
AcDbLine
 10
1050.0
 20
319.5915197419
 30
0.0
 11
50.0
 21
319.5915197419
 31
0.0
  0
LINE
  5
174
330
1F
100
AcDbEntity
  8
FORMAT
 62
     7
370
    18
100
AcDbLine
 10
1050.0
 20
319.5915197419
 30
0.0
 11
50.0
 21
319.5915197419
 31
0.0
  0
LINE
  5
175
330
1F
100
AcDbEntity
  8
FORMAT
 62
     7
370
    18
100
AcDbLine
 10
100.0
 20
50.0
 30
0.0
 11
100.0
 21
357.0915197419
 31
0.0
  0
LINE
  5
176
330
1F
100
AcDbEntity
  8
FORMAT
 62
     7
370
    18
100
AcDbLine
 10
850.1385500188
 20
50.0
 30
0.0
 11
850.1385500188
 21
357.0915197419
 31
0.0
  0
LINE
  5
177
330
1F
100
AcDbEntity
  8
FORMAT
 62
     7
370
    18
100
AcDbLine
 10
800.0
 20
50.0
 30
0.0
 11
800.0
 21
357.0915197419
 31
0.0
  0
LINE
  5
178
330
1F
100
AcDbEntity
  8
0
  6
SLD-実線
 62
     7
370
    18
100
AcDbLine
 10
1406.93382059
 20
84.1396749276
 30
0.0
 11
1439.8729235501
 21
89.1396749276
 31
0.0
  0
LINE
  5
179
330
1F
100
AcDbEntity
  8
0
  6
SLD-実線
 62
     7
370
    18
100
AcDbLine
 10
1457.5330450166
 20
74.1396749276
 30
0.0
 11
1343.6351829741
 21
74.1396749276
 31
0.0
  0
LINE
  5
17A
330
1F
100
AcDbEntity
  8
0
  6
SLD-実線
 62
     7
370
    18
100
AcDbLine
 10
1367.8153921083
 20
93.4974407877
 30
0.0
 11
1367.8153921083
 21
53.4974407877
 31
0.0
  0
LINE
  5
17B
330
1F
100
AcDbEntity
  8
0
  6
SLD-実線
 62
     7
370
    18
100
AcDbLine
 10
1406.93382059
 20
64.1396749276
 30
0.0
 11
1440.0713518811
 21
59.1396749276
 31
0.0
  0
LINE
  5
17C
330
1F
100
AcDbEntity
  8
レイヤー_1
 62
     7
370
    25
100
AcDbLine
 10
550.0
 20
1435.0
 30
0.0
 11
550.0
 21
1185.0
 31
0.0
  0
LINE
  5
17D
330
1F
100
AcDbEntity
  8
レイヤー_1
 62
     7
370
    25
100
AcDbLine
 10
50.0
 20
1385.0
 30
0.0
 11
550.0
 21
1385.0
 31
0.0
  0
LINE
  5
17E
330
1F
100
AcDbEntity
  8
0
  6
SLD-実線
 62
     7
370
    18
100
AcDbLine
 10
1406.93382059
 20
84.1396749276
 30
0.0
 11
1406.93382059
 21
64.1396749276
 31
0.0
  0
LINE
  5
17F
330
1F
100
AcDbEntity
  8
0
  6
SLD-実線
 62
     7
370
    18
100
AcDbLine
 10
1440.0713518811
 20
59.1396749276
 30
0.0
 11
1439.8729235501
 21
89.1396749276
 31
0.0
  0
LINE
  5
180
330
1F
100
AcDbEntity
  8
レイヤー_1
 62
     7
370
    25
100
AcDbLine
 10
50.0
 20
1335.0
 30
0.0
 11
550.0
 21
1335.0
 31
0.0
  0
LINE
  5
181
330
1F
100
AcDbEntity
  8
レイヤー_1
 62
     7
370
    25
100
AcDbLine
 10
50.0
 20
1285.0
 30
0.0
 11
550.0
 21
1285.0
 31
0.0
  0
LINE
  5
182
330
1F
100
AcDbEntity
  8
レイヤー_1
 62
     7
370
    25
100
AcDbLine
 10
50.0
 20
1235.0
 30
0.0
 11
550.0
 21
1235.0
 31
0.0
  0
LINE
  5
183
330
1F
100
AcDbEntity
  8
レイヤー_1
 62
     7
370
    25
100
AcDbLine
 10
50.0
 20
1185.0
 30
0.0
 11
550.0
 21
1185.0
 31
0.0
  0
LINE
  5
184
330
1F
100
AcDbEntity
  8
0
  6
SLD-実線
 62
     7
370
    18
100
AcDbLine
 10
1050.0
 20
287.4625055853
 30
0.0
 11
50.0
 21
287.4625055853
 31
0.0
  0
CIRCLE
  5
185
330
1F
100
AcDbEntity
  8
0
  6
SLD-実線
 62
     7
370
    18
100
AcDbCircle
 10
1367.8153921083
 20
74.1396749276
 30
0.0
 40
15.00000000000025
  0
CIRCLE
  5
186
330
1F
100
AcDbEntity
  8
0
  6
SLD-実線
 62
     7
370
    18
100
AcDbCircle
 10
1367.8153921083
 20
74.1396749276
 30
0.0
 40
10.00000000000002
  0
SPLINE
  5
187
330
1F
100
AcDbEntity
  8
0
  6
SLD-実線
 62
   179
370
    18
100
AcDbSpline
210
0.0
220
0.0
230
1.0
 70
     8
 71
     3
 72
     8
 73
     4
 74
     0
 42
0.000000001
 43
0.00000001
 40
0.0
 40
0.0
 40
0.0
 40
0.0
 40
1.0
 40
1.0
 40
1.0
 40
1.0
 10
1795.280538454166
 20
67.30151124354994
 30
0.0
 10
1795.280538454166
 20
65.89701471612321
 30
0.0
 10
1796.312689061547
 20
65.35007135688504
 30
0.0
 10
1797.584549412792
 20
65.35007135688504
 30
0.0
  0
SPLINE
  5
188
330
1F
100
AcDbEntity
  8
0
  6
SLD-実線
 62
   179
370
    18
100
AcDbSpline
210
0.0
220
0.0
230
1.0
 70
     8
 71
     3
 72
     8
 73
     4
 74
     0
 42
0.000000001
 43
0.00000001
 40
1.0
 40
1.0
 40
1.0
 40
1.0
 40
2.0
 40
2.0
 40
2.0
 40
2.0
 10
1797.584549412792
 20
65.35007135688504
 30
0.0
 10
1798.985669746644
 20
65.35007135688504
 30
0.0
 10
1799.503191990437
 20
66.04170872650388
 30
0.0
 10
1799.503191990437
 20
66.72755833570741
 30
0.0
  0
SPLINE
  5
189
330
1F
100
AcDbEntity
  8
0
  6
SLD-実線
 62
   179
370
    18
100
AcDbSpline
210
0.0
220
0.0
230
1.0
 70
     8
 71
     3
 72
     8
 73
     4
 74
     0
 42
0.000000001
 43
0.00000001
 40
2.0
 40
2.0
 40
2.0
 40
2.0
 40
3.0
 40
3.0
 40
3.0
 40
3.0
 10
1799.503191990437
 20
66.72755833570741
 30
0.0
 10
1799.503191990437
 20
67.42594809247736
 30
0.0
 10
1799.123129056505
 20
67.70954835282289
 30
0.0
 10
1798.753435859982
 20
67.8465253493165
 30
0.0
  0
SPLINE
  5
18A
330
1F
100
AcDbEntity
  8
0
  6
SLD-実線
 62
   179
370
    18
100
AcDbSpline
210
0.0
220
0.0
230
1.0
 70
     8
 71
     3
 72
     8
 73
     4
 74
     0
 42
0.000000001
 43
0.00000001
 40
3.0
 40
3.0
 40
3.0
 40
3.0
 40
4.0
 40
4.0
 40
4.0
 40
4.0
 10
1798.753435859982
 20
67.8465253493165
 30
0.0
 10
1798.117987997729
 20
68.08961128675571
 30
0.0
 10
1797.291302885087
 20
68.24877469817434
 30
0.0
 10
1796.04355820224
 20
68.59604032308751
 30
0.0
  0
SPLINE
  5
18B
330
1F
100
AcDbEntity
  8
0
  6
SLD-実線
 62
   179
370
    18
100
AcDbSpline
210
0.0
220
0.0
230
1.0
 70
     8
 71
     3
 72
     8
 73
     4
 74
     0
 42
0.000000001
 43
0.00000001
 40
4.0
 40
4.0
 40
4.0
 40
4.0
 40
5.0
 40
5.0
 40
5.0
 40
5.0
 10
1796.04355820224
 20
68.59604032308751
 30
0.0
 10
1794.493885351064
 20
69.01661757992665
 30
0.0
 10
1794.03592880821
 20
69.96098715434348
 30
0.0
 10
1794.03592880821
 20
70.8966750881372
 30
0.0
  0
SPLINE
  5
18C
330
1F
100
AcDbEntity
  8
0
  6
SLD-実線
 62
   179
370
    18
100
AcDbSpline
210
0.0
220
0.0
230
1.0
 70
     8
 71
     3
 72
     8
 73
     4
 74
     0
 42
0.000000001
 43
0.00000001
 40
5.0
 40
5.0
 40
5.0
 40
5.0
 40
6.0
 40
6.0
 40
6.0
 40
6.0
 10
1794.03592880821
 20
70.8966750881372
 30
0.0
 10
1794.03592880821
 20
72.71692573872383
 30
0.0
 10
1795.71413817194
 20
73.57351428017647
 30
0.0
 10
1797.354727092971
 20
73.57351428017647
 30
0.0
  0
SPLINE
  5
18D
330
1F
100
AcDbEntity
  8
0
  6
SLD-実線
 62
   179
370
    18
100
AcDbSpline
210
0.0
220
0.0
230
1.0
 70
     8
 71
     3
 72
     8
 73
     4
 74
     0
 42
0.000000001
 43
0.00000001
 40
6.0
 40
6.0
 40
6.0
 40
6.0
 40
7.0
 40
7.0
 40
7.0
 40
7.0
 10
1797.354727092971
 20
73.57351428017647
 30
0.0
 10
1799.249977472272
 20
73.57351428017647
 30
0.0
 10
1800.84305852656
 20
72.56355008772064
 30
0.0
 10
1800.84305852656
 20
70.66902317847199
 30
0.0
  0
SPLINE
  5
18E
330
1F
100
AcDbEntity
  8
0
  6
SLD-実線
 62
   179
370
    18
100
AcDbSpline
210
0.0
220
0.0
230
1.0
 70
     8
 71
     3
 72
     8
 73
     4
 74
     0
 42
0.000000001
 43
0.00000001
 40
8.0
 40
8.0
 40
8.0
 40
8.0
 40
9.0
 40
9.0
 40
9.0
 40
9.0
 10
1799.249977472272
 20
70.66902317847199
 30
0.0
 10
1799.172807333402
 20
71.84297391602561
 30
0.0
 10
1798.383983820143
 20
72.27512669369544
 30
0.0
 10
1797.291302885087
 20
72.27512669369544
 30
0.0
  0
SPLINE
  5
18F
330
1F
100
AcDbEntity
  8
0
  6
SLD-実線
 62
   179
370
    18
100
AcDbSpline
210
0.0
220
0.0
230
1.0
 70
     8
 71
     3
 72
     8
 73
     4
 74
     0
 42
0.000000001
 43
0.00000001
 40
9.0
 40
9.0
 40
9.0
 40
9.0
 40
10.0
 40
10.0
 40
10.0
 40
10.0
 10
1797.291302885087
 20
72.27512669369544
 30
0.0
 10
1796.553845745515
 20
72.27512669369544
 30
0.0
 10
1795.625151355556
 20
72.0059958343877
 30
0.0
 10
1795.625151355556
 20
71.09056506204719
 30
0.0
  0
SPLINE
  5
190
330
1F
100
AcDbEntity
  8
0
  6
SLD-実線
 62
   179
370
    18
100
AcDbSpline
210
0.0
220
0.0
230
1.0
 70
     8
 71
     3
 72
     8
 73
     4
 74
     0
 42
0.000000001
 43
0.00000001
 40
10.0
 40
10.0
 40
10.0
 40
10.0
 40
11.0
 40
11.0
 40
11.0
 40
11.0
 10
1795.625151355556
 20
71.09056506204719
 30
0.0
 10
1795.625151355556
 20
70.45391141637303
 30
0.0
 10
1796.058027603278
 20
70.09507027062932
 30
0.0
 10
1796.704809829678
 20
69.91950820470097
 30
0.0
  0
SPLINE
  5
191
330
1F
100
AcDbEntity
  8
0
  6
SLD-実線
 62
   179
370
    18
100
AcDbSpline
210
0.0
220
0.0
230
1.0
 70
     8
 71
     3
 72
     8
 73
     4
 74
     0
 42
0.000000001
 43
0.00000001
 40
11.0
 40
11.0
 40
11.0
 40
11.0
 40
12.0
 40
12.0
 40
12.0
 40
12.0
 10
1796.704809829678
 20
69.91950820470097
 30
0.0
 10
1796.848539213323
 20
69.87995850853044
 30
0.0
 10
1798.855445137301
 20
69.3629185781041
 30
0.0
 10
1799.325459514353
 20
69.22015382119532
 30
0.0
  0
SPLINE
  5
192
330
1F
100
AcDbEntity
  8
0
  6
SLD-実線
 62
   179
370
    18
100
AcDbSpline
210
0.0
220
0.0
230
1.0
 70
     8
 71
     3
 72
     8
 73
     4
 74
     0
 42
0.000000001
 43
0.00000001
 40
12.0
 40
12.0
 40
12.0
 40
12.0
 40
13.0
 40
13.0
 40
13.0
 40
13.0
 10
1799.325459514353
 20
69.22015382119532
 30
0.0
 10
1800.521837823516
 20
68.86324192892346
 30
0.0
 10
1801.093138007835
 20
67.8465253493165
 30
0.0
 10
1801.093138007835
 20
66.90312040163577
 30
0.0
  0
SPLINE
  5
193
330
1F
100
AcDbEntity
  8
0
  6
SLD-実線
 62
   179
370
    18
100
AcDbSpline
210
0.0
220
0.0
230
1.0
 70
     8
 71
     3
 72
     8
 73
     4
 74
     0
 42
0.000000001
 43
0.00000001
 40
13.0
 40
13.0
 40
13.0
 40
13.0
 40
14.0
 40
14.0
 40
14.0
 40
14.0
 10
1801.093138007835
 20
66.90312040163577
 30
0.0
 10
1801.093138007835
 20
64.86872261568597
 30
0.0
 10
1799.287839071654
 20
64.05264839713999
 30
0.0
 10
1797.482540135474
 20
64.05264839713999
 30
0.0
  0
SPLINE
  5
194
330
1F
100
AcDbEntity
  8
0
  6
SLD-実線
 62
   179
370
    18
100
AcDbSpline
210
0.0
220
0.0
230
1.0
 70
     8
 71
     3
 72
     8
 73
     4
 74
     0
 42
0.000000001
 43
0.00000001
 40
14.0
 40
14.0
 40
14.0
 40
14.0
 40
15.0
 40
15.0
 40
15.0
 40
15.0
 10
1797.482540135474
 20
64.05264839713999
 30
0.0
 10
1795.410521906825
 20
64.05264839713999
 30
0.0
 10
1793.728212879468
 20
65.0452493083501
 30
0.0
 10
1793.692039376872
 20
67.30151124354994
 30
0.0
  0
SPLINE
  5
195
330
1F
100
AcDbEntity
  8
0
  6
SLD-実線
 62
   179
370
    18
100
AcDbSpline
210
0.0
220
0.0
230
1.0
 70
     8
 71
     3
 72
    11
 73
     7
 74
     0
 42
0.000000001
 43
0.00000001
 40
2.0
 40
2.0
 40
2.0
 40
2.0
 40
3.0
 40
3.0
 40
3.0
 40
4.0
 40
4.0
 40
4.0
 40
4.0
 10
1815.533841400492
 20
65.35007135688504
 30
0.0
 10
1813.583366140563
 20
65.35007135688504
 30
0.0
 10
1812.772115055697
 20
67.07193008041295
 30
0.0
 10
1812.772115055697
 20
68.81018745845061
 30
0.0
 10
1812.772115055697
 20
70.5542325969035
 30
0.0
 10
1813.583366140563
 20
72.27512669369544
 30
0.0
 10
1815.533841400492
 20
72.27512669369544
 30
0.0
  0
SPLINE
  5
196
330
1F
100
AcDbEntity
  8
0
  6
SLD-実線
 62
   179
370
    18
100
AcDbSpline
210
0.0
220
0.0
230
1.0
 70
     8
 71
     3
 72
    11
 73
     7
 74
     0
 42
0.000000001
 43
0.00000001
 40
0.0
 40
0.0
 40
0.0
 40
0.0
 40
1.0
 40
1.0
 40
1.0
 40
2.0
 40
2.0
 40
2.0
 40
2.0
 10
1815.533841400492
 20
72.27512669369544
 30
0.0
 10
1817.47997584011
 20
72.27512669369544
 30
0.0
 10
1818.291226924977
 20
70.5542325969035
 30
0.0
 10
1818.291226924977
 20
68.81018745845061
 30
0.0
 10
1818.291226924977
 20
67.07193008041295
 30
0.0
 10
1817.47997584011
 20
65.35007135688504
 30
0.0
 10
1815.533841400492
 20
65.35007135688504
 30
0.0
  0
SPLINE
  5
197
330
1F
100
AcDbEntity
  8
0
  6
SLD-実線
 62
   179
370
    18
100
AcDbSpline
210
0.0
220
0.0
230
1.0
 70
     8
 71
     3
 72
    11
 73
     7
 74
     0
 42
0.000000001
 43
0.00000001
 40
2.0
 40
2.0
 40
2.0
 40
2.0
 40
3.0
 40
3.0
 40
3.0
 40
4.0
 40
4.0
 40
4.0
 40
4.0
 10
1815.533841400492
 20
64.05264839713999
 30
0.0
 10
1818.254088795646
 20
64.05264839713999
 30
0.0
 10
1819.88334335253
 20
66.22016467263985
 30
0.0
 10
1819.88334335253
 20
68.81018745845061
 30
0.0
 10
1819.88334335253
 20
71.40696263141238
 30
0.0
 10
1818.254088795646
 20
73.57351428017647
 30
0.0
 10
1815.533841400492
 20
73.57351428017647
 30
0.0
  0
SPLINE
  5
198
330
1F
100
AcDbEntity
  8
0
  6
SLD-実線
 62
   179
370
    18
100
AcDbSpline
210
0.0
220
0.0
230
1.0
 70
     8
 71
     3
 72
    11
 73
     7
 74
     0
 42
0.000000001
 43
0.00000001
 40
0.0
 40
0.0
 40
0.0
 40
0.0
 40
1.0
 40
1.0
 40
1.0
 40
2.0
 40
2.0
 40
2.0
 40
2.0
 10
1815.533841400492
 20
73.57351428017647
 30
0.0
 10
1812.808770871659
 20
73.57351428017647
 30
0.0
 10
1811.183857135086
 20
71.40696263141238
 30
0.0
 10
1811.183857135086
 20
68.81018745845061
 30
0.0
 10
1811.183857135086
 20
66.22016467263985
 30
0.0
 10
1812.808770871659
 20
64.05264839713999
 30
0.0
 10
1815.533841400492
 20
64.05264839713999
 30
0.0
  0
SPLINE
  5
199
330
1F
100
AcDbEntity
  8
0
  6
SLD-実線
 62
   179
370
    18
100
AcDbSpline
210
0.0
220
0.0
230
1.0
 70
     8
 71
     3
 72
     8
 73
     4
 74
     0
 42
0.000000001
 43
0.00000001
 40
1.0
 40
1.0
 40
1.0
 40
1.0
 40
2.0
 40
2.0
 40
2.0
 40
2.0
 10
1828.026239943376
 20
72.05519179791702
 30
0.0
 10
1830.515941548656
 20
72.05519179791702
 30
0.0
 10
1831.052756327168
 20
70.63333198924471
 30
0.0
 10
1831.052756327168
 20
68.81018745845061
 30
0.0
  0
SPLINE
  5
19A
330
1F
100
AcDbEntity
  8
0
  6
SLD-実線
 62
   179
370
    18
100
AcDbSpline
210
0.0
220
0.0
230
1.0
 70
     8
 71
     3
 72
     8
 73
     4
 74
     0
 42
0.000000001
 43
0.00000001
 40
2.0
 40
2.0
 40
2.0
 40
2.0
 40
3.0
 40
3.0
 40
3.0
 40
3.0
 10
1831.052756327168
 20
68.81018745845061
 30
0.0
 10
1831.052756327168
 20
66.99668919501508
 30
0.0
 10
1830.515941548656
 20
65.57000625266338
 30
0.0
 10
1828.026239943376
 20
65.57000625266338
 30
0.0
  0
SPLINE
  5
19B
330
1F
100
AcDbEntity
  8
0
  6
SLD-実線
 62
   179
370
    18
100
AcDbSpline
210
0.0
220
0.0
230
1.0
 70
     8
 71
     3
 72
     8
 73
     4
 74
     0
 42
0.000000001
 43
0.00000001
 40
1.0
 40
1.0
 40
1.0
 40
1.0
 40
2.0
 40
2.0
 40
2.0
 40
2.0
 10
1828.632990160238
 20
64.27161866618249
 30
0.0
 10
1831.434266201204
 20
64.27161866618249
 30
0.0
 10
1832.643425814618
 20
66.3050518253963
 30
0.0
 10
1832.643425814618
 20
68.81018745845061
 30
0.0
  0
SPLINE
  5
19C
330
1F
100
AcDbEntity
  8
0
  6
SLD-実線
 62
   179
370
    18
100
AcDbSpline
210
0.0
220
0.0
230
1.0
 70
     8
 71
     3
 72
     8
 73
     4
 74
     0
 42
0.000000001
 43
0.00000001
 40
2.0
 40
2.0
 40
2.0
 40
2.0
 40
3.0
 40
3.0
 40
3.0
 40
3.0
 10
1832.643425814618
 20
68.81018745845061
 30
0.0
 10
1832.643425814618
 20
71.31918159844825
 30
0.0
 10
1831.434266201204
 20
73.35165013092627
 30
0.0
 10
1828.632990160238
 20
73.35165013092627
 30
0.0
  0
SPLINE
  5
19D
330
1F
100
AcDbEntity
  8
0
  6
SLD-実線
 62
   179
370
    18
100
AcDbSpline
210
0.0
220
0.0
230
1.0
 70
     8
 71
     3
 72
     8
 73
     4
 74
     0
 42
0.000000001
 43
0.00000001
 40
2.0
 40
2.0
 40
2.0
 40
2.0
 40
3.0
 40
3.0
 40
3.0
 40
3.0
 10
1844.257531714492
 20
65.33946046279056
 30
0.0
 10
1843.404319366615
 20
64.37386910018479
 30
0.0
 10
1842.623936337296
 20
64.05264839713999
 30
0.0
 10
1841.522332604933
 20
64.05264839713999
 30
0.0
  0
SPLINE
  5
19E
330
1F
100
AcDbEntity
  8
0
  6
SLD-実線
 62
   179
370
    18
100
AcDbSpline
210
0.0
220
0.0
230
1.0
 70
     8
 71
     3
 72
     8
 73
     4
 74
     0
 42
0.000000001
 43
0.00000001
 40
3.0
 40
3.0
 40
3.0
 40
3.0
 40
4.0
 40
4.0
 40
4.0
 40
4.0
 10
1841.522332604933
 20
64.05264839713999
 30
0.0
 10
1838.7972620761
 20
64.05264839713999
 30
0.0
 10
1837.169936772687
 20
66.22016467263985
 30
0.0
 10
1837.169936772687
 20
68.81018745845061
 30
0.0
  0
SPLINE
  5
19F
330
1F
100
AcDbEntity
  8
0
  6
SLD-実線
 62
   179
370
    18
100
AcDbSpline
210
0.0
220
0.0
230
1.0
 70
     8
 71
     3
 72
     8
 73
     4
 74
     0
 42
0.000000001
 43
0.00000001
 40
4.0
 40
4.0
 40
4.0
 40
4.0
 40
5.0
 40
5.0
 40
5.0
 40
5.0
 10
1837.169936772687
 20
68.81018745845061
 30
0.0
 10
1837.169936772687
 20
71.40696263141238
 30
0.0
 10
1838.7972620761
 20
73.57351428017647
 30
0.0
 10
1841.522332604933
 20
73.57351428017647
 30
0.0
  0
SPLINE
  5
1A0
330
1F
100
AcDbEntity
  8
0
  6
SLD-実線
 62
   179
370
    18
100
AcDbSpline
210
0.0
220
0.0
230
1.0
 70
     8
 71
     3
 72
     8
 73
     4
 74
     0
 42
0.000000001
 43
0.00000001
 40
5.0
 40
5.0
 40
5.0
 40
5.0
 40
6.0
 40
6.0
 40
6.0
 40
6.0
 10
1841.522332604933
 20
73.57351428017647
 30
0.0
 10
1843.503675920409
 20
73.57351428017647
 30
0.0
 10
1845.173927113568
 20
72.51917725787065
 30
0.0
 10
1845.415083797536
 20
70.46645156393922
 30
0.0
  0
SPLINE
  5
1A1
330
1F
100
AcDbEntity
  8
0
  6
SLD-実線
 62
   179
370
    18
100
AcDbSpline
210
0.0
220
0.0
230
1.0
 70
     8
 71
     3
 72
     8
 73
     4
 74
     0
 42
0.000000001
 43
0.00000001
 40
7.0
 40
7.0
 40
7.0
 40
7.0
 40
8.0
 40
8.0
 40
8.0
 40
8.0
 10
1843.86107012605
 20
70.46645156393922
 30
0.0
 10
1843.710106041885
 20
71.66451796988972
 30
0.0
 10
1842.66493297357
 20
72.27512669369544
 30
0.0
 10
1841.522332604933
 20
72.27512669369544
 30
0.0
  0
SPLINE
  5
1A2
330
1F
100
AcDbEntity
  8
0
  6
SLD-実線
 62
   179
370
    18
100
AcDbSpline
210
0.0
220
0.0
230
1.0
 70
     8
 71
     3
 72
     8
 73
     4
 74
     0
 42
0.000000001
 43
0.00000001
 40
8.0
 40
8.0
 40
8.0
 40
8.0
 40
9.0
 40
9.0
 40
9.0
 40
9.0
 10
1841.522332604933
 20
72.27512669369544
 30
0.0
 10
1839.575233538579
 20
72.27512669369544
 30
0.0
 10
1838.760606260137
 20
70.5542325969035
 30
0.0
 10
1838.760606260137
 20
68.81018745845061
 30
0.0
  0
SPLINE
  5
1A3
330
1F
100
AcDbEntity
  8
0
  6
SLD-実線
 62
   179
370
    18
100
AcDbSpline
210
0.0
220
0.0
230
1.0
 70
     8
 71
     3
 72
     8
 73
     4
 74
     0
 42
0.000000001
 43
0.00000001
 40
9.0
 40
9.0
 40
9.0
 40
9.0
 40
10.0
 40
10.0
 40
10.0
 40
10.0
 10
1838.760606260137
 20
68.81018745845061
 30
0.0
 10
1838.760606260137
 20
67.07193008041295
 30
0.0
 10
1839.575233538579
 20
65.35007135688504
 30
0.0
 10
1841.522332604933
 20
65.35007135688504
 30
0.0
  0
SPLINE
  5
1A4
330
1F
100
AcDbEntity
  8
0
  6
SLD-実線
 62
   179
370
    18
100
AcDbSpline
210
0.0
220
0.0
230
1.0
 70
     8
 71
     3
 72
     8
 73
     4
 74
     0
 42
0.000000001
 43
0.00000001
 40
10.0
 40
10.0
 40
10.0
 40
10.0
 40
11.0
 40
11.0
 40
11.0
 40
11.0
 10
1841.522332604933
 20
65.35007135688504
 30
0.0
 10
1843.151587161817
 20
65.33077882216769
 30
0.0
 10
1844.040490698921
 20
66.3050518253963
 30
0.0
 10
1844.067017934157
 20
67.8465253493165
 30
0.0
  0
SPLINE
  5
1A5
330
1F
100
AcDbEntity
  8
0
  6
SLD-実線
 62
   179
370
    18
100
AcDbSpline
210
0.0
220
0.0
230
1.0
 70
     8
 71
     3
 72
     8
 73
     4
 74
     0
 42
0.000000001
 43
0.00000001
 40
0.0
 40
0.0
 40
0.0
 40
0.0
 40
1.0
 40
1.0
 40
1.0
 40
1.0
 10
1872.473828365424
 20
70.46645156393922
 30
0.0
 10
1872.206144446219
 20
71.51114231888653
 30
0.0
 10
1871.531870357847
 20
72.27512669369544
 30
0.0
 10
1870.208884789601
 20
72.27512669369544
 30
0.0
  0
SPLINE
  5
1A6
330
1F
100
AcDbEntity
  8
0
  6
SLD-実線
 62
   179
370
    18
100
AcDbSpline
210
0.0
220
0.0
230
1.0
 70
     8
 71
     3
 72
     8
 73
     4
 74
     0
 42
0.000000001
 43
0.00000001
 40
1.0
 40
1.0
 40
1.0
 40
1.0
 40
2.0
 40
2.0
 40
2.0
 40
2.0
 10
1870.208884789601
 20
72.27512669369544
 30
0.0
 10
1868.264679603456
 20
72.27512669369544
 30
0.0
 10
1867.44860538491
 20
70.5542325969035
 30
0.0
 10
1867.44860538491
 20
68.81018745845061
 30
0.0
  0
SPLINE
  5
1A7
330
1F
100
AcDbEntity
  8
0
  6
SLD-実線
 62
   179
370
    18
100
AcDbSpline
210
0.0
220
0.0
230
1.0
 70
     8
 71
     3
 72
     8
 73
     4
 74
     0
 42
0.000000001
 43
0.00000001
 40
2.0
 40
2.0
 40
2.0
 40
2.0
 40
3.0
 40
3.0
 40
3.0
 40
3.0
 10
1867.44860538491
 20
68.81018745845061
 30
0.0
 10
1867.44860538491
 20
67.07193008041295
 30
0.0
 10
1868.264679603456
 20
65.35007135688504
 30
0.0
 10
1870.208884789601
 20
65.35007135688504
 30
0.0
  0
SPLINE
  5
1A8
330
1F
100
AcDbEntity
  8
0
  6
SLD-実線
 62
   179
370
    18
100
AcDbSpline
210
0.0
220
0.0
230
1.0
 70
     8
 71
     3
 72
     8
 73
     4
 74
     0
 42
0.000000001
 43
0.00000001
 40
3.0
 40
3.0
 40
3.0
 40
3.0
 40
4.0
 40
4.0
 40
4.0
 40
4.0
 10
1870.208884789601
 20
65.35007135688504
 30
0.0
 10
1871.620616017547
 20
65.35007135688504
 30
0.0
 10
1872.392317406243
 20
66.4092315128703
 30
0.0
 10
1872.524471269057
 20
67.731734767748
 30
0.0
  0
SPLINE
  5
1A9
330
1F
100
AcDbEntity
  8
0
  6
SLD-実線
 62
   179
370
    18
100
AcDbSpline
210
0.0
220
0.0
230
1.0
 70
     8
 71
     3
 72
     8
 73
     4
 74
     0
 42
0.000000001
 43
0.00000001
 40
5.0
 40
5.0
 40
5.0
 40
5.0
 40
6.0
 40
6.0
 40
6.0
 40
6.0
 10
1874.0746264336
 20
67.731734767748
 30
0.0
 10
1873.942954884154
 20
65.55939535856889
 30
0.0
 10
1872.410163000856
 20
64.05264839713999
 30
0.0
 10
1870.208884789601
 20
64.05264839713999
 30
0.0
  0
SPLINE
  5
1AA
330
1F
100
AcDbEntity
  8
0
  6
SLD-実線
 62
   179
370
    18
100
AcDbSpline
210
0.0
220
0.0
230
1.0
 70
     8
 71
     3
 72
     8
 73
     4
 74
     0
 42
0.000000001
 43
0.00000001
 40
6.0
 40
6.0
 40
6.0
 40
6.0
 40
7.0
 40
7.0
 40
7.0
 40
7.0
 10
1870.208884789601
 20
64.05264839713999
 30
0.0
 10
1867.485261200872
 20
64.05264839713999
 30
0.0
 10
1865.856006643988
 20
66.22016467263985
 30
0.0
 10
1865.856006643988
 20
68.81018745845061
 30
0.0
  0
SPLINE
  5
1AB
330
1F
100
AcDbEntity
  8
0
  6
SLD-実線
 62
   179
370
    18
100
AcDbSpline
210
0.0
220
0.0
230
1.0
 70
     8
 71
     3
 72
     8
 73
     4
 74
     0
 42
0.000000001
 43
0.00000001
 40
7.0
 40
7.0
 40
7.0
 40
7.0
 40
8.0
 40
8.0
 40
8.0
 40
8.0
 10
1865.856006643988
 20
68.81018745845061
 30
0.0
 10
1865.856006643988
 20
71.40696263141238
 30
0.0
 10
1867.485261200872
 20
73.57351428017647
 30
0.0
 10
1870.208884789601
 20
73.57351428017647
 30
0.0
  0
SPLINE
  5
1AC
330
1F
100
AcDbEntity
  8
0
  6
SLD-実線
 62
   179
370
    18
100
AcDbSpline
210
0.0
220
0.0
230
1.0
 70
     8
 71
     3
 72
     8
 73
     4
 74
     0
 42
0.000000001
 43
0.00000001
 40
8.0
 40
8.0
 40
8.0
 40
8.0
 40
9.0
 40
9.0
 40
9.0
 40
9.0
 10
1870.208884789601
 20
73.57351428017647
 30
0.0
 10
1872.259198916693
 20
73.55904487913851
 30
0.0
 10
1873.872537132435
 20
72.42850234469876
 30
0.0
 10
1874.065944792977
 20
70.46645156393922
 30
0.0
  0
SPLINE
  5
1AD
330
1F
100
AcDbEntity
  8
0
  6
SLD-実線
 62
   179
370
    18
100
AcDbSpline
210
0.0
220
0.0
230
1.0
 70
     8
 71
     3
 72
     8
 73
     4
 74
     0
 42
0.000000001
 43
0.00000001
 40
0.0
 40
0.0
 40
0.0
 40
0.0
 40
1.0
 40
1.0
 40
1.0
 40
1.0
 10
1885.190502624398
 20
70.46645156393922
 30
0.0
 10
1884.927159525505
 20
71.51114231888653
 30
0.0
 10
1884.253367750499
 20
72.27512669369544
 30
0.0
 10
1882.928452928782
 20
72.27512669369544
 30
0.0
  0
SPLINE
  5
1AE
330
1F
100
AcDbEntity
  8
0
  6
SLD-実線
 62
   179
370
    18
100
AcDbSpline
210
0.0
220
0.0
230
1.0
 70
     8
 71
     3
 72
     8
 73
     4
 74
     0
 42
0.000000001
 43
0.00000001
 40
1.0
 40
1.0
 40
1.0
 40
1.0
 40
2.0
 40
2.0
 40
2.0
 40
2.0
 10
1882.928452928782
 20
72.27512669369544
 30
0.0
 10
1880.982318489165
 20
72.27512669369544
 30
0.0
 10
1880.167691210723
 20
70.5542325969035
 30
0.0
 10
1880.167691210723
 20
68.81018745845061
 30
0.0
  0
SPLINE
  5
1AF
330
1F
100
AcDbEntity
  8
0
  6
SLD-実線
 62
   179
370
    18
100
AcDbSpline
210
0.0
220
0.0
230
1.0
 70
     8
 71
     3
 72
     8
 73
     4
 74
     0
 42
0.000000001
 43
0.00000001
 40
2.0
 40
2.0
 40
2.0
 40
2.0
 40
3.0
 40
3.0
 40
3.0
 40
3.0
 10
1880.167691210723
 20
68.81018745845061
 30
0.0
 10
1880.167691210723
 20
67.07193008041295
 30
0.0
 10
1880.982318489165
 20
65.35007135688504
 30
0.0
 10
1882.928452928782
 20
65.35007135688504
 30
0.0
  0
SPLINE
  5
1B0
330
1F
100
AcDbEntity
  8
0
  6
SLD-実線
 62
   179
370
    18
100
AcDbSpline
210
0.0
220
0.0
230
1.0
 70
     8
 71
     3
 72
     8
 73
     4
 74
     0
 42
0.000000001
 43
0.00000001
 40
3.0
 40
3.0
 40
3.0
 40
3.0
 40
4.0
 40
4.0
 40
4.0
 40
4.0
 10
1882.928452928782
 20
65.35007135688504
 30
0.0
 10
1884.339219529993
 20
65.35007135688504
 30
0.0
 10
1885.116708679104
 20
66.4092315128703
 30
0.0
 10
1885.24355709487
 20
67.731734767748
 30
0.0
  0
SPLINE
  5
1B1
330
1F
100
AcDbEntity
  8
0
  6
SLD-実線
 62
   179
370
    18
100
AcDbSpline
210
0.0
220
0.0
230
1.0
 70
     8
 71
     3
 72
     8
 73
     4
 74
     0
 42
0.000000001
 43
0.00000001
 40
5.0
 40
5.0
 40
5.0
 40
5.0
 40
6.0
 40
6.0
 40
6.0
 40
6.0
 10
1886.79901770646
 20
67.731734767748
 30
0.0
 10
1886.668793097118
 20
65.55939535856889
 30
0.0
 10
1885.129731140038
 20
64.05264839713999
 30
0.0
 10
1882.928452928782
 20
64.05264839713999
 30
0.0
  0
SPLINE
  5
1B2
330
1F
100
AcDbEntity
  8
0
  6
SLD-実線
 62
   161
370
    18
100
AcDbSpline
210
0.0
220
0.0
230
1.0
 70
     8
 71
     3
 72
     8
 73
     4
 74
     0
 42
0.000000001
 43
0.00000001
 40
3.0
 40
3.0
 40
3.0
 40
3.0
 40
4.0
 40
4.0
 40
4.0
 40
4.0
 10
1703.804617034883
 20
68.34827445361574
 30
0.0
 10
1696.927069564815
 20
73.88330266403752
 30
0.0
 10
1692.524754298988
 20
82.37032984290535
 30
0.0
 10
1692.524754298988
 20
91.89312497941366
 30
0.0
  0
SPLINE
  5
1B3
330
1F
100
AcDbEntity
  8
0
  6
SLD-実線
 62
   161
370
    18
100
AcDbSpline
210
0.0
220
0.0
230
1.0
 70
     8
 71
     3
 72
    11
 73
     7
 74
     0
 42
0.000000001
 43
0.00000001
 40
1.0
 40
1.0
 40
1.0
 40
1.0
 40
2.0
 40
2.0
 40
2.0
 40
3.0
 40
3.0
 40
3.0
 40
3.0
 10
1703.804617034883
 20
115.4350816250038
 30
0.0
 10
1693.547017482327
 20
112.5257673896201
 30
0.0
 10
1686.027993232904
 20
103.0890651892882
 30
0.0
 10
1686.027993232904
 20
91.89312497941366
 30
0.0
 10
1686.027993232904
 20
80.69573782943503
 30
0.0
 10
1693.547017482327
 20
71.25758868899953
 30
0.0
 10
1703.804617034883
 20
68.34827445361574
 30
0.0
  0
SPLINE
  5
1B4
330
1F
100
AcDbEntity
  8
0
  6
SLD-実線
 62
   161
370
    18
100
AcDbSpline
210
0.0
220
0.0
230
1.0
 70
     8
 71
     3
 72
     8
 73
     4
 74
     0
 42
0.000000001
 43
0.00000001
 40
0.0
 40
0.0
 40
0.0
 40
0.0
 40
1.0
 40
1.0
 40
1.0
 40
1.0
 10
1692.524754298988
 20
91.89312497941366
 30
0.0
 10
1692.524754298988
 20
101.4139908624501
 30
0.0
 10
1696.927069564815
 20
109.8978830044263
 30
0.0
 10
1703.804617034883
 20
115.4350816250038
 30
0.0
  0
SPLINE
  5
1B5
330
1F
100
AcDbEntity
  8
0
  6
SLD-実線
 62
   161
370
    18
100
AcDbSpline
210
0.0
220
0.0
230
1.0
 70
     8
 71
     3
 72
    14
 73
    10
 74
     0
 42
0.000000001
 43
0.00000001
 40
5.0
 40
5.0
 40
5.0
 40
5.0
 40
6.0
 40
6.0
 40
6.0
 40
7.0
 40
7.0
 40
7.0
 40
8.0
 40
8.0
 40
8.0
 40
8.0
 10
1703.804617034883
 20
68.34827445361574
 30
0.0
 10
1708.988038800081
 20
64.17722844771392
 30
0.0
 10
1715.570410488974
 20
61.68270370875431
 30
0.0
 10
1722.737587136487
 20
61.68270370875431
 30
0.0
 10
1739.419841906622
 20
61.68270370875432
 30
0.0
 10
1752.949455347251
 20
75.20580591891516
 30
0.0
 10
1752.94945534725
 20
91.89312497941359
 30
0.0
 10
1752.94945534725
 20
108.5732093393929
 30
0.0
 10
1739.419841906622
 20
122.1016169966009
 30
0.0
 10
1722.737587136487
 20
122.1016169966009
 30
0.0
  0
SPLINE
  5
1B6
330
1F
100
AcDbEntity
  8
0
  6
SLD-実線
 62
   161
370
    18
100
AcDbSpline
210
0.0
220
0.0
230
1.0
 70
     8
 71
     3
 72
    17
 73
    13
 74
     0
 42
0.000000001
 43
0.00000001
 40
1.0
 40
1.0
 40
1.0
 40
1.0
 40
2.0
 40
2.0
 40
2.0
 40
3.0
 40
3.0
 40
3.0
 40
4.0
 40
4.0
 40
4.0
 40
5.0
 40
5.0
 40
5.0
 40
5.0
 10
1703.804617034883
 20
115.4350816250038
 30
0.0
 10
1705.933548240949
 20
116.0394202750264
 30
0.0
 10
1708.180646222158
 20
116.3649817983825
 30
0.0
 10
1710.500573521925
 20
116.3649817983825
 30
0.0
 10
1724.014511778095
 20
116.3649817983825
 30
0.0
 10
1734.972430340894
 20
105.4080278623195
 30
0.0
 10
1734.972430340894
 20
91.89312497941366
 30
0.0
 10
1734.972430340894
 20
78.37484590293201
 30
0.0
 10
1724.014511778095
 20
67.4222327871806
 30
0.0
 10
1710.500573521925
 20
67.4222327871806
 30
0.0
 10
1708.180646222158
 20
67.4222327871806
 30
0.0
 10
1705.933548240949
 20
67.74248886348941
 30
0.0
 10
1703.804617034883
 20
68.34827445361574
 30
0.0
  0
SPLINE
  5
1B7
330
1F
100
AcDbEntity
  8
0
  6
SLD-実線
 62
   161
370
    18
100
AcDbSpline
210
0.0
220
0.0
230
1.0
 70
     8
 71
     3
 72
     8
 73
     4
 74
     0
 42
0.000000001
 43
0.00000001
 40
0.0
 40
0.0
 40
0.0
 40
0.0
 40
1.0
 40
1.0
 40
1.0
 40
1.0
 10
1722.737587136487
 20
122.1016169966009
 30
0.0
 10
1715.570410488974
 20
122.1016169966009
 30
0.0
 10
1708.988038800081
 20
119.6051630041696
 30
0.0
 10
1703.804617034883
 20
115.4350816250038
 30
0.0
  0
SPLINE
  5
1B8
330
1F
100
AcDbEntity
  8
0
  6
SLD-実線
 62
   179
370
    18
100
AcDbSpline
210
0.0
220
0.0
230
1.0
 70
     8
 71
     3
 72
     8
 73
     4
 74
     0
 42
0.000000001
 43
0.00000001
 40
6.0
 40
6.0
 40
6.0
 40
6.0
 40
7.0
 40
7.0
 40
7.0
 40
7.0
 10
1882.928452928782
 20
64.05264839713999
 30
0.0
 10
1880.206276280158
 20
64.05264839713999
 30
0.0
 10
1878.578468663377
 20
66.22016467263985
 30
0.0
 10
1878.578468663377
 20
68.81018745845061
 30
0.0
  0
SPLINE
  5
1B9
330
1F
100
AcDbEntity
  8
0
  6
SLD-実線
 62
   179
370
    18
100
AcDbSpline
210
0.0
220
0.0
230
1.0
 70
     8
 71
     3
 72
     8
 73
     4
 74
     0
 42
0.000000001
 43
0.00000001
 40
7.0
 40
7.0
 40
7.0
 40
7.0
 40
8.0
 40
8.0
 40
8.0
 40
8.0
 10
1878.578468663377
 20
68.81018745845061
 30
0.0
 10
1878.578468663377
 20
71.40696263141238
 30
0.0
 10
1880.206276280158
 20
73.57351428017647
 30
0.0
 10
1882.928452928782
 20
73.57351428017647
 30
0.0
  0
SPLINE
  5
1BA
330
1F
100
AcDbEntity
  8
0
  6
SLD-実線
 62
   179
370
    18
100
AcDbSpline
210
0.0
220
0.0
230
1.0
 70
     8
 71
     3
 72
     8
 73
     4
 74
     0
 42
0.000000001
 43
0.00000001
 40
8.0
 40
8.0
 40
8.0
 40
8.0
 40
9.0
 40
9.0
 40
9.0
 40
9.0
 10
1882.928452928782
 20
73.57351428017647
 30
0.0
 10
1884.979249369242
 20
73.55904487913851
 30
0.0
 10
1886.59114064488
 20
72.42850234469876
 30
0.0
 10
1886.783101365318
 20
70.46645156393922
 30
0.0
  0
SPLINE
  5
1BB
330
1F
100
AcDbEntity
  8
0
  6
SLD-実線
 62
   179
370
    18
100
AcDbSpline
210
0.0
220
0.0
230
1.0
 70
     8
 71
     3
 72
    11
 73
     7
 74
     0
 42
0.000000001
 43
0.00000001
 40
2.0
 40
2.0
 40
2.0
 40
2.0
 40
3.0
 40
3.0
 40
3.0
 40
4.0
 40
4.0
 40
4.0
 40
4.0
 10
1892.114593334472
 20
65.35007135688504
 30
0.0
 10
1890.16701195475
 20
65.35007135688504
 30
0.0
 10
1889.352384676308
 20
67.07193008041295
 30
0.0
 10
1889.352384676308
 20
68.81018745845061
 30
0.0
 10
1889.352384676308
 20
70.5542325969035
 30
0.0
 10
1890.16701195475
 20
72.27512669369544
 30
0.0
 10
1892.114593334472
 20
72.27512669369544
 30
0.0
  0
SPLINE
  5
1BC
330
1F
100
AcDbEntity
  8
0
  6
SLD-実線
 62
   179
370
    18
100
AcDbSpline
210
0.0
220
0.0
230
1.0
 70
     8
 71
     3
 72
    11
 73
     7
 74
     0
 42
0.000000001
 43
0.00000001
 40
0.0
 40
0.0
 40
0.0
 40
0.0
 40
1.0
 40
1.0
 40
1.0
 40
2.0
 40
2.0
 40
2.0
 40
2.0
 10
1892.114593334472
 20
72.27512669369544
 30
0.0
 10
1894.058798520617
 20
72.27512669369544
 30
0.0
 10
1894.874872739164
 20
70.5542325969035
 30
0.0
 10
1894.874872739164
 20
68.81018745845061
 30
0.0
 10
1894.874872739164
 20
67.07193008041295
 30
0.0
 10
1894.058798520617
 20
65.35007135688504
 30
0.0
 10
1892.114593334472
 20
65.35007135688504
 30
0.0
  0
SPLINE
  5
1BD
330
1F
100
AcDbEntity
  8
0
  6
SLD-実線
 62
   179
370
    18
100
AcDbSpline
210
0.0
220
0.0
230
1.0
 70
     8
 71
     3
 72
    11
 73
     7
 74
     0
 42
0.000000001
 43
0.00000001
 40
2.0
 40
2.0
 40
2.0
 40
2.0
 40
3.0
 40
3.0
 40
3.0
 40
4.0
 40
4.0
 40
4.0
 40
4.0
 10
1892.114593334472
 20
64.05264839713999
 30
0.0
 10
1894.836287669729
 20
64.05264839713999
 30
0.0
 10
1896.460236779566
 20
66.22016467263985
 30
0.0
 10
1896.460236779566
 20
68.81018745845061
 30
0.0
 10
1896.460236779566
 20
71.40696263141238
 30
0.0
 10
1894.836287669729
 20
73.57351428017647
 30
0.0
 10
1892.114593334472
 20
73.57351428017647
 30
0.0
  0
SPLINE
  5
1BE
330
1F
100
AcDbEntity
  8
0
  6
SLD-実線
 62
   179
370
    18
100
AcDbSpline
210
0.0
220
0.0
230
1.0
 70
     8
 71
     3
 72
    11
 73
     7
 74
     0
 42
0.000000001
 43
0.00000001
 40
0.0
 40
0.0
 40
0.0
 40
0.0
 40
1.0
 40
1.0
 40
1.0
 40
2.0
 40
2.0
 40
2.0
 40
2.0
 10
1892.114593334472
 20
73.57351428017647
 30
0.0
 10
1889.389522805639
 20
73.57351428017647
 30
0.0
 10
1887.757374368548
 20
71.40696263141238
 30
0.0
 10
1887.757374368548
 20
68.81018745845061
 30
0.0
 10
1887.757374368548
 20
66.22016467263985
 30
0.0
 10
1889.389522805639
 20
64.05264839713999
 30
0.0
 10
1892.114593334472
 20
64.05264839713999
 30
0.0
  0
SPLINE
  5
1BF
330
1F
100
AcDbEntity
  8
0
  6
SLD-実線
 62
   179
370
    18
100
AcDbSpline
210
0.0
220
0.0
230
1.0
 70
     8
 71
     3
 72
     8
 73
     4
 74
     0
 42
0.000000001
 43
0.00000001
 40
2.0
 40
2.0
 40
2.0
 40
2.0
 40
3.0
 40
3.0
 40
3.0
 40
3.0
 10
1903.130630658107
 20
64.27161866618249
 30
0.0
 10
1903.119537450644
 20
63.22789253797131
 30
0.0
 10
1902.41970075377
 20
62.46776667010553
 30
0.0
 10
1901.413112754891
 20
62.26230117536534
 30
0.0
  0
SPLINE
  5
1C0
330
1F
100
AcDbEntity
  8
0
  6
SLD-実線
 62
   179
370
    18
100
AcDbSpline
210
0.0
220
0.0
230
1.0
 70
     8
 71
     3
 72
     8
 73
     4
 74
     0
 42
0.000000001
 43
0.00000001
 40
4.0
 40
4.0
 40
4.0
 40
4.0
 40
5.0
 40
5.0
 40
5.0
 40
5.0
 10
1901.413112754891
 20
63.03593181753288
 30
0.0
 10
1901.970667008223
 20
63.17676732097001
 30
0.0
 10
1902.252338015097
 20
63.72756918715179
 30
0.0
 10
1902.242209434371
 20
64.27161866618249
 30
0.0
  0
SPLINE
  5
1C1
330
1F
100
AcDbEntity
  8
0
  6
SLD-実線
 62
   179
370
    18
100
AcDbSpline
210
0.0
220
0.0
230
1.0
 70
     8
 71
     3
 72
     8
 73
     4
 74
     0
 42
0.000000001
 43
0.00000001
 40
1.0
 40
1.0
 40
1.0
 40
1.0
 40
2.0
 40
2.0
 40
2.0
 40
2.0
 10
1921.822685232426
 20
72.05519179791702
 30
0.0
 10
1924.312386837707
 20
72.05519179791702
 30
0.0
 10
1924.843413855804
 20
70.63333198924471
 30
0.0
 10
1924.843413855804
 20
68.81018745845061
 30
0.0
  0
SPLINE
  5
1C2
330
1F
100
AcDbEntity
  8
0
  6
SLD-実線
 62
   179
370
    18
100
AcDbSpline
210
0.0
220
0.0
230
1.0
 70
     8
 71
     3
 72
     8
 73
     4
 74
     0
 42
0.000000001
 43
0.00000001
 40
2.0
 40
2.0
 40
2.0
 40
2.0
 40
3.0
 40
3.0
 40
3.0
 40
3.0
 10
1924.843413855804
 20
68.81018745845061
 30
0.0
 10
1924.843413855804
 20
66.99668919501508
 30
0.0
 10
1924.312386837707
 20
65.57000625266338
 30
0.0
 10
1921.822685232426
 20
65.57000625266338
 30
0.0
  0
SPLINE
  5
1C3
330
1F
100
AcDbEntity
  8
0
  6
SLD-実線
 62
   179
370
    18
100
AcDbSpline
210
0.0
220
0.0
230
1.0
 70
     8
 71
     3
 72
     8
 73
     4
 74
     0
 42
0.000000001
 43
0.00000001
 40
1.0
 40
1.0
 40
1.0
 40
1.0
 40
2.0
 40
2.0
 40
2.0
 40
2.0
 10
1922.429917762657
 20
64.27161866618249
 30
0.0
 10
1925.230711490256
 20
64.27161866618249
 30
0.0
 10
1926.441318043773
 20
66.3050518253963
 30
0.0
 10
1926.441318043773
 20
68.81018745845061
 30
0.0
  0
SPLINE
  5
1C4
330
1F
100
AcDbEntity
  8
0
  6
SLD-実線
 62
   179
370
    18
100
AcDbSpline
210
0.0
220
0.0
230
1.0
 70
     8
 71
     3
 72
     8
 73
     4
 74
     0
 42
0.000000001
 43
0.00000001
 40
2.0
 40
2.0
 40
2.0
 40
2.0
 40
3.0
 40
3.0
 40
3.0
 40
3.0
 10
1926.441318043773
 20
68.81018745845061
 30
0.0
 10
1926.441318043773
 20
71.31918159844825
 30
0.0
 10
1925.230711490256
 20
73.35165013092627
 30
0.0
 10
1922.429917762657
 20
73.35165013092627
 30
0.0
  0
SPLINE
  5
1C5
330
1F
100
AcDbEntity
  8
0
  6
SLD-実線
 62
   179
370
    18
100
AcDbSpline
210
0.0
220
0.0
230
1.0
 70
     8
 71
     3
 72
     8
 73
     4
 74
     0
 42
0.000000001
 43
0.00000001
 40
0.0
 40
0.0
 40
0.0
 40
0.0
 40
1.0
 40
1.0
 40
1.0
 40
1.0
 10
1766.722763938737
 20
113.0134841596393
 30
0.0
 10
1768.634654129231
 20
113.0617154964329
 30
0.0
 10
1770.498554139616
 20
113.1909754790395
 30
0.0
 10
1772.322422140461
 20
113.1909754790395
 30
0.0
  0
SPLINE
  5
1C6
330
1F
100
AcDbEntity
  8
0
  6
SLD-実線
 62
   179
370
    18
100
AcDbSpline
210
0.0
220
0.0
230
1.0
 70
     8
 71
     3
 72
     8
 73
     4
 74
     0
 42
0.000000001
 43
0.00000001
 40
1.0
 40
1.0
 40
1.0
 40
1.0
 40
2.0
 40
2.0
 40
2.0
 40
2.0
 10
1772.322422140461
 20
113.1909754790395
 30
0.0
 10
1782.27254692096
 20
113.1909754790394
 30
0.0
 10
1786.136118154803
 20
109.7725794838003
 30
0.0
 10
1786.136118154803
 20
100.3573402283416
 30
0.0
  0
SPLINE
  5
1C7
330
1F
100
AcDbEntity
  8
0
  6
SLD-実線
 62
   179
370
    18
100
AcDbSpline
210
0.0
220
0.0
230
1.0
 70
     8
 71
     3
 72
     8
 73
     4
 74
     0
 42
0.000000001
 43
0.00000001
 40
2.0
 40
2.0
 40
2.0
 40
2.0
 40
3.0
 40
3.0
 40
3.0
 40
3.0
 10
1786.136118154803
 20
100.3573402283416
 30
0.0
 10
1786.136118154803
 20
94.93493218933266
 30
0.0
 10
1784.536525870046
 20
90.00327800219745
 30
0.0
 10
1779.742572149458
 20
87.60859213040024
 30
0.0
  0
SPLINE
  5
1C8
330
1F
100
AcDbEntity
  8
0
  6
SLD-実線
 62
   179
370
    18
100
AcDbSpline
210
0.0
220
0.0
230
1.0
 70
     8
 71
     3
 72
     8
 73
     4
 74
     0
 42
0.000000001
 43
0.00000001
 40
3.0
 40
3.0
 40
3.0
 40
3.0
 40
4.0
 40
4.0
 40
4.0
 40
4.0
 10
1779.742572149458
 20
87.60859213040024
 30
0.0
 10
1776.142585171191
 20
85.78737685307777
 30
0.0
 10
1770.633601882638
 20
86.31550999096666
 30
0.0
 10
1766.722763938737
 20
86.53689182684872
 30
0.0
  0
SPLINE
  5
1C9
330
1F
100
AcDbEntity
  8
0
  6
SLD-実線
 62
   179
370
    18
100
AcDbSpline
210
0.0
220
0.0
230
1.0
 70
     8
 71
     3
 72
     8
 73
     4
 74
     0
 42
0.000000001
 43
0.00000001
 40
1.0
 40
1.0
 40
1.0
 40
1.0
 40
2.0
 40
2.0
 40
2.0
 40
2.0
 10
1771.477167963156
 20
84.53673829002241
 30
0.0
 10
1776.186716844357
 20
84.53673829002244
 30
0.0
 10
1781.114753681233
 20
84.62934245666595
 30
0.0
 10
1784.893920075687
 20
87.91486111903902
 30
0.0
  0
SPLINE
  5
1CA
330
1F
100
AcDbEntity
  8
0
  6
SLD-実線
 62
   179
370
    18
100
AcDbSpline
210
0.0
220
0.0
230
1.0
 70
     8
 71
     3
 72
     8
 73
     4
 74
     0
 42
0.000000001
 43
0.00000001
 40
2.0
 40
2.0
 40
2.0
 40
2.0
 40
3.0
 40
3.0
 40
3.0
 40
3.0
 10
1784.893920075687
 20
87.91486111903902
 30
0.0
 10
1788.22501735133
 20
90.84250326240438
 30
0.0
 10
1790.49044324052
 20
94.84980387989208
 30
0.0
 10
1790.49044324052
 20
101.0243796161956
 30
0.0
  0
SPLINE
  5
1CB
330
1F
100
AcDbEntity
  8
0
  6
SLD-実線
 62
   179
370
    18
100
AcDbSpline
210
0.0
220
0.0
230
1.0
 70
     8
 71
     3
 72
     8
 73
     4
 74
     0
 42
0.000000001
 43
0.00000001
 40
3.0
 40
3.0
 40
3.0
 40
3.0
 40
4.0
 40
4.0
 40
4.0
 40
4.0
 10
1790.49044324052
 20
101.0243796161956
 30
0.0
 10
1790.49044324052
 20
105.2417277054191
 30
0.0
 10
1789.0693069019
 20
109.3749121119378
 30
0.0
 10
1785.737486156205
 20
112.1291625995306
 30
0.0
  0
SPLINE
  5
1CC
330
1F
100
AcDbEntity
  8
0
  6
SLD-実線
 62
   179
370
    18
100
AcDbSpline
210
0.0
220
0.0
230
1.0
 70
     8
 71
     3
 72
     8
 73
     4
 74
     0
 42
0.000000001
 43
0.00000001
 40
4.0
 40
4.0
 40
4.0
 40
4.0
 40
5.0
 40
5.0
 40
5.0
 40
5.0
 10
1785.737486156205
 20
112.1291625995306
 30
0.0
 10
1782.003416061653
 20
115.23453721898
 30
0.0
 10
1777.520313306697
 20
114.7922558605836
 30
0.0
 10
1772.897580831724
 20
114.7922558605836
 30
0.0
  0
SPLINE
  5
1CD
330
1F
100
AcDbEntity
  8
0
  6
SLD-実線
 62
   179
370
    18
100
AcDbSpline
210
0.0
220
0.0
230
1.0
 70
     8
 71
     3
 72
     8
 73
     4
 74
     0
 42
0.000000001
 43
0.00000001
 40
0.0
 40
0.0
 40
0.0
 40
0.0
 40
1.0
 40
1.0
 40
1.0
 40
1.0
 10
1800.885743259623
 20
84.40651368068005
 30
0.0
 10
1800.222080065345
 20
84.45185113726583
 30
0.0
 10
1799.685506443517
 20
84.53673829002241
 30
0.0
 10
1799.110347752254
 20
84.53673829002241
 30
0.0
  0
SPLINE
  5
1CE
330
1F
100
AcDbEntity
  8
0
  6
SLD-実線
 62
   179
370
    18
100
AcDbSpline
210
0.0
220
0.0
230
1.0
 70
     8
 71
     3
 72
     8
 73
     4
 74
     0
 42
0.000000001
 43
0.00000001
 40
1.0
 40
1.0
 40
1.0
 40
1.0
 40
2.0
 40
2.0
 40
2.0
 40
2.0
 10
1799.110347752254
 20
84.53673829002241
 30
0.0
 10
1798.489128134354
 20
84.53673829002241
 30
0.0
 10
1797.908422839361
 20
84.45185113726583
 30
0.0
 10
1797.333022991413
 20
84.40651368068005
 30
0.0
  0
SPLINE
  5
1CF
330
1F
100
AcDbEntity
  8
0
  6
SLD-実線
 62
   179
370
    18
100
AcDbSpline
210
0.0
220
0.0
230
1.0
 70
     8
 71
     3
 72
     8
 73
     4
 74
     0
 42
0.000000001
 43
0.00000001
 40
3.0
 40
3.0
 40
3.0
 40
3.0
 40
4.0
 40
4.0
 40
4.0
 40
4.0
 10
1797.333022991413
 20
105.6410831740693
 30
0.0
 10
1797.908422839361
 20
105.5996042244269
 30
0.0
 10
1798.489128134354
 20
105.5029003941559
 30
0.0
 10
1799.110347752254
 20
105.5029003941559
 30
0.0
  0
SPLINE
  5
1D0
330
1F
100
AcDbEntity
  8
0
  6
SLD-実線
 62
   179
370
    18
100
AcDbSpline
210
0.0
220
0.0
230
1.0
 70
     8
 71
     3
 72
     8
 73
     4
 74
     0
 42
0.000000001
 43
0.00000001
 40
4.0
 40
4.0
 40
4.0
 40
4.0
 40
5.0
 40
5.0
 40
5.0
 40
5.0
 10
1799.110347752254
 20
105.5029003941559
 30
0.0
 10
1799.685506443517
 20
105.5029003941559
 30
0.0
 10
1800.222080065345
 20
105.5996042244269
 30
0.0
 10
1800.885743259623
 20
105.6410831740693
 30
0.0
  0
SPLINE
  5
1D1
330
1F
100
AcDbEntity
  8
0
  6
SLD-実線
 62
   179
370
    18
100
AcDbSpline
210
0.0
220
0.0
230
1.0
 70
     8
 71
     3
 72
    11
 73
     7
 74
     0
 42
0.000000001
 43
0.00000001
 40
2.0
 40
2.0
 40
2.0
 40
2.0
 40
3.0
 40
3.0
 40
3.0
 40
4.0
 40
4.0
 40
4.0
 40
4.0
 10
1799.110347752254
 20
115.5072854285471
 30
0.0
 10
1800.306484904733
 20
115.5072854285471
 30
0.0
 10
1801.373362074606
 20
114.4840576184731
 30
0.0
 10
1801.373362074606
 20
113.2375187190452
 30
0.0
 10
1801.373362074606
 20
111.9902563495654
 30
0.0
 10
1800.306484904733
 20
110.9732986132744
 30
0.0
 10
1799.110347752254
 20
110.9732986132744
 30
0.0
  0
SPLINE
  5
1D2
330
1F
100
AcDbEntity
  8
0
  6
SLD-実線
 62
   179
370
    18
100
AcDbSpline
210
0.0
220
0.0
230
1.0
 70
     8
 71
     3
 72
    11
 73
     7
 74
     0
 42
0.000000001
 43
0.00000001
 40
0.0
 40
0.0
 40
0.0
 40
0.0
 40
1.0
 40
1.0
 40
1.0
 40
2.0
 40
2.0
 40
2.0
 40
2.0
 10
1799.110347752254
 20
110.9732986132744
 30
0.0
 10
1797.865014636247
 20
110.9732986132744
 30
0.0
 10
1796.840581042753
 20
111.9902563495654
 30
0.0
 10
1796.840581042753
 20
113.2375187190452
 30
0.0
 10
1796.840581042753
 20
114.4840576184731
 30
0.0
 10
1797.865014636247
 20
115.5072854285471
 30
0.0
 10
1799.110347752254
 20
115.5072854285471
 30
0.0
  0
SPLINE
  5
1D3
330
1F
100
AcDbEntity
  8
0
  6
SLD-実線
 62
   179
370
    18
100
AcDbSpline
210
0.0
220
0.0
230
1.0
 70
     8
 71
     3
 72
     8
 73
     4
 74
     0
 42
0.000000001
 43
0.00000001
 40
0.0
 40
0.0
 40
0.0
 40
0.0
 40
1.0
 40
1.0
 40
1.0
 40
1.0
 10
1835.26817516292
 20
109.4651047117418
 30
0.0
 10
1832.779920497743
 20
112.3061716055627
 30
0.0
 10
1829.046332716559
 20
113.7707161472972
 30
0.0
 10
1825.272712925835
 20
113.7707161472972
 30
0.0
  0
SPLINE
  5
1D4
330
1F
100
AcDbEntity
  8
0
  6
SLD-実線
 62
   179
370
    18
100
AcDbSpline
210
0.0
220
0.0
230
1.0
 70
     8
 71
     3
 72
     8
 73
     4
 74
     0
 42
0.000000001
 43
0.00000001
 40
1.0
 40
1.0
 40
1.0
 40
1.0
 40
2.0
 40
2.0
 40
2.0
 40
2.0
 10
1825.272712925835
 20
113.7707161472972
 30
0.0
 10
1817.718720957238
 20
113.7707161472972
 30
0.0
 10
1812.479833154728
 20
108.7968595404679
 30
0.0
 10
1812.479833154728
 20
99.82727783698103
 30
0.0
  0
SPLINE
  5
1D5
330
1F
100
AcDbEntity
  8
0
  6
SLD-実線
 62
   179
370
    18
100
AcDbSpline
210
0.0
220
0.0
230
1.0
 70
     8
 71
     3
 72
     8
 73
     4
 74
     0
 42
0.000000001
 43
0.00000001
 40
2.0
 40
2.0
 40
2.0
 40
2.0
 40
3.0
 40
3.0
 40
3.0
 40
3.0
 10
1812.479833154728
 20
99.82727783698103
 30
0.0
 10
1812.479833154728
 20
91.02385308874797
 30
0.0
 10
1817.00827336627
 20
85.56117188351634
 30
0.0
 10
1825.75984942745
 20
85.56117188351634
 30
0.0
  0
SPLINE
  5
1D6
330
1F
100
AcDbEntity
  8
0
  6
SLD-実線
 62
   179
370
    18
100
AcDbSpline
210
0.0
220
0.0
230
1.0
 70
     8
 71
     3
 72
     8
 73
     4
 74
     0
 42
0.000000001
 43
0.00000001
 40
3.0
 40
3.0
 40
3.0
 40
3.0
 40
4.0
 40
4.0
 40
4.0
 40
4.0
 10
1825.75984942745
 20
85.56117188351634
 30
0.0
 10
1828.161769999766
 20
85.56117188351634
 30
0.0
 10
1830.650989291678
 20
86.00924100232795
 30
0.0
 10
1832.692139464779
 20
87.07177735188856
 30
0.0
  0
SPLINE
  5
1D7
330
1F
100
AcDbEntity
  8
0
  6
SLD-実線
 62
   179
370
    18
100
AcDbSpline
210
0.0
220
0.0
230
1.0
 70
     8
 71
     3
 72
     8
 73
     4
 74
     0
 42
0.000000001
 43
0.00000001
 40
5.0
 40
5.0
 40
5.0
 40
5.0
 40
6.0
 40
6.0
 40
6.0
 40
6.0
 10
1832.692139464779
 20
98.4907874944333
 30
0.0
 10
1833.314806022782
 20
98.44327962769162
 30
0.0
 10
1833.981845410637
 20
98.35405165462379
 30
0.0
 10
1834.648402485123
 20
98.35405165462379
 30
0.0
  0
SPLINE
  5
1D8
330
1F
100
AcDbEntity
  8
0
  6
SLD-実線
 62
   179
370
    18
100
AcDbSpline
210
0.0
220
0.0
230
1.0
 70
     8
 71
     3
 72
     8
 73
     4
 74
     0
 42
0.000000001
 43
0.00000001
 40
6.0
 40
6.0
 40
6.0
 40
6.0
 40
7.0
 40
7.0
 40
7.0
 40
7.0
 10
1834.648402485123
 20
98.35405165462379
 30
0.0
 10
1835.266245909447
 20
98.35405165462379
 30
0.0
 10
1835.892288661028
 20
98.44327962769162
 30
0.0
 10
1836.603218565364
 20
98.4907874944333
 30
0.0
  0
SPLINE
  5
1D9
330
1F
100
AcDbEntity
  8
0
  6
SLD-実線
 62
   179
370
    18
100
AcDbSpline
210
0.0
220
0.0
230
1.0
 70
     8
 71
     3
 72
     8
 73
     4
 74
     0
 42
0.000000001
 43
0.00000001
 40
8.0
 40
8.0
 40
8.0
 40
8.0
 40
9.0
 40
9.0
 40
9.0
 40
9.0
 10
1836.603218565364
 20
85.91808377578828
 30
0.0
 10
1832.736512294628
 20
84.5859342535518
 30
0.0
 10
1828.650353441484
 20
83.87307509574399
 30
0.0
 10
1824.515963251545
 20
83.87307509574399
 30
0.0
  0
SPLINE
  5
1DA
330
1F
100
AcDbEntity
  8
0
  6
SLD-実線
 62
   179
370
    18
100
AcDbSpline
210
0.0
220
0.0
230
1.0
 70
     8
 71
     3
 72
     8
 73
     4
 74
     0
 42
0.000000001
 43
0.00000001
 40
9.0
 40
9.0
 40
9.0
 40
9.0
 40
10.0
 40
10.0
 40
10.0
 40
10.0
 10
1824.515963251545
 20
83.87307509574399
 30
0.0
 10
1813.278061778661
 20
83.87307509574399
 30
0.0
 10
1808.127678479167
 20
90.58301867045529
 30
0.0
 10
1808.127678479167
 20
99.60107286741952
 30
0.0
  0
SPLINE
  5
1DB
330
1F
100
AcDbEntity
  8
0
  6
SLD-実線
 62
   179
370
    18
100
AcDbSpline
210
0.0
220
0.0
230
1.0
 70
     8
 71
     3
 72
     8
 73
     4
 74
     0
 42
0.000000001
 43
0.00000001
 40
10.0
 40
10.0
 40
10.0
 40
10.0
 40
11.0
 40
11.0
 40
11.0
 40
11.0
 10
1808.127678479167
 20
99.60107286741952
 30
0.0
 10
1808.127678479167
 20
109.9915497528427
 30
0.0
 10
1815.59027206454
 20
115.456883681598
 30
0.0
 10
1825.448757305132
 20
115.456883681598
 30
0.0
  0
SPLINE
  5
1DC
330
1F
100
AcDbEntity
  8
0
  6
SLD-実線
 62
   179
370
    18
100
AcDbSpline
210
0.0
220
0.0
230
1.0
 70
     8
 71
     3
 72
     8
 73
     4
 74
     0
 42
0.000000001
 43
0.00000001
 40
11.0
 40
11.0
 40
11.0
 40
11.0
 40
12.0
 40
12.0
 40
12.0
 40
12.0
 10
1825.448757305132
 20
115.456883681598
 30
0.0
 10
1832.07284910035
 20
115.456883681598
 30
0.0
 10
1835.799202181016
 20
113.5076142050888
 30
0.0
 10
1836.77926294466
 20
112.8856711171366
 30
0.0
  0
SPLINE
  5
1DD
330
1F
100
AcDbEntity
  8
0
  6
SLD-実線
 62
   179
370
    18
100
AcDbSpline
210
0.0
220
0.0
230
1.0
 70
     8
 71
     3
 72
     8
 73
     4
 74
     0
 42
0.000000001
 43
0.00000001
 40
12.0
 40
12.0
 40
12.0
 40
12.0
 40
13.0
 40
13.0
 40
13.0
 40
13.0
 10
1836.77926294466
 20
112.8856711171366
 30
0.0
 10
1836.378460535906
 20
111.7710449238389
 30
0.0
 10
1836.068333040324
 20
110.6161455643186
 30
0.0
 10
1835.757240918006
 20
109.4651047117418
 30
0.0
  0
SPLINE
  5
1DE
330
1F
100
AcDbEntity
  8
0
  6
SLD-実線
 62
   179
370
    18
100
AcDbSpline
210
0.0
220
0.0
230
1.0
 70
     8
 71
     3
 72
     8
 73
     4
 74
     0
 42
0.000000001
 43
0.00000001
 40
0.0
 40
0.0
 40
0.0
 40
0.0
 40
1.0
 40
1.0
 40
1.0
 40
1.0
 10
1847.797229521766
 20
84.40651368068005
 30
0.0
 10
1847.130190133912
 20
84.45185113726583
 30
0.0
 10
1846.596751548976
 20
84.53673829002241
 30
0.0
 10
1846.019904760926
 20
84.53673829002241
 30
0.0
  0
SPLINE
  5
1DF
330
1F
100
AcDbEntity
  8
0
  6
SLD-実線
 62
   179
370
    18
100
AcDbSpline
210
0.0
220
0.0
230
1.0
 70
     8
 71
     3
 72
     8
 73
     4
 74
     0
 42
0.000000001
 43
0.00000001
 40
1.0
 40
1.0
 40
1.0
 40
1.0
 40
2.0
 40
2.0
 40
2.0
 40
2.0
 10
1846.019904760926
 20
84.53673829002241
 30
0.0
 10
1845.393379695979
 20
84.53673829002241
 30
0.0
 10
1844.816532907928
 20
84.45185113726583
 30
0.0
 10
1844.243062313453
 20
84.40651368068005
 30
0.0
  0
SPLINE
  5
1E0
330
1F
100
AcDbEntity
  8
0
  6
SLD-実線
 62
   179
370
    18
100
AcDbSpline
210
0.0
220
0.0
230
1.0
 70
     8
 71
     3
 72
     8
 73
     4
 74
     0
 42
0.000000001
 43
0.00000001
 40
3.0
 40
3.0
 40
3.0
 40
3.0
 40
4.0
 40
4.0
 40
4.0
 40
4.0
 10
1844.243062313453
 20
105.6410831740693
 30
0.0
 10
1844.816532907928
 20
105.5996042244269
 30
0.0
 10
1845.393379695979
 20
105.5029003941559
 30
0.0
 10
1846.019904760926
 20
105.5029003941559
 30
0.0
  0
SPLINE
  5
1E1
330
1F
100
AcDbEntity
  8
0
  6
SLD-実線
 62
   179
370
    18
100
AcDbSpline
210
0.0
220
0.0
230
1.0
 70
     8
 71
     3
 72
     8
 73
     4
 74
     0
 42
0.000000001
 43
0.00000001
 40
4.0
 40
4.0
 40
4.0
 40
4.0
 40
5.0
 40
5.0
 40
5.0
 40
5.0
 10
1846.019904760926
 20
105.5029003941559
 30
0.0
 10
1846.596751548976
 20
105.5029003941559
 30
0.0
 10
1847.130190133912
 20
105.5996042244269
 30
0.0
 10
1847.797229521766
 20
105.6410831740693
 30
0.0
  0
SPLINE
  5
1E2
330
1F
100
AcDbEntity
  8
0
  6
SLD-実線
 62
   179
370
    18
100
AcDbSpline
210
0.0
220
0.0
230
1.0
 70
     8
 71
     3
 72
    11
 73
     7
 74
     0
 42
0.000000001
 43
0.00000001
 40
2.0
 40
2.0
 40
2.0
 40
2.0
 40
3.0
 40
3.0
 40
3.0
 40
4.0
 40
4.0
 40
4.0
 40
4.0
 10
1846.019904760926
 20
115.5072854285471
 30
0.0
 10
1847.216041913405
 20
115.5072854285471
 30
0.0
 10
1848.284848336749
 20
114.4840576184731
 30
0.0
 10
1848.284848336749
 20
113.2375187190452
 30
0.0
 10
1848.284848336749
 20
111.9902563495654
 30
0.0
 10
1847.216041913405
 20
110.9732986132744
 30
0.0
 10
1846.019904760926
 20
110.9732986132744
 30
0.0
  0
SPLINE
  5
1E3
330
1F
100
AcDbEntity
  8
0
  6
SLD-実線
 62
   179
370
    18
100
AcDbSpline
210
0.0
220
0.0
230
1.0
 70
     8
 71
     3
 72
    11
 73
     7
 74
     0
 42
0.000000001
 43
0.00000001
 40
0.0
 40
0.0
 40
0.0
 40
0.0
 40
1.0
 40
1.0
 40
1.0
 40
2.0
 40
2.0
 40
2.0
 40
2.0
 10
1846.019904760926
 20
110.9732986132744
 30
0.0
 10
1844.77650089839
 20
110.9732986132744
 30
0.0
 10
1843.750620364792
 20
111.9902563495654
 30
0.0
 10
1843.750620364792
 20
113.2375187190452
 30
0.0
 10
1843.750620364792
 20
114.4840576184731
 30
0.0
 10
1844.77650089839
 20
115.5072854285471
 30
0.0
 10
1846.019904760926
 20
115.5072854285471
 30
0.0
  0
SPLINE
  5
1E4
330
1F
100
AcDbEntity
  8
0
  6
SLD-実線
 62
   179
370
    18
100
AcDbSpline
210
0.0
220
0.0
230
1.0
 70
     8
 71
     3
 72
     8
 73
     4
 74
     0
 42
0.000000001
 43
0.00000001
 40
0.0
 40
0.0
 40
0.0
 40
0.0
 40
1.0
 40
1.0
 40
1.0
 40
1.0
 10
1866.723688392903
 20
84.32066190118748
 30
0.0
 10
1866.012758488567
 20
84.36792861124523
 30
0.0
 10
1865.388644990459
 20
84.45185113726583
 30
0.0
 10
1864.767425372559
 20
84.45185113726583
 30
0.0
  0
SPLINE
  5
1E5
330
1F
100
AcDbEntity
  8
0
  6
SLD-実線
 62
   179
370
    18
100
AcDbSpline
210
0.0
220
0.0
230
1.0
 70
     8
 71
     3
 72
     8
 73
     4
 74
     0
 42
0.000000001
 43
0.00000001
 40
1.0
 40
1.0
 40
1.0
 40
1.0
 40
2.0
 40
2.0
 40
2.0
 40
2.0
 10
1864.767425372559
 20
84.45185113726583
 30
0.0
 10
1864.102315238177
 20
84.45185113726583
 30
0.0
 10
1863.431417343379
 20
84.36792861124523
 30
0.0
 10
1862.810197725479
 20
84.32066190118748
 30
0.0
  0
SPLINE
  5
1E6
330
1F
100
AcDbEntity
  8
0
  6
SLD-実線
 62
   179
370
    18
100
AcDbSpline
210
0.0
220
0.0
230
1.0
 70
     8
 71
     3
 72
     8
 73
     4
 74
     0
 42
0.000000001
 43
0.00000001
 40
3.0
 40
3.0
 40
3.0
 40
3.0
 40
4.0
 40
4.0
 40
4.0
 40
4.0
 10
1862.810197725479
 20
112.6640481245705
 30
0.0
 10
1858.325648030419
 20
112.6640481245705
 30
0.0
 10
1855.618423096201
 20
112.393952638527
 30
0.0
 10
1853.082901720966
 20
112.1291625995306
 30
0.0
  0
SPLINE
  5
1E7
330
1F
100
AcDbEntity
  8
0
  6
SLD-実線
 62
   179
370
    18
100
AcDbSpline
210
0.0
220
0.0
230
1.0
 70
     8
 71
     3
 72
     8
 73
     4
 74
     0
 42
0.000000001
 43
0.00000001
 40
4.0
 40
4.0
 40
4.0
 40
4.0
 40
5.0
 40
5.0
 40
5.0
 40
5.0
 10
1853.082901720966
 20
112.1291625995306
 30
0.0
 10
1853.124380670608
 20
112.5743378381346
 30
0.0
 10
1853.216020210516
 20
113.0134841596393
 30
0.0
 10
1853.216020210516
 20
113.460829808399
 30
0.0
  0
SPLINE
  5
1E8
330
1F
100
AcDbEntity
  8
0
  6
SLD-実線
 62
   179
370
    18
100
AcDbSpline
210
0.0
220
0.0
230
1.0
 70
     8
 71
     3
 72
     8
 73
     4
 74
     0
 42
0.000000001
 43
0.00000001
 40
5.0
 40
5.0
 40
5.0
 40
5.0
 40
6.0
 40
6.0
 40
6.0
 40
6.0
 10
1853.216020210516
 20
113.460829808399
 30
0.0
 10
1853.216020210516
 20
113.9043169502153
 30
0.0
 10
1853.124380670608
 20
114.3036724188656
 30
0.0
 10
1853.082901720966
 20
114.7922558605836
 30
0.0
  0
SPLINE
  5
1E9
330
1F
100
AcDbEntity
  8
0
  6
SLD-実線
 62
   179
370
    18
100
AcDbSpline
210
0.0
220
0.0
230
1.0
 70
     8
 71
     3
 72
     8
 73
     4
 74
     0
 42
0.000000001
 43
0.00000001
 40
7.0
 40
7.0
 40
7.0
 40
7.0
 40
8.0
 40
8.0
 40
8.0
 40
8.0
 10
1876.00629147218
 20
114.7922558605836
 30
0.0
 10
1875.957095508651
 20
114.3036724188656
 30
0.0
 10
1875.872690669262
 20
113.9043169502153
 30
0.0
 10
1875.872690669262
 20
113.460829808399
 30
0.0
  0
SPLINE
  5
1EA
330
1F
100
AcDbEntity
  8
0
  6
SLD-実線
 62
   179
370
    18
100
AcDbSpline
210
0.0
220
0.0
230
1.0
 70
     8
 71
     3
 72
     8
 73
     4
 74
     0
 42
0.000000001
 43
0.00000001
 40
8.0
 40
8.0
 40
8.0
 40
8.0
 40
9.0
 40
9.0
 40
9.0
 40
9.0
 10
1875.872690669262
 20
113.460829808399
 30
0.0
 10
1875.872690669262
 20
113.0134841596393
 30
0.0
 10
1875.957095508651
 20
112.5743378381346
 30
0.0
 10
1876.00629147218
 20
112.1291625995306
 30
0.0
  0
SPLINE
  5
1EB
330
1F
100
AcDbEntity
  8
0
  6
SLD-実線
 62
   179
370
    18
100
AcDbSpline
210
0.0
220
0.0
230
1.0
 70
     8
 71
     3
 72
     8
 73
     4
 74
     0
 42
0.000000001
 43
0.00000001
 40
9.0
 40
9.0
 40
9.0
 40
9.0
 40
10.0
 40
10.0
 40
10.0
 40
10.0
 10
1876.00629147218
 20
112.1291625995306
 30
0.0
 10
1873.782344532631
 20
112.393952638527
 30
0.0
 10
1870.677211069866
 20
112.6640481245705
 30
0.0
 10
1866.723688392903
 20
112.6640481245705
 30
0.0
  0
SPLINE
  5
1EC
330
1F
100
AcDbEntity
  8
0
  6
SLD-実線
 62
   179
370
    18
100
AcDbSpline
210
0.0
220
0.0
230
1.0
 70
     8
 71
     3
 72
     8
 73
     4
 74
     0
 42
0.000000001
 43
0.00000001
 40
1.0
 40
1.0
 40
1.0
 40
1.0
 40
2.0
 40
2.0
 40
2.0
 40
2.0
 10
1891.641443920528
 20
101.556371261028
 30
0.0
 10
1892.970699562556
 20
101.556371261028
 30
0.0
 10
1894.26137013515
 20
101.7324156403242
 30
0.0
 10
1895.593037344019
 20
101.7775119402261
 30
0.0
  0
SPLINE
  5
1ED
330
1F
100
AcDbEntity
  8
0
  6
SLD-実線
 62
   179
370
    18
100
AcDbSpline
210
0.0
220
0.0
230
1.0
 70
     8
 71
     3
 72
     8
 73
     4
 74
     0
 42
0.000000001
 43
0.00000001
 40
2.0
 40
2.0
 40
2.0
 40
2.0
 40
3.0
 40
3.0
 40
3.0
 40
3.0
 10
1895.593037344019
 20
101.7775119402261
 30
0.0
 10
1895.553969961216
 20
101.4218058313741
 30
0.0
 10
1895.462330421308
 20
101.0243796161956
 30
0.0
 10
1895.462330421308
 20
100.6257476175974
 30
0.0
  0
SPLINE
  5
1EE
330
1F
100
AcDbEntity
  8
0
  6
SLD-実線
 62
   179
370
    18
100
AcDbSpline
210
0.0
220
0.0
230
1.0
 70
     8
 71
     3
 72
     8
 73
     4
 74
     0
 42
0.000000001
 43
0.00000001
 40
3.0
 40
3.0
 40
3.0
 40
3.0
 40
4.0
 40
4.0
 40
4.0
 40
4.0
 10
1895.462330421308
 20
100.6257476175974
 30
0.0
 10
1895.462330421308
 20
100.264977218382
 30
0.0
 10
1895.553969961216
 20
99.8629690262083
 30
0.0
 10
1895.593037344019
 20
99.37848524811749
 30
0.0
  0
SPLINE
  5
1EF
330
1F
100
AcDbEntity
  8
0
  6
SLD-実線
 62
   179
370
    18
100
AcDbSpline
210
0.0
220
0.0
230
1.0
 70
     8
 71
     3
 72
     8
 73
     4
 74
     0
 42
0.000000001
 43
0.00000001
 40
4.0
 40
4.0
 40
4.0
 40
4.0
 40
5.0
 40
5.0
 40
5.0
 40
5.0
 10
1895.593037344019
 20
99.37848524811749
 30
0.0
 10
1894.26137013515
 20
99.42936930843472
 30
0.0
 10
1892.970699562556
 20
99.60107286741952
 30
0.0
 10
1891.641443920528
 20
99.60107286741952
 30
0.0
  0
SPLINE
  5
1F0
330
1F
100
AcDbEntity
  8
0
  6
SLD-実線
 62
   179
370
    18
100
AcDbSpline
210
0.0
220
0.0
230
1.0
 70
     8
 71
     3
 72
     8
 73
     4
 74
     0
 42
0.000000001
 43
0.00000001
 40
7.0
 40
7.0
 40
7.0
 40
7.0
 40
8.0
 40
8.0
 40
8.0
 40
8.0
 10
1884.75304439968
 20
86.62708442665262
 30
0.0
 10
1887.464127840842
 20
86.53689182684872
 30
0.0
 10
1890.12746225858
 20
86.71872396656016
 30
0.0
 10
1892.798996003572
 20
86.80602268615658
 30
0.0
  0
SPLINE
  5
1F1
330
1F
100
AcDbEntity
  8
0
  6
SLD-実線
 62
   179
370
    18
100
AcDbSpline
210
0.0
220
0.0
230
1.0
 70
     8
 71
     3
 72
     8
 73
     4
 74
     0
 42
0.000000001
 43
0.00000001
 40
8.0
 40
8.0
 40
8.0
 40
8.0
 40
9.0
 40
9.0
 40
9.0
 40
9.0
 10
1892.798996003572
 20
86.80602268615658
 30
0.0
 10
1894.17262447545
 20
86.85184245611042
 30
0.0
 10
1895.508150191262
 20
86.98592557239625
 30
0.0
 10
1896.882743289877
 20
87.2058604681746
 30
0.0
  0
SPLINE
  5
1F2
330
1F
100
AcDbEntity
  8
0
  6
SLD-実線
 62
   179
370
    18
100
AcDbSpline
210
0.0
220
0.0
230
1.0
 70
     8
 71
     3
 72
     8
 73
     4
 74
     0
 42
0.000000001
 43
0.00000001
 40
9.0
 40
9.0
 40
9.0
 40
9.0
 40
10.0
 40
10.0
 40
10.0
 40
10.0
 10
1896.882743289877
 20
87.2058604681746
 30
0.0
 10
1896.839817400131
 20
86.71872396656016
 30
0.0
 10
1896.752518680535
 20
86.31550999096666
 30
0.0
 10
1896.752518680535
 20
85.86985243899481
 30
0.0
  0
SPLINE
  5
1F3
330
1F
100
AcDbEntity
  8
0
  6
SLD-実線
 62
   179
370
    18
100
AcDbSpline
210
0.0
220
0.0
230
1.0
 70
     8
 71
     3
 72
     8
 73
     4
 74
     0
 42
0.000000001
 43
0.00000001
 40
10.0
 40
10.0
 40
10.0
 40
10.0
 40
11.0
 40
11.0
 40
11.0
 40
11.0
 10
1896.752518680535
 20
85.86985243899481
 30
0.0
 10
1896.752518680535
 20
85.42998264743798
 30
0.0
 10
1896.839817400131
 20
84.98336046873027
 30
0.0
 10
1896.882743289877
 20
84.53673829002241
 30
0.0
  0
SPLINE
  5
1F4
330
1F
100
AcDbEntity
  8
0
  6
SLD-実線
 62
   179
370
    18
100
AcDbSpline
210
0.0
220
0.0
230
1.0
 70
     8
 71
     3
 72
     8
 73
     4
 74
     0
 42
0.000000001
 43
0.00000001
 40
14.0
 40
14.0
 40
14.0
 40
14.0
 40
15.0
 40
15.0
 40
15.0
 40
15.0
 10
1896.615059370673
 20
114.7922558605836
 30
0.0
 10
1896.576474301238
 20
114.3036724188656
 30
0.0
 10
1896.483387821228
 20
113.9043169502153
 30
0.0
 10
1896.483387821228
 20
113.460829808399
 30
0.0
  0
SPLINE
  5
1F5
330
1F
100
AcDbEntity
  8
0
  6
SLD-実線
 62
   179
370
    18
100
AcDbSpline
210
0.0
220
0.0
230
1.0
 70
     8
 71
     3
 72
     8
 73
     4
 74
     0
 42
0.000000001
 43
0.00000001
 40
15.0
 40
15.0
 40
15.0
 40
15.0
 40
16.0
 40
16.0
 40
16.0
 40
16.0
 10
1896.483387821228
 20
113.460829808399
 30
0.0
 10
1896.483387821228
 20
113.0134841596393
 30
0.0
 10
1896.576474301238
 20
112.5743378381346
 30
0.0
 10
1896.615059370673
 20
112.1291625995306
 30
0.0
  0
SPLINE
  5
1F6
330
1F
100
AcDbEntity
  8
0
  6
SLD-実線
 62
   179
370
    18
100
AcDbSpline
210
0.0
220
0.0
230
1.0
 70
     8
 71
     3
 72
     8
 73
     4
 74
     0
 42
0.000000001
 43
0.00000001
 40
16.0
 40
16.0
 40
16.0
 40
16.0
 40
17.0
 40
17.0
 40
17.0
 40
17.0
 10
1896.615059370673
 20
112.1291625995306
 30
0.0
 10
1895.284839101909
 20
112.393952638527
 30
0.0
 10
1893.947866445993
 20
112.5277945981289
 30
0.0
 10
1892.619093117332
 20
112.6146110043572
 30
0.0
  0
SPLINE
  5
1F7
330
1F
100
AcDbEntity
  8
0
  6
SLD-実線
 62
   179
370
    18
100
AcDbSpline
210
0.0
220
0.0
230
1.0
 70
     8
 71
     3
 72
     8
 73
     4
 74
     0
 42
0.000000001
 43
0.00000001
 40
0.0
 40
0.0
 40
0.0
 40
0.0
 40
1.0
 40
1.0
 40
1.0
 40
1.0
 10
1926.24791038323
 20
86.4052202774025
 30
0.0
 10
1923.451939789312
 20
84.53673829002241
 30
0.0
 10
1919.808544607931
 20
83.87307509574399
 30
0.0
 10
1916.430421778914
 20
83.87307509574399
 30
0.0
  0
SPLINE
  5
1F8
330
1F
100
AcDbEntity
  8
0
  6
SLD-実線
 62
   179
370
    18
100
AcDbSpline
210
0.0
220
0.0
230
1.0
 70
     8
 71
     3
 72
     8
 73
     4
 74
     0
 42
0.000000001
 43
0.00000001
 40
1.0
 40
1.0
 40
1.0
 40
1.0
 40
2.0
 40
2.0
 40
2.0
 40
2.0
 10
1916.430421778914
 20
83.87307509574399
 30
0.0
 10
1906.660199884655
 20
83.87307509574399
 30
0.0
 10
1900.79189313699
 20
90.04620389194368
 30
0.0
 10
1900.79189313699
 20
99.77928765687156
 30
0.0
  0
SPLINE
  5
1F9
330
1F
100
AcDbEntity
  8
0
  6
SLD-実線
 62
   179
370
    18
100
AcDbSpline
210
0.0
220
0.0
230
1.0
 70
     8
 71
     3
 72
     8
 73
     4
 74
     0
 42
0.000000001
 43
0.00000001
 40
2.0
 40
2.0
 40
2.0
 40
2.0
 40
3.0
 40
3.0
 40
3.0
 40
3.0
 10
1900.79189313699
 20
99.77928765687156
 30
0.0
 10
1900.79189313699
 20
109.7725794838003
 30
0.0
 10
1908.16549990598
 20
115.456883681598
 30
0.0
 10
1917.542154092004
 20
115.456883681598
 30
0.0
  0
SPLINE
  5
1FA
330
1F
100
AcDbEntity
  8
0
  6
SLD-実線
 62
   179
370
    18
100
AcDbSpline
210
0.0
220
0.0
230
1.0
 70
     8
 71
     3
 72
     8
 73
     4
 74
     0
 42
0.000000001
 43
0.00000001
 40
3.0
 40
3.0
 40
3.0
 40
3.0
 40
4.0
 40
4.0
 40
4.0
 40
4.0
 10
1917.542154092004
 20
115.456883681598
 30
0.0
 10
1920.783299924527
 20
115.456883681598
 30
0.0
 10
1924.117049923694
 20
114.707368707827
 30
0.0
 10
1927.092441090485
 20
113.4179039186528
 30
0.0
  0
SPLINE
  5
1FB
330
1F
100
AcDbEntity
  8
0
  6
SLD-実線
 62
   179
370
    18
100
AcDbSpline
210
0.0
220
0.0
230
1.0
 70
     8
 71
     3
 72
     8
 73
     4
 74
     0
 42
0.000000001
 43
0.00000001
 40
4.0
 40
4.0
 40
4.0
 40
4.0
 40
5.0
 40
5.0
 40
5.0
 40
5.0
 10
1927.092441090485
 20
113.4179039186528
 30
0.0
 10
1926.645336598408
 20
112.3061716055627
 30
0.0
 10
1926.38344043962
 20
111.1507899326745
 30
0.0
 10
1926.160129350267
 20
109.9915497528427
 30
0.0
  0
SPLINE
  5
1FC
330
1F
100
AcDbEntity
  8
0
  6
SLD-実線
 62
   179
370
    18
100
AcDbSpline
210
0.0
220
0.0
230
1.0
 70
     8
 71
     3
 72
     8
 73
     4
 74
     0
 42
0.000000001
 43
0.00000001
 40
6.0
 40
6.0
 40
6.0
 40
6.0
 40
7.0
 40
7.0
 40
7.0
 40
7.0
 10
1925.847107974477
 20
109.9493473331484
 30
0.0
 10
1925.225888356576
 20
110.7521579340762
 30
0.0
 10
1921.937475813995
 20
113.7707161472972
 30
0.0
 10
1917.364662772604
 20
113.7707161472972
 30
0.0
  0
SPLINE
  5
1FD
330
1F
100
AcDbEntity
  8
0
  6
SLD-実線
 62
   179
370
    18
100
AcDbSpline
210
0.0
220
0.0
230
1.0
 70
     8
 71
     3
 72
     8
 73
     4
 74
     0
 42
0.000000001
 43
0.00000001
 40
7.0
 40
7.0
 40
7.0
 40
7.0
 40
8.0
 40
8.0
 40
8.0
 40
8.0
 10
1917.364662772604
 20
113.7707161472972
 30
0.0
 10
1909.189933499474
 20
113.7707161472972
 30
0.0
 10
1905.146218222707
 20
107.1497593889698
 30
0.0
 10
1905.146218222707
 20
99.60107286741952
 30
0.0
  0
SPLINE
  5
1FE
330
1F
100
AcDbEntity
  8
0
  6
SLD-実線
 62
   179
370
    18
100
AcDbSpline
210
0.0
220
0.0
230
1.0
 70
     8
 71
     3
 72
     8
 73
     4
 74
     0
 42
0.000000001
 43
0.00000001
 40
8.0
 40
8.0
 40
8.0
 40
8.0
 40
9.0
 40
9.0
 40
9.0
 40
9.0
 10
1905.146218222707
 20
99.60107286741952
 30
0.0
 10
1905.146218222707
 20
91.06726129186204
 30
0.0
 10
1910.031088013152
 20
85.60650934010218
 30
0.0
 10
1917.049712143342
 20
85.60650934010218
 30
0.0
  0
SPLINE
  5
1FF
330
1F
100
AcDbEntity
  8
0
  6
SLD-実線
 62
   179
370
    18
100
AcDbSpline
210
0.0
220
0.0
230
1.0
 70
     8
 71
     3
 72
     8
 73
     4
 74
     0
 42
0.000000001
 43
0.00000001
 40
9.0
 40
9.0
 40
9.0
 40
9.0
 40
10.0
 40
10.0
 40
10.0
 40
10.0
 10
1917.049712143342
 20
85.60650934010218
 30
0.0
 10
1921.849212467664
 20
85.60650934010218
 30
0.0
 10
1925.579424055273
 20
88.4511935841827
 30
0.0
 10
1926.471221472585
 20
89.20553169163311
 30
0.0
  0
DIMENSION
  5
200
330
1F
100
AcDbEntity
  8
0
  6
SLD-実線
 62
     7
370
    18
100
AcDbDimension
  2
_D
 10
-34.3965374448
 20
0.0
 30
0.0
 11
-34.3965374448
 21
1357.36111084
 31
0.0
 70
   160
  1
<>
 71
     1
 42
-1.0
  3
SLDDIMSTYLE0
100
AcDbAlignedDimension
 13
0.0
 23
0.0
 33
0.0
 14
0.0
 24
0.0
 34
0.0
 50
90.0
100
AcDbRotatedDimension
  0
MTEXT
  5
20B
330
1F
100
AcDbEntity
  8
0
  6
Continuous
 62
     7
370
     0
100
AcDbMText
 10
2073.0685318042
 20
127.4053287418
 30
0.0
 40
17.5
 41
0.0
 71
     2
 72
     1
  1
F
  7
SLDTEXTSTYLE1
 73
     1
 44
1.0
  0
MTEXT
  5
20C
330
1F
100
AcDbEntity
  8
0
  6
Continuous
 62
     7
370
     0
100
AcDbMText
 10
2066.7405945521
 20
1374.4668342128
 30
0.0
 40
17.5
 41
0.0
 71
     2
 72
     1
  1
A
  7
SLDTEXTSTYLE1
 73
     1
 44
1.0
  0
MTEXT
  5
20D
330
1F
100
AcDbEntity
  8
0
  6
Continuous
 62
     7
370
     0
100
AcDbMText
 10
2069.9717141727
 20
878.4062356333
 30
0.0
 40
17.5
 41
0.0
 71
     2
 72
     1
  1
C
  7
SLDTEXTSTYLE1
 73
     1
 44
1.0
  0
MTEXT
  5
20E
330
1F
100
AcDbEntity
  8
0
  6
Continuous
 62
     7
370
     0
100
AcDbMText
 10
2072.6027909426
 20
378.4062356333
 30
0.0
 40
17.5
 41
0.0
 71
     2
 72
     1
  1
E
  7
SLDTEXTSTYLE1
 73
     1
 44
1.0
  0
MTEXT
  5
20F
330
1F
100
AcDbEntity
  8
0
  6
Continuous
 62
     7
370
     0
100
AcDbMText
 10
2067.2373391727
 20
1128.4062356333
 30
0.0
 40
17.5
 41
0.0
 71
     2
 72
     1
  1
B
  7
SLDTEXTSTYLE1
 73
     1
 44
1.0
  0
MTEXT
  5
210
330
1F
100
AcDbEntity
  8
0
  6
Continuous
 62
     7
370
     0
100
AcDbMText
 10
2069.9534846136
 20
628.4062356333
 30
0.0
 40
17.5
 41
0.0
 71
     2
 72
     1
  1
D
  7
SLDTEXTSTYLE1
 73
     1
 44
1.0
  0
MTEXT
  5
211
330
1F
100
AcDbEntity
  8
0
  6
Continuous
 62
     7
370
     0
100
AcDbMText
 10
431.4494713975
 20
1459.619246453
 30
0.0
 40
17.5
 41
0.0
 71
     2
 72
     1
  1
2
  7
SLDTEXTSTYLE1
 73
     1
 44
1.0
  0
MTEXT
  5
212
330
1F
100
AcDbEntity
  8
0
  6
Continuous
 62
     7
370
     0
100
AcDbMText
 10
157.2468992353
 20
1459.619246453
 30
0.0
 40
17.5
 41
0.0
 71
     2
 72
     1
  1
1
  7
SLDTEXTSTYLE1
 73
     1
 44
1.0
  0
MTEXT
  5
213
330
1F
100
AcDbEntity
  8
0
  6
Continuous
 62
     7
370
     0
100
AcDbMText
 10
1682.2092109178
 20
1459.619246453
 30
0.0
 40
17.5
 41
0.0
 71
     2
 72
     1
  1
7
  7
SLDTEXTSTYLE1
 73
     1
 44
1.0
  0
MTEXT
  5
214
330
1F
100
AcDbEntity
  8
0
  6
Continuous
 62
     7
370
     0
100
AcDbMText
 10
1180.3558664061
 20
1459.619246453
 30
0.0
 40
17.5
 41
0.0
 71
     2
 72
     1
  1
5
  7
SLDTEXTSTYLE1
 73
     1
 44
1.0
  0
MTEXT
  5
215
330
1F
100
AcDbEntity
  8
0
  6
Continuous
 62
     7
370
     0
100
AcDbMText
 10
682.2794632403
 20
1459.619246453
 30
0.0
 40
17.5
 41
0.0
 71
     2
 72
     1
  1
3
  7
SLDTEXTSTYLE1
 73
     1
 44
1.0
  0
MTEXT
  5
216
330
1F
100
AcDbEntity
  8
0
  6
Continuous
 62
     7
370
     0
100
AcDbMText
 10
1957.066415302
 20
1459.2876487593
 30
0.0
 40
17.5
 41
0.0
 71
     2
 72
     1
  1
8
  7
SLDTEXTSTYLE1
 73
     1
 44
1.0
  0
MTEXT
  5
217
330
1F
100
AcDbEntity
  8
0
  6
Continuous
 62
     7
370
     0
100
AcDbMText
 10
1431.8701629558
 20
1459.619246453
 30
0.0
 40
17.5
 41
0.0
 71
     2
 72
     1
  1
6
  7
SLDTEXTSTYLE1
 73
     1
 44
1.0
  0
MTEXT
  5
218
330
1F
100
AcDbEntity
  8
0
  6
Continuous
 62
     7
370
     0
100
AcDbMText
 10
931.7835744035
 20
1459.619246453
 30
0.0
 40
17.5
 41
0.0
 71
     2
 72
     1
  1
4
  7
SLDTEXTSTYLE1
 73
     1
 44
1.0
  0
MTEXT
  5
219
330
1F
100
AcDbEntity
  8
0
  6
Continuous
 62
     7
370
     0
100
AcDbMText
 10
30.9099414218
 20
628.4062356333
 30
0.0
 40
17.5
 41
0.0
 71
     2
 72
     1
  1
D
  7
SLDTEXTSTYLE1
 73
     1
 44
1.0
  0
MTEXT
  5
21A
330
1F
100
AcDbEntity
  8
0
  6
Continuous
 62
     7
370
     0
100
AcDbMText
 10
30.9281709809
 20
878.4062356333
 30
0.0
 40
17.5
 41
0.0
 71
     2
 72
     1
  1
C
  7
SLDTEXTSTYLE1
 73
     1
 44
1.0
  0
MTEXT
  5
21B
330
1F
100
AcDbEntity
  8
0
  6
Continuous
 62
     7
370
     0
100
AcDbMText
 10
28.1937959809
 20
1129.0135389187
 30
0.0
 40
17.5
 41
0.0
 71
     2
 72
     1
  1
B
  7
SLDTEXTSTYLE1
 73
     1
 44
1.0
  0
MTEXT
  5
21C
330
1F
100
AcDbEntity
  8
0
  6
Continuous
 62
     7
370
     0
100
AcDbMText
 10
31.1408445863
 20
378.4062356333
 30
0.0
 40
17.5
 41
0.0
 71
     2
 72
     1
  1
E
  7
SLDTEXTSTYLE1
 73
     1
 44
1.0
  0
MTEXT
  5
21D
330
1F
100
AcDbEntity
  8
0
  6
Continuous
 62
     7
370
     0
100
AcDbMText
 10
1950.5949768162
 20
41.3010066928
 30
0.0
 40
17.5
 41
0.0
 71
     2
 72
     1
  1
8
  7
SLDTEXTSTYLE1
 73
     1
 44
1.0
  0
MTEXT
  5
21E
330
1F
100
AcDbEntity
  8
0
  6
Continuous
 62
     7
370
     0
100
AcDbMText
 10
675.3773102645
 20
41.6326043866
 30
0.0
 40
17.5
 41
0.0
 71
     2
 72
     1
  1
3
  7
SLDTEXTSTYLE1
 73
     1
 44
1.0
  0
MTEXT
  5
21F
330
1F
100
AcDbEntity
  8
0
  6
Continuous
 62
     7
370
     0
100
AcDbMText
 10
924.8997396929
 20
41.6326052597
 30
0.0
 40
17.5
 41
0.0
 71
     2
 72
     1
  1
4
  7
SLDTEXTSTYLE1
 73
     1
 44
1.0
  0
MTEXT
  5
220
330
1F
100
AcDbEntity
  8
0
  6
Continuous
 62
     7
370
     0
100
AcDbMText
 10
1174.9468314368
 20
41.6326043866
 30
0.0
 40
17.5
 41
0.0
 71
     2
 72
     1
  1
5
  7
SLDTEXTSTYLE1
 73
     1
 44
1.0
  0
MTEXT
  5
221
330
1F
100
AcDbEntity
  8
0
  6
Continuous
 62
     7
370
     0
100
AcDbMText
 10
1424.9863282451
 20
41.6326043866
 30
0.0
 40
17.5
 41
0.0
 71
     2
 72
     1
  1
6
  7
SLDTEXTSTYLE1
 73
     1
 44
1.0
  0
MTEXT
  5
222
330
1F
100
AcDbEntity
  8
0
  6
Continuous
 62
     7
370
     0
100
AcDbMText
 10
1674.966580132
 20
41.6326043866
 30
0.0
 40
17.5
 41
0.0
 71
     2
 72
     1
  1
7
  7
SLDTEXTSTYLE1
 73
     1
 44
1.0
  0
MTEXT
  5
223
330
1F
100
AcDbEntity
  8
0
  6
Continuous
 62
     7
370
     0
100
AcDbMText
 10
27.6970513602
 20
1374.784708381
 30
0.0
 40
17.5
 41
0.0
 71
     2
 72
     1
  1
A
  7
SLDTEXTSTYLE1
 73
     1
 44
1.0
  0
MTEXT
  5
224
330
1F
100
AcDbEntity
  8
0
  6
Continuous
 62
     7
370
     0
100
AcDbMText
 10
424.921007026
 20
41.6326043866
 30
0.0
 40
17.5
 41
0.0
 71
     2
 72
     1
  1
2
  7
SLDTEXTSTYLE1
 73
     1
 44
1.0
  0
MTEXT
  5
225
330
1F
100
AcDbEntity
  8
0
  6
Continuous
 62
     7
370
     0
100
AcDbMText
 10
150.3630645247
 20
41.6326043866
 30
0.0
 40
17.5
 41
0.0
 71
     2
 72
     1
  1
1
  7
SLDTEXTSTYLE1
 73
     1
 44
1.0
  0
MTEXT
  5
226
330
1F
100
AcDbEntity
  8
0
  6
Continuous
 62
     7
370
     0
100
AcDbMText
 10
31.1104624318
 20
132.5714056287
 30
0.0
 40
17.5
 41
0.0
 71
     2
 72
     1
  1
F
  7
SLDTEXTSTYLE1
 73
     1
 44
1.0
  0
MTEXT
  5
228
330
1F
100
AcDbEntity
  8
0
  6
Continuous
 62
     7
370
     0
100
AcDbMText
 10
1980.8377298425
 20
106.0951041814
 30
0.0
 40
26.4583333333
 41
0.0
 71
     1
 72
     1
  1
1/1
  7
SLDTEXTSTYLE2
 73
     1
 44
1.0
  0
MTEXT
  5
22A
330
1F
100
AcDbEntity
  8
0
  6
Continuous
 62
     7
370
     0
100
AcDbMText
 10
1526.4472806375
 20
121.4129573273
 30
0.0
 40
13.2291666667
 41
0.0
 71
     1
 72
     1
  1
尺度 / SCALE
  7
SLDTEXTSTYLE3
 73
     1
 44
1.0
  0
MTEXT
  5
22B
330
1F
100
AcDbEntity
  8
0
  6
Continuous
 62
     7
370
     0
100
AcDbMText
 10
1311.8220155262
 20
121.4129573273
 30
0.0
 40
13.2291666667
 41
0.0
 71
     1
 72
     1
  1
{\H0.944882x;投影法 / PROJECTION}
  7
SLDTEXTSTYLE3
 73
     1
 44
1.0
1001
ACAD
1000
ACAD_MTEXT_DEFINED_HEIGHT_BEGIN
1070
    46
1040
13.79187768333124
1000
ACAD_MTEXT_DEFINED_HEIGHT_END
  0
MTEXT
  5
22C
330
1F
100
AcDbEntity
  8
0
  6
Continuous
 62
     7
370
     0
100
AcDbMText
 10
1125.7422681346
 20
344.9667361527
 30
0.0
 40
13.2291666667
 41
0.0
 71
     1
 72
     1
  1
名前 / NAME
  7
SLDTEXTSTYLE3
 73
     1
 44
1.0
  0
MTEXT
  5
22D
330
1F
100
AcDbEntity
  8
0
  6
Continuous
 62
     7
370
     0
100
AcDbMText
 10
1077.9585726727
 20
295.0872938434
 30
0.0
 40
13.2291666667
 41
0.0
 71
     1
 72
     1
  1
検認
  7
SLDTEXTSTYLE3
 73
     1
 44
1.0
  0
MTEXT
  5
22E
330
1F
100
AcDbEntity
  8
0
  6
Continuous
 62
     7
370
     0
100
AcDbMText
 10
1077.9202941508
 20
228.9170860239
 30
0.0
 40
13.2291666667
 41
0.0
 71
     1
 72
     1
  1
検認
  7
SLDTEXTSTYLE3
 73
     1
 44
1.0
  0
MTEXT
  5
22F
330
1F
100
AcDbEntity
  8
0
  6
Continuous
 62
     7
370
     0
100
AcDbMText
 10
1077.842203917
 20
160.3907475051
 30
0.0
 40
13.2291666667
 41
0.0
 71
     1
 72
     1
  1
設計
  7
SLDTEXTSTYLE3
 73
     1
 44
1.0
  0
MTEXT
  5
230
330
1F
100
AcDbEntity
  8
0
  6
Continuous
 62
     7
370
     0
100
AcDbMText
 10
1078.309207473
 20
75.0172638347
 30
0.0
 40
13.2291666667
 41
0.0
 71
     1
 72
     1
  1
日付
  7
SLDTEXTSTYLE3
 73
     1
 44
1.0
  0
MTEXT
  5
231
330
1F
100
AcDbEntity
  8
0
  6
Continuous
 62
     7
370
     0
100
AcDbMText
 10
1077.9585726727
 20
110.5242077912
 30
0.0
 40
13.2291666667
 41
0.0
 71
     1
 72
     1
  1
製図
  7
SLDTEXTSTYLE3
 73
     1
 44
1.0
  0
MTEXT
  5
232
330
1F
100
AcDbEntity
  8
0
  6
Continuous
 62
     7
370
     0
100
AcDbMText
 10
68.6784236236
 20
75.0172638347
 30
0.0
 40
13.2291666667
 41
0.0
 71
     1
 72
     1
  1
NO.
  7
SLDTEXTSTYLE0
 73
     1
 44
1.0
  0
MTEXT
  5
233
330
1F
100
AcDbEntity
  8
0
  6
Continuous
 62
     7
370
     0
100
AcDbMText
 10
290.8688895196
 20
75.0172638347
 30
0.0
 40
13.2291666667
 41
0.0
 71
     1
 72
     1
  1
改定履歴 / REVISION HISTORY
  7
SLDTEXTSTYLE3
 73
     1
 44
1.0
  0
MTEXT
  5
234
330
1F
100
AcDbEntity
  8
0
  6
Continuous
 62
     7
370
     0
100
AcDbMText
 10
806.7843127708
 20
75.0172638347
 30
0.0
 40
13.2291666667
 41
0.0
 71
     1
 72
     1
  1
日付
  7
SLDTEXTSTYLE3
 73
     1
 44
1.0
  0
MTEXT
  5
235
330
1F
100
AcDbEntity
  8
0
  6
Continuous
 62
     7
370
     0
100
AcDbMText
 10
898.8877822588
 20
75.0172638347
 30
0.0
 40
13.2291666667
 41
0.0
 71
     1
 72
     1
  1
名前 / NAME
  7
SLDTEXTSTYLE3
 73
     1
 44
1.0
  0
MTEXT
  5
236
330
1F
100
AcDbEntity
  8
0
  6
Continuous
 62
     7
370
     0
100
AcDbMText
 10
1854.8440978197
 20
345.3225896582
 30
0.0
 40
13.2291666667
 41
0.0
 71
     2
 72
     1
  1
品番 / PART NO.
  7
SLDTEXTSTYLE3
 73
     1
 44
1.0
  0
MTEXT
  5
237
330
1F
100
AcDbEntity
  8
レイヤー_1
 62
     7
100
AcDbMText
 10
1851.7741408217
 20
307.8225896582
 30
0.0
 40
13.2291666667
 41
0.0
 71
     2
 72
     1
  1
HBC-C73P/N/K/R/G/S
  7
SLDTEXTSTYLE0
 73
     1
 44
1.0
  0
MTEXT
  5
238
330
1F
100
AcDbEntity
  8
レイヤー_1
 62
     7
100
AcDbMText
 10
1856.8943148993
 20
270.3225896582
 30
0.0
 40
13.2291666667
 41
0.0
 71
     2
 72
     1
  1
色 / COLOR
  7
SLDTEXTSTYLE3
 73
     1
 44
1.0
  0
INSERT
  5
23F
330
1F
100
AcDbEntity
  8
レイヤー_1
 62
     7
100
AcDbBlockReference
  2
SW_NOTE_0
 10
1681.5437399021
 20
225.8954406242
 30
0.0
  0
MTEXT
  5
240
330
1F
100
AcDbEntity
  8
レイヤー_1
 62
     7
100
AcDbMText
 10
1851.7496363091
 20
195.3225896582
 30
0.0
 40
13.2291666667
 41
0.0
 71
     2
 72
     1
  1
品名 / DRAWING NAME
  7
SLDTEXTSTYLE3
 73
     1
 44
1.0
  0
MTEXT
  5
241
330
1F
100
AcDbEntity
  8
レイヤー_1
 62
     7
100
AcDbMText
 10
1848.5418692746
 20
157.8225896582
 30
0.0
 40
13.2291666667
 41
0.0
 71
     2
 72
     1
  1
エバーアートポールライト　GEMS
  7
SLDTEXTSTYLE3
 73
     1
 44
1.0
  0
MTEXT
  5
242
330
1F
100
AcDbEntity
  8
レイヤー_1
 62
     7
100
AcDbMText
 10
1480.3533220974
 20
307.4419997461
 30
0.0
 40
13.2291666667
 41
0.0
 71
     2
 72
     1
  1
4.5W
  7
SLDTEXTSTYLE0
 73
     1
 44
1.0
  0
MTEXT
  5
243
330
1F
100
AcDbEntity
  8
レイヤー_1
 62
     7
100
AcDbMText
 10
1476.3707915569
 20
269.9419997461
 30
0.0
 40
13.2291666667
 41
0.0
 71
     2
 72
     1
  1
光源 / LIGHT
  7
SLDTEXTSTYLE3
 73
     1
 44
1.0
  0
MTEXT
  5
244
330
1F
100
AcDbEntity
  8
レイヤー_1
 62
     7
100
AcDbMText
 10
1467.768776988
 20
232.4419997461
 30
0.0
 40
13.2291666667
 41
0.0
 71
     2
 72
     1
  1
ローボルトLED電球 GEMS　白～電
  7
SLDTEXTSTYLE3
 73
     1
 44
1.0
  0
MTEXT
  5
245
330
1F
100
AcDbEntity
  8
レイヤー_1
 62
     7
100
AcDbMText
 10
1475.4551621651
 20
194.9419997461
 30
0.0
 40
13.2291666667
 41
0.0
 71
     2
 72
     1
  1
重量 / WEIGHT
  7
SLDTEXTSTYLE3
 73
     1
 44
1.0
  0
MTEXT
  5
246
330
1F
100
AcDbEntity
  8
レイヤー_1
 62
     7
100
AcDbMText
 10
1479.2784550662
 20
157.4419997461
 30
0.0
 40
13.2291666667
 41
0.0
 71
     2
 72
     1
  1
約2.4kg
  7
SLDTEXTSTYLE3
 73
     1
 44
1.0
  0
MTEXT
  5
247
330
1F
100
AcDbEntity
  8
レイヤー_1
 62
     7
100
AcDbMText
 10
1210.9261060587
 20
75.2721749144
 30
0.0
 40
15.875
 41
0.0
 71
     2
 72
     1
  1
2019/09/06
  7
SLDTEXTSTYLE0
 73
     1
 44
1.0
  0
MTEXT
  5
248
330
1F
100
AcDbEntity
  8
レイヤー_1
 62
     7
100
AcDbMText
 10
1216.3831439099
 20
110.1400015919
 30
0.0
 40
15.875
 41
0.0
 71
     2
 72
     1
  1
青木
  7
SLDTEXTSTYLE3
 73
     1
 44
1.0
  0
MTEXT
  5
249
330
1F
100
AcDbEntity
  8
レイヤー_1
 62
     7
100
AcDbMText
 10
1216.3831439099
 20
160.1472853212
 30
0.0
 40
15.875
 41
0.0
 71
     2
 72
     1
  1
小林
  7
SLDTEXTSTYLE3
 73
     1
 44
1.0
  0
MTEXT
  5
24A
330
1F
100
AcDbEntity
  8
レイヤー_1
 62
     7
100
AcDbMText
 10
1216.3831439099
 20
227.0628805935
 30
0.0
 40
15.875
 41
0.0
 71
     2
 72
     1
  1
小林
  7
SLDTEXTSTYLE3
 73
     1
 44
1.0
  0
MTEXT
  5
24B
330
1F
100
AcDbEntity
  8
レイヤー_1
 62
     7
100
AcDbMText
 10
1217.7887427404
 20
294.460760529
 30
0.0
 40
15.875
 41
0.0
 71
     2
 72
     1
  1
原
  7
SLDTEXTSTYLE3
 73
     1
 44
1.0
  0
MTEXT
  5
24C
330
1F
100
AcDbEntity
  8
レイヤー_1
 62
     7
100
AcDbMText
 10
1579.6650964677
 20
81.5313310262
 30
0.0
 40
15.875
 41
0.0
 71
     2
 72
     1
  1
1:5
  7
SLDTEXTSTYLE0
 73
     1
 44
1.0
  0
MTEXT
  5
24D
330
1F
100
AcDbEntity
  8
レイヤー_1
 62
     7
100
AcDbMText
 10
75.176214641
 20
1418.8526770725
 30
0.0
 40
17.5
 41
0.0
 71
     2
 72
     1
  1
No.
  7
SLDTEXTSTYLE0
 73
     1
 44
1.0
  0
MTEXT
  5
24E
330
1F
100
AcDbEntity
  8
レイヤー_1
 62
     7
100
AcDbMText
 10
199.7994788736
 20
1419.1960846008
 30
0.0
 40
17.5
 41
0.0
 71
     2
 72
     1
  1
部品名
  7
SLDTEXTSTYLE3
 73
     1
 44
1.0
  0
MTEXT
  5
24F
330
1F
100
AcDbEntity
  8
レイヤー_1
 62
     7
100
AcDbMText
 10
324.8663200252
 20
1418.8526770725
 30
0.0
 40
17.5
 41
0.0
 71
     2
 72
     1
  1
個数
  7
SLDTEXTSTYLE3
 73
     1
 44
1.0
  0
MTEXT
  5
250
330
1F
100
AcDbEntity
  8
レイヤー_1
 62
     7
100
AcDbMText
 10
449.8663200252
 20
1419.1960846008
 30
0.0
 40
17.5
 41
0.0
 71
     2
 72
     1
  1
材質
  7
SLDTEXTSTYLE3
 73
     1
 44
1.0
  0
MTEXT
  5
251
330
1F
100
AcDbEntity
  8
レイヤー_1
 62
     7
100
AcDbMText
 10
324.8298612563
 20
1368.8526770725
 30
0.0
 40
17.5
 41
0.0
 71
     2
 72
     1
  1
1
  7
SLDTEXTSTYLE0
 73
     1
 44
1.0
  0
MTEXT
  5
252
330
1F
100
AcDbEntity
  8
レイヤー_1
 62
     7
100
AcDbMText
 10
199.7387158126
 20
1369.1960846008
 30
0.0
 40
17.5
 41
0.0
 71
     2
 72
     1
  1
ガラスグローブ
  7
SLDTEXTSTYLE3
 73
     1
 44
1.0
  0
MTEXT
  5
253
330
1F
100
AcDbEntity
  8
レイヤー_1
 62
     7
100
AcDbMText
 10
74.8298612563
 20
1368.8526770725
 30
0.0
 40
17.5
 41
0.0
 71
     2
 72
     1
  1
1
  7
SLDTEXTSTYLE0
 73
     1
 44
1.0
  0
MTEXT
  5
254
330
1F
100
AcDbEntity
  8
レイヤー_1
 62
     7
100
AcDbMText
 10
449.7022577189
 20
1369.1960846008
 30
0.0
 40
17.5
 41
0.0
 71
     2
 72
     1
  1
ガラス
  7
SLDTEXTSTYLE3
 73
     1
 44
1.0
  0
MTEXT
  5
255
330
1F
100
AcDbEntity
  8
レイヤー_1
 62
     7
100
AcDbMText
 10
74.8298612563
 20
1318.8526770725
 30
0.0
 40
17.5
 41
0.0
 71
     2
 72
     1
  1
2
  7
SLDTEXTSTYLE0
 73
     1
 44
1.0
  0
MTEXT
  5
256
330
1F
100
AcDbEntity
  8
レイヤー_1
 62
     7
100
AcDbMText
 10
324.8298612563
 20
1318.8526770725
 30
0.0
 40
17.5
 41
0.0
 71
     2
 72
     1
  1
1
  7
SLDTEXTSTYLE0
 73
     1
 44
1.0
  0
MTEXT
  5
257
330
1F
100
AcDbEntity
  8
レイヤー_1
 62
     7
100
AcDbMText
 10
449.8359373771
 20
1319.1960846008
 30
0.0
 40
17.5
 41
0.0
 71
     2
 72
     1
  1
アルミ
  7
SLDTEXTSTYLE3
 73
     1
 44
1.0
  0
MTEXT
  5
258
330
1F
100
AcDbEntity
  8
レイヤー_1
 62
     7
100
AcDbMText
 10
199.8541672155
 20
1319.1960846008
 30
0.0
 40
17.5
 41
0.0
 71
     2
 72
     1
  1
ポール
  7
SLDTEXTSTYLE3
 73
     1
 44
1.0
  0
MTEXT
  5
259
330
1F
100
AcDbEntity
  8
レイヤー_1
 62
     0
100
AcDbMText
 10
1466.7796409378
 20
344.9444971727
 30
0.0
 40
13.2291666667
 41
0.0
 71
     2
 72
     1
  1
消費電力 / POWER CONSUMPTION
  7
SLDTEXTSTYLE3
 73
     1
 44
1.0
  0
MTEXT
  5
25A
330
1F
100
AcDbEntity
  8
レイヤー_1
 62
     7
100
AcDbMText
 10
449.8663185909
 20
1269.1960846008
 30
0.0
 40
17.5
 41
0.0
 71
     2
 72
     1
  1
シール
  7
SLDTEXTSTYLE3
 73
     1
 44
1.0
  0
MTEXT
  5
25B
330
1F
100
AcDbEntity
  8
レイヤー_1
 62
     7
100
AcDbMText
 10
324.8298612563
 20
1268.8526770725
 30
0.0
 40
17.5
 41
0.0
 71
     2
 72
     1
  1
1
  7
SLDTEXTSTYLE0
 73
     1
 44
1.0
  0
MTEXT
  5
25C
330
1F
100
AcDbEntity
  8
レイヤー_1
 62
     7
100
AcDbMText
 10
199.7812533751
 20
1269.1960846008
 30
0.0
 40
17.5
 41
0.0
 71
     2
 72
     1
  1
G.L シール
  7
SLDTEXTSTYLE3
 73
     1
 44
1.0
  0
MTEXT
  5
25D
330
1F
100
AcDbEntity
  8
レイヤー_1
 62
     7
100
AcDbMText
 10
74.8298612563
 20
1268.8526770725
 30
0.0
 40
17.5
 41
0.0
 71
     2
 72
     1
  1
3
  7
SLDTEXTSTYLE0
 73
     1
 44
1.0
  0
MTEXT
  5
25E
330
1F
100
AcDbEntity
  8
レイヤー_1
 62
     7
100
AcDbMText
 10
199.8298604786
 20
1219.1960846008
 30
0.0
 40
17.5
 41
0.0
 71
     2
 72
     1
  1
ネカセ棒
  7
SLDTEXTSTYLE3
 73
     1
 44
1.0
  0
MTEXT
  5
25F
330
1F
100
AcDbEntity
  8
レイヤー_1
 62
     7
100
AcDbMText
 10
324.8298612563
 20
1218.8526770725
 30
0.0
 40
17.5
 41
0.0
 71
     2
 72
     1
  1
1
  7
SLDTEXTSTYLE0
 73
     1
 44
1.0
  0
MTEXT
  5
260
330
1F
100
AcDbEntity
  8
レイヤー_1
 62
     7
100
AcDbMText
 10
74.8298612563
 20
1218.8526770725
 30
0.0
 40
17.5
 41
0.0
 71
     2
 72
     1
  1
4
  7
SLDTEXTSTYLE0
 73
     1
 44
1.0
  0
MTEXT
  5
261
330
1F
100
AcDbEntity
  8
レイヤー_1
 62
     7
100
AcDbMText
 10
449.8359373771
 20
1219.1960846008
 30
0.0
 40
17.5
 41
0.0
 71
     2
 72
     1
  1
アルミ
  7
SLDTEXTSTYLE3
 73
     1
 44
1.0
  0
LINE
  5
262
330
1F
100
AcDbEntity
  8
0
  6
SLD-実線
 62
     7
370
    35
100
AcDbLine
 10
1169.8362412236
 20
477.3028355653
 30
0.0
 11
1282.3362456939
 21
477.3028355653
 31
0.0
  0
LINE
  5
263
330
1F
100
AcDbEntity
  8
0
  6
SLD-実線
 62
     7
370
    35
100
AcDbLine
 10
1357.3362486741
 20
477.3028355653
 30
0.0
 11
1469.8362531445
 21
477.3028355653
 31
0.0
  0
LINE
  5
264
330
1F
100
AcDbEntity
  8
0
  6
SLD-実線
 62
     7
370
    35
100
AcDbLine
 10
1469.8362531445
 20
490.3028470094
 30
0.0
 11
1357.3362486741
 21
490.3028470094
 31
0.0
  0
LINE
  5
265
330
1F
100
AcDbEntity
  8
0
  6
SLD-実線
 62
     7
370
    35
100
AcDbLine
 10
1282.3362456939
 20
490.3028470094
 30
0.0
 11
1169.8362412236
 21
490.3028470094
 31
0.0
  0
LINE
  5
266
330
1F
100
AcDbEntity
  8
0
  6
SLD-実線
 62
     7
370
    35
100
AcDbLine
 10
1282.3362456939
 20
1252.3028284872
 30
0.0
 11
1281.2168332121
 21
1252.2048924679
 31
0.0
  0
LINE
  5
267
330
1F
100
AcDbEntity
  8
0
  6
SLD-実線
 62
     7
370
    35
100
AcDbLine
 10
1281.2168332121
 20
1245.4007652218
 30
0.0
 11
1282.3362456939
 21
1245.3028292025
 31
0.0
  0
ARC
  5
268
330
1F
100
AcDbEntity
  8
0
  6
SLD-実線
 62
     7
370
    35
100
AcDbCircle
 10
1281.3301344598
 20
1246.695818136
 30
0.0
 40
1.299999999999884
100
AcDbArc
 50
195.8808500083
 51
265.0
  0
ARC
  5
269
330
1F
100
AcDbEntity
  8
0
  6
SLD-実線
 62
     7
370
    35
100
AcDbCircle
 10
1281.3301344598
 20
1250.9098396431
 30
0.0
 40
1.300000000000105
100
AcDbArc
 50
95.0
 51
164.1191499917
  0
ARC
  5
26A
330
1F
100
AcDbEntity
  8
0
  6
SLD-実線
 62
     7
370
    35
100
AcDbCircle
 10
1288.736247184
 20
1248.8028288895
 30
0.0
 40
9.000000000000144
100
AcDbArc
 50
184.8802913135
 51
195.8808500083
  0
ARC
  5
26B
330
1F
100
AcDbEntity
  8
0
  6
SLD-実線
 62
     7
370
    35
100
AcDbCircle
 10
1288.736247184
 20
1248.8028288895
 30
0.0
 40
9.000000000000124
100
AcDbArc
 50
164.1191499917
 51
175.1197086865
  0
LINE
  5
26C
330
1F
100
AcDbEntity
  8
0
  6
SLD-実線
 62
     7
370
    35
100
AcDbLine
 10
1469.8362531445
 20
483.8028412873
 30
0.0
 11
1469.8362531445
 21
477.3028355653
 31
0.0
  0
LINE
  5
26D
330
1F
100
AcDbEntity
  8
0
  6
SLD-実線
 62
     7
370
    35
100
AcDbLine
 10
1469.8362531445
 20
490.3028470094
 30
0.0
 11
1469.8362531445
 21
483.8028412873
 31
0.0
  0
LINE
  5
26E
330
1F
100
AcDbEntity
  8
0
  6
SLD-実線
 62
     7
370
    35
100
AcDbLine
 10
1169.8362412236
 20
483.8028412873
 30
0.0
 11
1169.8362412236
 21
477.3028355653
 31
0.0
  0
LINE
  5
26F
330
1F
100
AcDbEntity
  8
0
  6
SLD-実線
 62
     7
370
    35
100
AcDbLine
 10
1169.8362412236
 20
490.3028470094
 30
0.0
 11
1169.8362412236
 21
483.8028412873
 31
0.0
  0
LINE
  5
270
330
1F
100
AcDbEntity
  8
0
  6
SLD-実線
 62
     7
370
    35
100
AcDbLine
 10
1357.0362473211
 20
468.8028555924
 30
0.0
 11
1282.6362470469
 21
468.8028555924
 31
0.0
  0
LINE
  5
271
330
1F
100
AcDbEntity
  8
0
  6
SLD-実線
 62
     7
370
    35
100
AcDbLine
 10
1282.3362456939
 20
1268.8028288635
 30
0.0
 11
1282.3362456939
 21
468.8028555924
 31
0.0
  0
LINE
  5
272
330
1F
100
AcDbEntity
  8
0
  6
SLD-実線
 62
     7
370
    35
100
AcDbLine
 10
1282.6362470469
 20
468.8028555924
 30
0.0
 11
1282.3362456939
 21
468.8028555924
 31
0.0
  0
LINE
  5
273
330
1F
100
AcDbEntity
  8
0
  6
SLD-実線
 62
     7
370
    35
100
AcDbLine
 10
1357.3362486741
 20
1268.8028288635
 30
0.0
 11
1357.3362486741
 21
468.8028555924
 31
0.0
  0
LINE
  5
274
330
1F
100
AcDbEntity
  8
0
  6
SLD-実線
 62
     7
370
    35
100
AcDbLine
 10
1357.3362486741
 20
468.8028555924
 30
0.0
 11
1357.0362473211
 21
468.8028555924
 31
0.0
  0
LWPOLYLINE
  5
275
330
1F
100
AcDbEntity
  8
0
  6
SLD-実線
 62
     7
370
    35
100
AcDbPolyline
 90
        3
 70
   128
 43
0.0
 10
1279.7498697719
 20
1248.9541296477
 10
1279.7588365457
 20
1249.1164871121
 10
1279.7711076519
 20
1249.2741115952
  0
LWPOLYLINE
  5
276
330
1F
100
AcDbEntity
  8
0
  6
SLD-実線
 62
     7
370
    35
100
AcDbPolyline
 90
        3
 70
   128
 43
0.0
 10
1279.768876203
 20
1248.8028288448
 10
1279.7588365457
 20
1248.8706850076
 10
1279.7498697719
 20
1248.9541296477
  0
ARC
  5
277
330
1F
100
AcDbEntity
  8
0
  6
SLD-実線
 62
     7
370
    35
100
AcDbCircle
 10
1286.9007385887
 20
1248.6460854877
 30
0.0
 40
7.157783166906969
100
AcDbArc
 50
182.5185989155
 51
192.9509446311
  0
ARC
  5
278
330
1F
100
AcDbEntity
  8
0
  6
SLD-実線
 62
     7
370
    35
100
AcDbCircle
 10
1281.7638983889
 20
1247.2018974463
 30
0.0
 40
1.845812373384979
100
AcDbArc
 50
175.0274875674
 51
184.9725124326
  0
ARC
  5
279
330
1F
100
AcDbEntity
  8
0
  6
SLD-実線
 62
     7
370
    35
100
AcDbCircle
 10
1286.9007385887
 20
1248.9660674352
 30
0.0
 40
7.157783166893044
100
AcDbArc
 50
182.5185989155
 51
192.9509446311
  0
ARC
  5
27A
330
1F
100
AcDbEntity
  8
0
  6
SLD-実線
 62
     7
370
    35
100
AcDbCircle
 10
1281.7886447412
 20
1248.4672975507
 30
0.0
 40
2.047081886265925
100
AcDbArc
 50
155.5572014247
 51
174.8365862147
  0
ARC
  5
27B
330
1F
100
AcDbEntity
  8
0
  6
SLD-実線
 62
     7
370
    35
100
AcDbCircle
 10
1286.8944352061
 20
1249.6256402323
 30
0.0
 40
6.976350820573174
100
AcDbArc
 50
177.4425556646
 51
182.5574443354
  0
ARC
  5
27C
330
1F
100
AcDbEntity
  8
0
  6
SLD-実線
 62
     7
370
    35
100
AcDbCircle
 10
1281.7886340159
 20
1249.0898839383
 30
0.0
 40
2.047070949469463
100
AcDbArc
 50
155.5571494317
 51
174.8366382077
  0
LINE
  5
27D
330
1F
100
AcDbEntity
  8
0
  6
SLD-実線
 62
     7
370
    35
100
AcDbLine
 10
1279.9075091562
 20
1249.2741115952
 30
0.0
 11
1279.7498697719
 21
1249.2741115952
 31
0.0
  0
LINE
  5
27E
330
1F
100
AcDbEntity
  8
0
  6
SLD-実線
 62
     7
370
    35
100
AcDbLine
 10
1279.7711076519
 20
1248.3315460945
 30
0.0
 11
1279.7498697719
 21
1248.3315460945
 31
0.0
  0
LINE
  5
27F
330
1F
100
AcDbEntity
  8
0
  6
SLD-実線
 62
     7
370
    35
100
AcDbLine
 10
1279.8001760921
 20
1248.9541296477
 30
0.0
 11
1279.7498697719
 21
1248.9541296477
 31
0.0
  0
LINE
  5
280
330
1F
100
AcDbEntity
  8
0
  6
SLD-実線
 62
     7
370
    35
100
AcDbLine
 10
1283.8362487337
 20
1341.8028291876
 30
0.0
 11
1355.8362456343
 21
1341.8028291876
 31
0.0
  0
ARC
  5
281
330
1F
100
AcDbEntity
  8
0
  6
SLD-実線
 62
     7
370
    35
100
AcDbCircle
 10
1355.836247184
 20
1338.8028288895
 30
0.0
 40
3.000000000000227
100
AcDbArc
 50
0.0
 51
90.0
  0
LINE
  5
282
330
1F
100
AcDbEntity
  8
0
  6
SLD-実線
 62
     7
370
    35
100
AcDbLine
 10
1358.8362479887
 20
1338.8028305585
 30
0.0
 11
1358.8362479887
 21
1274.8028289156
 31
0.0
  0
ARC
  5
283
330
1F
100
AcDbEntity
  8
0
  6
SLD-実線
 62
     7
370
    35
100
AcDbCircle
 10
1355.836247184
 20
1274.8028288895
 30
0.0
 40
3.0
100
AcDbArc
 50
270.0
 51
0.0
  0
LINE
  5
284
330
1F
100
AcDbEntity
  8
0
  6
SLD-実線
 62
     7
370
    35
100
AcDbLine
 10
1280.8362463794
 20
1274.8028289156
 30
0.0
 11
1280.8362463794
 21
1338.8028305585
 31
0.0
  0
ARC
  5
285
330
1F
100
AcDbEntity
  8
0
  6
SLD-実線
 62
     7
370
    35
100
AcDbCircle
 10
1283.836247184
 20
1338.8028288895
 30
0.0
 40
3.000000000000227
100
AcDbArc
 50
90.0
 51
180.0
  0
ARC
  5
286
330
1F
100
AcDbEntity
  8
0
  6
SLD-実線
 62
     7
370
    35
100
AcDbCircle
 10
1283.836247184
 20
1274.8028288895
 30
0.0
 40
3.0
100
AcDbArc
 50
180.0
 51
270.0
  0
LINE
  5
287
330
1F
100
AcDbEntity
  8
0
  6
SLD-実線
 62
     7
370
    35
100
AcDbLine
 10
1358.3362469754
 20
1268.8028288635
 30
0.0
 11
1358.3362469754
 21
1271.8028288895
 31
0.0
  0
LINE
  5
288
330
1F
100
AcDbEntity
  8
0
  6
SLD-実線
 62
     7
370
    35
100
AcDbLine
 10
1281.3362473926
 20
1268.8028288635
 30
0.0
 11
1358.3362469754
 21
1268.8028288635
 31
0.0
  0
LINE
  5
289
330
1F
100
AcDbEntity
  8
0
  6
SLD-実線
 62
     7
370
    35
100
AcDbLine
 10
1281.3362473926
 20
1271.8028288895
 30
0.0
 11
1358.3362469754
 21
1271.8028288895
 31
0.0
  0
LINE
  5
28A
330
1F
100
AcDbEntity
  8
0
  6
SLD-実線
 62
     7
370
    35
100
AcDbLine
 10
1281.3362473926
 20
1268.8028288635
 30
0.0
 11
1281.3362473926
 21
1271.8028288895
 31
0.0
  0
DIMENSION
  5
28B
330
1F
100
AcDbEntity
  8
レイヤー_1
 62
     7
100
AcDbDimension
  2
_D_1
 10
1469.836247184
 20
418.8028288895
 30
0.0
 11
1319.836247184
 21
418.8028288895
 31
0.0
 70
   160
  1
<>
 71
     2
 42
-1.0
  3
SLDDIMSTYLE1
100
AcDbAlignedDimension
 13
1169.836247184
 23
477.3028288895
 33
0.0
 14
1469.836247184
 24
477.3028288895
 34
0.0
100
AcDbRotatedDimension
  0
INSERT
  5
2A1
330
1F
100
AcDbEntity
  8
レイヤー_1
 62
     7
100
AcDbBlockReference
  2
SW_NOTE_1
 10
1503.876146789
 20
553.8990825688
 30
0.0
  0
LEADER
  5
2A3
330
1F
100
AcDbEntity
  8
レイヤー_1
 62
     7
100
AcDbLeader
  3
SLDDIMSTYLE2
 76
     2
 10
1411.3498833019
 20
490.3028288895
 30
0.0
 10
1503.876146789
 20
553.8990825688
 30
0.0
  0
CIRCLE
  5
2A4
330
1F
100
AcDbEntity
  8
0
  6
SLD-実線
 62
     7
370
    35
100
AcDbCircle
 10
909.1272623704
 20
483.8028288895
 30
0.0
 40
4.5
  0
CIRCLE
  5
2A5
330
1F
100
AcDbEntity
  8
0
  6
SLD-実線
 62
     7
370
    35
100
AcDbCircle
 10
909.1272623704
 20
483.8028288895
 30
0.0
 40
6.500000000000114
  0
LINE
  5
2A6
330
1F
100
AcDbEntity
  8
0
  6
SLD-実線
 62
     7
370
    35
100
AcDbLine
 10
871.6272608803
 20
1268.8028288635
 30
0.0
 11
871.6272608803
 21
468.8028555924
 31
0.0
  0
LINE
  5
2A7
330
1F
100
AcDbEntity
  8
0
  6
SLD-実線
 62
     7
370
    35
100
AcDbLine
 10
871.9272622333
 20
468.8028555924
 30
0.0
 11
871.6272608803
 21
468.8028555924
 31
0.0
  0
LINE
  5
2A8
330
1F
100
AcDbEntity
  8
0
  6
SLD-実線
 62
     7
370
    35
100
AcDbLine
 10
946.3272625075
 20
468.8028555924
 30
0.0
 11
871.9272622333
 21
468.8028555924
 31
0.0
  0
CIRCLE
  5
2A9
330
1F
100
AcDbEntity
  8
0
  6
SLD-実線
 62
     7
370
    35
100
AcDbCircle
 10
909.1272623704
 20
483.8028288895
 30
0.0
 40
7.499999999999943
  0
CIRCLE
  5
2AA
330
1F
100
AcDbEntity
  8
0
  6
SLD-実線
 62
     7
370
    35
100
AcDbCircle
 10
909.1272623704
 20
818.8028288895
 30
0.0
 40
5.0
  0
LINE
  5
2AB
330
1F
100
AcDbEntity
  8
0
  6
SLD-実線
 62
     7
370
    35
100
AcDbLine
 10
924.1272620351
 20
588.8028007562
 30
0.0
 11
924.1272620351
 21
548.8028389031
 31
0.0
  0
ARC
  5
2AC
330
1F
100
AcDbEntity
  8
0
  6
SLD-実線
 62
     7
370
    35
100
AcDbCircle
 10
909.1272623704
 20
588.8028288895
 30
0.0
 40
15.0
100
AcDbArc
 50
0.0
 51
180.0
  0
LINE
  5
2AD
330
1F
100
AcDbEntity
  8
0
  6
SLD-実線
 62
     7
370
    35
100
AcDbLine
 10
894.1272627057
 20
548.8028389031
 30
0.0
 11
894.1272627057
 21
588.8028007562
 31
0.0
  0
ARC
  5
2AE
330
1F
100
AcDbEntity
  8
0
  6
SLD-実線
 62
     7
370
    35
100
AcDbCircle
 10
909.1272623704
 20
548.8028288895
 30
0.0
 40
15.0
100
AcDbArc
 50
180.0
 51
0.0
  0
LINE
  5
2AF
330
1F
100
AcDbEntity
  8
0
  6
SLD-実線
 62
     7
370
    35
100
AcDbLine
 10
946.6272638605
 20
1268.8028288635
 30
0.0
 11
946.6272638605
 21
468.8028555924
 31
0.0
  0
LINE
  5
2B0
330
1F
100
AcDbEntity
  8
0
  6
SLD-実線
 62
     7
370
    35
100
AcDbLine
 10
946.6272638605
 20
468.8028555924
 30
0.0
 11
946.3272625075
 21
468.8028555924
 31
0.0
  0
LWPOLYLINE
  5
2B1
330
1F
100
AcDbEntity
  8
0
  6
SLD-実線
 62
     7
370
    35
100
AcDbPolyline
 90
        9
 70
   128
 43
0.0
 10
908.6559790671
 20
1248.9541296477
 10
908.5725342815
 20
1249.1164871121
 10
908.4891900497
 20
1249.2786489988
 10
908.4059807432
 20
1249.4405482525
 10
908.3229408211
 20
1249.6021178181
 10
908.2401045093
 20
1249.7632906402
 10
908.157506034
 20
1249.9240015263
 10
908.0751795049
 20
1250.0841834212
 10
907.9931589735
 20
1250.2437692696
  0
LWPOLYLINE
  5
2B2
330
1F
100
AcDbEntity
  8
0
  6
SLD-実線
 62
     7
370
    35
100
AcDbPolyline
 90
        9
 70
   128
 43
0.0
 10
907.3663397652
 20
1248.291309234
 10
907.5259259629
 20
1248.3733308131
 10
907.6861075086
 20
1248.4556578661
 10
907.8468181619
 20
1248.5382550026
 10
908.0079915661
 20
1248.6210924203
 10
908.1695610734
 20
1248.7041310037
 10
908.3314601525
 20
1248.7873409504
 10
908.4936218064
 20
1248.8706850076
 10
908.6559790671
 20
1248.9541296477
  0
LWPOLYLINE
  5
2B3
330
1F
100
AcDbEntity
  8
0
  6
SLD-実線
 62
     7
370
    35
100
AcDbPolyline
 90
        9
 70
   128
 43
0.0
 10
907.6863219456
 20
1247.6687256808
 10
907.6463379392
 20
1247.7465209181
 10
907.6063421748
 20
1247.8243403698
 10
907.5663384942
 20
1247.9021747226
 10
907.5263308554
 20
1247.9800183887
 10
907.4863232167
 20
1248.0578601921
 10
907.4463195361
 20
1248.135694545
 10
907.4063237717
 20
1248.2135139967
 10
907.3663397652
 20
1248.291309234
  0
LWPOLYLINE
  5
2B4
330
1F
100
AcDbEntity
  8
0
  6
SLD-実線
 62
     7
370
    35
100
AcDbPolyline
 90
        9
 70
   128
 43
0.0
 10
908.9759612038
 20
1248.3315460945
 10
908.8136039285
 20
1248.2481014544
 10
908.6514422747
 20
1248.1647573972
 10
908.4895432538
 20
1248.0815474505
 10
908.32797363
 20
1247.9985070044
 10
908.1668002841
 20
1247.9156714494
 10
908.0060895726
 20
1247.8330724502
 10
907.8459081433
 20
1247.7507453973
 10
907.6863219456
 20
1247.6687256808
  0
LWPOLYLINE
  5
2B5
330
1F
100
AcDbEntity
  8
0
  6
SLD-実線
 62
     7
370
    35
100
AcDbPolyline
 90
        9
 70
   128
 43
0.0
 10
909.638781341
 20
1247.0419064725
 10
909.5567607805
 20
1247.201492321
 10
909.4744342514
 20
1247.3616742159
 10
909.391835747
 20
1247.522385102
 10
909.3089994353
 20
1247.6835579241
 10
909.2259594985
 20
1247.8451274896
 10
909.1427502212
 20
1248.0070267434
 10
909.0594059821
 20
1248.16918863
 10
908.9759612038
 20
1248.3315460945
  0
LWPOLYLINE
  5
2B6
330
1F
100
AcDbEntity
  8
0
  6
SLD-実線
 62
     7
370
    35
100
AcDbPolyline
 90
        9
 70
   128
 43
0.0
 10
910.2613657673
 20
1247.36188842
 10
910.1835695987
 20
1247.3219048793
 10
910.1057503798
 20
1247.2819083
 10
910.0279157942
 20
1247.2419042701
 10
909.9500735833
 20
1247.201896515
 10
909.8722313724
 20
1247.1618906224
 10
909.7943967867
 20
1247.1218865926
 10
909.7165775679
 20
1247.0818900133
 10
909.638781341
 20
1247.0419064725
  0
LWPOLYLINE
  5
2B7
330
1F
100
AcDbEntity
  8
0
  6
SLD-実線
 62
     7
370
    35
100
AcDbPolyline
 90
        9
 70
   128
 43
0.0
 10
909.5985456738
 20
1248.651528042
 10
909.6819904593
 20
1248.4891705776
 10
909.7653346911
 20
1248.3270086909
 10
909.8485439976
 20
1248.1651094372
 10
909.9315839198
 20
1248.0035398716
 10
910.0144202316
 20
1247.8423670495
 10
910.0970187068
 20
1247.6816561634
 10
910.1793452359
 20
1247.5214742685
 10
910.2613657673
 20
1247.36188842
  0
LWPOLYLINE
  5
2B8
330
1F
100
AcDbEntity
  8
0
  6
SLD-実線
 62
     7
370
    35
100
AcDbPolyline
 90
        9
 70
   128
 43
0.0
 10
910.8881849756
 20
1249.3143484557
 10
910.7285987779
 20
1249.2323268766
 10
910.5684172322
 20
1249.1500016863
 10
910.407706579
 20
1249.0674026871
 10
910.2465331748
 20
1248.9845652694
 10
910.0849636674
 20
1248.901526686
 10
909.9230645883
 20
1248.8183167393
 10
909.7609029345
 20
1248.7349726821
 10
909.5985456738
 20
1248.651528042
  0
LWPOLYLINE
  5
2B9
330
1F
100
AcDbEntity
  8
0
  6
SLD-実線
 62
     7
370
    35
100
AcDbPolyline
 90
        9
 70
   128
 43
0.0
 10
910.5682027952
 20
1249.9369320089
 10
910.6081868017
 20
1249.8591367716
 10
910.648182566
 20
1249.7813173199
 10
910.6881862467
 20
1249.7034829671
 10
910.7281938854
 20
1249.625639301
 10
910.7682015242
 20
1249.5477974976
 10
910.8082052048
 20
1249.4699631447
 10
910.8482009692
 20
1249.392143693
 10
910.8881849756
 20
1249.3143484557
  0
LWPOLYLINE
  5
2BA
330
1F
100
AcDbEntity
  8
0
  6
SLD-実線
 62
     7
370
    35
100
AcDbPolyline
 90
        9
 70
   128
 43
0.0
 10
909.278563537
 20
1249.2741115952
 10
909.4409208123
 20
1249.3575562353
 10
909.6030824662
 20
1249.4409002925
 10
909.7649814871
 20
1249.5241102392
 10
909.9265511108
 20
1249.6071506852
 10
910.0877244568
 20
1249.6899862403
 10
910.2484351683
 20
1249.7725852395
 10
910.4086165975
 20
1249.8549122924
 10
910.5682027952
 20
1249.9369320089
  0
LWPOLYLINE
  5
2BB
330
1F
100
AcDbEntity
  8
0
  6
SLD-実線
 62
     7
370
    35
100
AcDbPolyline
 90
        9
 70
   128
 43
0.0
 10
908.6157433998
 20
1250.5637512172
 10
908.6977639603
 20
1250.4041653687
 10
908.7800904894
 20
1250.2439834738
 10
908.8626889938
 20
1250.0832725877
 10
908.9455253056
 20
1249.9220997656
 10
909.0285652423
 20
1249.7605302001
 10
909.1117745197
 20
1249.5986309463
 10
909.1951187588
 20
1249.4364690596
 10
909.278563537
 20
1249.2741115952
  0
LWPOLYLINE
  5
2BC
330
1F
100
AcDbEntity
  8
0
  6
SLD-実線
 62
     7
370
    35
100
AcDbPolyline
 90
        9
 70
   128
 43
0.0
 10
907.9931589735
 20
1250.2437692696
 10
908.0709551421
 20
1250.2837528104
 10
908.148774361
 20
1250.3237493897
 10
908.2266089467
 20
1250.3637534196
 10
908.3044511576
 20
1250.4037611747
 10
908.3822933684
 20
1250.4437689299
 10
908.4601279541
 20
1250.4837710971
 10
908.537947173
 20
1250.5237676764
 10
908.6157433998
 20
1250.5637512172
  0
CIRCLE
  5
2BD
330
1F
100
AcDbEntity
  8
0
  6
SLD-実線
 62
     7
370
    35
100
AcDbCircle
 10
909.1272623704
 20
1248.8028288895
 30
0.0
 40
3.499999999999755
  0
LINE
  5
2BE
330
1F
100
AcDbEntity
  8
0
  6
SLD-実線
 62
     7
370
    35
100
AcDbLine
 10
873.1272639201
 20
1341.8028291876
 30
0.0
 11
945.1272608207
 21
1341.8028291876
 31
0.0
  0
ARC
  5
2BF
330
1F
100
AcDbEntity
  8
0
  6
SLD-実線
 62
     7
370
    35
100
AcDbCircle
 10
945.1272623704
 20
1338.8028288895
 30
0.0
 40
3.0
100
AcDbArc
 50
0.0
 51
90.0
  0
LINE
  5
2C0
330
1F
100
AcDbEntity
  8
0
  6
SLD-実線
 62
     7
370
    35
100
AcDbLine
 10
948.1272631751
 20
1338.8028305585
 30
0.0
 11
948.1272631751
 21
1274.8028289156
 31
0.0
  0
ARC
  5
2C1
330
1F
100
AcDbEntity
  8
0
  6
SLD-実線
 62
     7
370
    35
100
AcDbCircle
 10
945.1272623704
 20
1274.8028288895
 30
0.0
 40
3.000000000000114
100
AcDbArc
 50
270.0
 51
0.0
  0
ARC
  5
2C2
330
1F
100
AcDbEntity
  8
0
  6
SLD-実線
 62
     7
370
    35
100
AcDbCircle
 10
873.1272623704
 20
1338.8028288895
 30
0.0
 40
3.0
100
AcDbArc
 50
90.0
 51
180.0
  0
LINE
  5
2C3
330
1F
100
AcDbEntity
  8
0
  6
SLD-実線
 62
     7
370
    35
100
AcDbLine
 10
870.1272615658
 20
1274.8028289156
 30
0.0
 11
870.1272615658
 21
1338.8028305585
 31
0.0
  0
ARC
  5
2C4
330
1F
100
AcDbEntity
  8
0
  6
SLD-実線
 62
     7
370
    35
100
AcDbCircle
 10
873.1272623704
 20
1274.8028288895
 30
0.0
 40
3.0
100
AcDbArc
 50
180.0
 51
270.0
  0
LINE
  5
2C5
330
1F
100
AcDbEntity
  8
0
  6
SLD-実線
 62
     7
370
    35
100
AcDbLine
 10
947.6272621618
 20
1268.8028288635
 30
0.0
 11
947.6272621618
 21
1271.8028288895
 31
0.0
  0
LINE
  5
2C6
330
1F
100
AcDbEntity
  8
0
  6
SLD-実線
 62
     7
370
    35
100
AcDbLine
 10
870.627262579
 20
1268.8028288635
 30
0.0
 11
947.6272621618
 21
1268.8028288635
 31
0.0
  0
LINE
  5
2C7
330
1F
100
AcDbEntity
  8
0
  6
SLD-実線
 62
     7
370
    35
100
AcDbLine
 10
870.627262579
 20
1268.8028288635
 30
0.0
 11
870.627262579
 21
1271.8028288895
 31
0.0
  0
LINE
  5
2C8
330
1F
100
AcDbEntity
  8
0
  6
SLD-実線
 62
     7
370
    35
100
AcDbLine
 10
870.627262579
 20
1271.8028288895
 30
0.0
 11
947.6272621618
 21
1271.8028288895
 31
0.0
  0
LINE
  5
2C9
330
1F
100
AcDbEntity
  8
レイヤー_1
 62
     7
370
    18
100
AcDbLine
 10
885.0468776127
 20
568.8028288895
 30
0.0
 11
931.3148268051
 21
568.8028288895
 31
0.0
  0
LINE
  5
2CA
330
1F
100
AcDbEntity
  8
レイヤー_1
 62
     7
370
    18
100
AcDbLine
 10
899.0132094751
 20
818.8028288895
 30
0.0
 11
919.5082057737
 21
818.8028288895
 31
0.0
  0
LINE
  5
2CB
330
1F
100
AcDbEntity
  8
レイヤー_1
 62
     7
370
    18
100
AcDbLine
 10
881.1272623704
 20
718.8028288895
 30
0.0
 11
937.1272623704
 21
718.8028288895
 31
0.0
  0
LINE
  5
2CC
330
1F
100
AcDbEntity
  8
レイヤー_1
 62
     7
370
    18
100
AcDbLine
 10
879.1272623704
 20
716.8028288895
 30
0.0
 11
879.1272623704
 21
690.8028288895
 31
0.0
  0
LINE
  5
2CD
330
1F
100
AcDbEntity
  8
レイヤー_1
 62
     7
370
    18
100
AcDbLine
 10
881.1272623704
 20
688.8028288895
 30
0.0
 11
937.1272623704
 21
688.8028288895
 31
0.0
  0
LINE
  5
2CE
330
1F
100
AcDbEntity
  8
レイヤー_1
 62
     7
370
    18
100
AcDbLine
 10
939.1272623704
 20
716.8028288895
 30
0.0
 11
939.1272623704
 21
690.8028288895
 31
0.0
  0
LINE
  5
2CF
330
1F
100
AcDbEntity
  8
レイヤー_1
 62
     7
370
    18
100
AcDbLine
 10
879.1272623704
 20
716.3028288895
 30
0.0
 11
907.6272623704
 21
716.3028288895
 31
0.0
  0
LINE
  5
2D0
330
1F
100
AcDbEntity
  8
レイヤー_1
 62
     7
370
    18
100
AcDbLine
 10
907.6272623704
 20
716.3028288895
 30
0.0
 11
909.1272623704
 21
718.8028288895
 31
0.0
  0
LINE
  5
2D1
330
1F
100
AcDbEntity
  8
レイヤー_1
 62
     7
370
    18
100
AcDbLine
 10
909.1272623704
 20
718.8028288895
 30
0.0
 11
910.6272623704
 21
716.3028288895
 31
0.0
  0
LINE
  5
2D2
330
1F
100
AcDbEntity
  8
レイヤー_1
 62
     7
370
    18
100
AcDbLine
 10
910.6272623704
 20
716.3028288895
 30
0.0
 11
939.1272623704
 21
716.3028288895
 31
0.0
  0
ARC
  5
2D3
330
1F
100
AcDbEntity
  8
レイヤー_1
 62
     7
370
    18
100
AcDbCircle
 10
881.1272623704
 20
690.8028288895
 30
0.0
 40
2.0
100
AcDbArc
 50
180.0
 51
270.0
  0
ARC
  5
2D4
330
1F
100
AcDbEntity
  8
レイヤー_1
 62
     7
370
    18
100
AcDbCircle
 10
937.1272623704
 20
690.8028288895
 30
0.0
 40
2.0
100
AcDbArc
 50
270.0
 51
0.0
  0
ARC
  5
2D5
330
1F
100
AcDbEntity
  8
レイヤー_1
 62
     7
370
    18
100
AcDbCircle
 10
937.1272623704
 20
716.8028288895
 30
0.0
 40
2.0
100
AcDbArc
 50
0.0
 51
90.0
  0
ARC
  5
2D6
330
1F
100
AcDbEntity
  8
レイヤー_1
 62
     7
370
    18
100
AcDbCircle
 10
881.1272623704
 20
716.8028288895
 30
0.0
 40
2.0
100
AcDbArc
 50
90.0
 51
180.0
  0
DIMENSION
  5
2D7
330
1F
100
AcDbEntity
  8
レイヤー_1
 62
     7
100
AcDbDimension
  2
_D_2
 10
820.0895035563
 20
468.8028288895
 30
0.0
 11
820.0895035563
 21
518.8028288895
 31
0.0
 70
   160
  1
<>
 71
     2
 42
-1.0
  3
SLDDIMSTYLE1
100
AcDbAlignedDimension
 13
885.0468776127
 23
568.8028288895
 33
0.0
 14
871.6272623704
 24
468.8028288895
 34
0.0
 50
90.0
100
AcDbRotatedDimension
  0
DIMENSION
  5
2E1
330
1F
100
AcDbEntity
  8
レイヤー_1
 62
     7
100
AcDbDimension
  2
_D_3
 10
757.8522716228
 20
468.8028288895
 30
0.0
 11
757.8522716228
 21
643.8028288895
 31
0.0
 70
   160
  1
<>
 71
     2
 42
-1.0
  3
SLDDIMSTYLE1
100
AcDbAlignedDimension
 13
899.0132094751
 23
818.8028288895
 33
0.0
 14
871.6272623704
 24
468.8028288895
 34
0.0
 50
90.0
100
AcDbRotatedDimension
  0
DIMENSION
  5
2EB
330
1F
100
AcDbEntity
  8
レイヤー_1
 62
     7
100
AcDbDimension
  2
_D_4
 10
787.8522716228
 20
718.8028288895
 30
0.0
 11
787.8522716228
 21
593.8028288895
 31
0.0
 70
   160
  1
<>
 71
     2
 42
-1.0
  3
SLDDIMSTYLE1
100
AcDbAlignedDimension
 13
871.6272623704
 23
468.8028288895
 33
0.0
 14
881.1272623704
 24
718.8028288895
 34
0.0
 50
90.0
100
AcDbRotatedDimension
  0
DIMENSION
  5
2F5
330
1F
100
AcDbEntity
  8
レイヤー_1
 62
     7
100
AcDbDimension
  2
_D_5
 10
870.1272623704
 20
1370.050843003
 30
0.0
 11
909.1272623704
 21
1370.050843003
 31
0.0
 70
   160
  1
{\fGDT;o}<>
 71
     2
 42
-1.0
  3
SLDDIMSTYLE1
100
AcDbAlignedDimension
 13
948.1272623704
 23
1338.8028288895
 33
0.0
 14
870.1272623704
 24
1338.8028288895
 34
0.0
100
AcDbRotatedDimension
  0
DIMENSION
  5
307
330
1F
100
AcDbEntity
  8
レイヤー_1
 62
     7
100
AcDbDimension
  2
_D_6
 10
727.8522716228
 20
468.8028288895
 30
0.0
 11
727.8522716228
 21
905.3028288895
 31
0.0
 70
   160
  1
<>
 71
     2
 42
-1.0
  3
SLDDIMSTYLE1
100
AcDbAlignedDimension
 13
873.1272623704
 23
1341.8028288895
 33
0.0
 14
871.6272623704
 24
468.8028288895
 34
0.0
 50
90.0
100
AcDbRotatedDimension
  0
DIMENSION
  5
311
330
1F
100
AcDbEntity
  8
レイヤー_1
 62
     7
100
AcDbDimension
  2
_D_7
 10
871.6272623704
 20
1119.6671329076
 30
0.0
 11
820.0895035563
 21
1119.6671329076
 31
0.0
 70
   160
  1
{\fGDT;o}<>
 71
     2
 42
-1.0
  3
SLDDIMSTYLE3
100
AcDbAlignedDimension
 13
946.6272623704
 23
1268.8028288895
 33
0.0
 14
871.6272623704
 24
1268.8028288895
 34
0.0
100
AcDbRotatedDimension
  0
INSERT
  5
322
330
1F
100
AcDbEntity
  8
レイヤー_1
 62
     7
100
AcDbBlockReference
  2
SW_NOTE_2
 10
999.8623853211
 20
1278.6697247706
 30
0.0
  0
LEADER
  5
323
330
1F
100
AcDbEntity
  8
レイヤー_1
 62
     7
100
AcDbLeader
  3
SLDDIMSTYLE2
 76
     2
 10
948.1272623704
 20
1312.4300938406
 30
0.0
 10
999.8623853211
 20
1278.6697247706
 30
0.0
  0
INSERT
  5
329
330
1F
100
AcDbEntity
  8
レイヤー_1
 62
     7
100
AcDbBlockReference
  2
SW_NOTE_3
 10
999.8623853211
 20
1052.1788990826
 30
0.0
  0
LEADER
  5
32A
330
1F
100
AcDbEntity
  8
レイヤー_1
 62
     7
100
AcDbLeader
  3
SLDDIMSTYLE2
 76
     2
 10
946.6272623704
 20
1024.3731136303
 30
0.0
 10
999.8623853211
 20
1052.1788990826
 30
0.0
  0
INSERT
  5
330
330
1F
100
AcDbEntity
  8
レイヤー_1
 62
     7
100
AcDbBlockReference
  2
SW_NOTE_4
 10
983.8073394495
 20
731.0779816514
 30
0.0
  0
LEADER
  5
33A
330
1F
100
AcDbEntity
  8
レイヤー_1
 62
     7
100
AcDbLeader
  3
SLDDIMSTYLE4
 76
     2
 10
928.4311170745
 20
705.7286476763
 30
0.0
 10
983.8073394495
 20
731.0779816514
 30
0.0
  0
INSERT
  5
340
330
1F
100
AcDbEntity
  8
レイヤー_1
 62
     7
100
AcDbBlockReference
  2
SW_NOTE_5
 10
858.7770724092
 20
413.8532119778
 30
0.0
  0
LEADER
  5
341
330
1F
100
AcDbEntity
  8
レイヤー_1
 62
     7
100
AcDbLeader
  3
SLDDIMSTYLE2
 76
     2
 10
906.8878383778
 20
476.6449674644
 30
0.0
 10
858.7770724092
 20
413.8532119778
 30
0.0
  0
INSERT
  5
347
330
1F
100
AcDbEntity
  8
レイヤー_1
 62
     7
100
AcDbBlockReference
  2
SW_NOTE_6
 10
975.1376146789
 20
619.701835831
 30
0.0
  0
LEADER
  5
348
330
1F
100
AcDbEntity
  8
レイヤー_1
 62
     7
100
AcDbLeader
  3
SLDDIMSTYLE2
 76
     2
 10
924.1272623704
 20
573.0183179204
 30
0.0
 10
975.1376146789
 20
619.701835831
 30
0.0
  0
INSERT
  5
34E
330
1F
100
AcDbEntity
  8
レイヤー_1
 62
     7
100
AcDbBlockReference
  2
SW_NOTE_7
 10
976.2844036697
 20
865.1146798677
 30
0.0
  0
LEADER
  5
34F
330
1F
100
AcDbEntity
  8
レイヤー_1
 62
     7
100
AcDbLeader
  3
SLDDIMSTYLE2
 76
     2
 10
913.4263306004
 20
821.3558687158
 30
0.0
 10
976.2844036697
 20
865.1146798677
 30
0.0
  0
LINE
  5
350
330
1F
100
AcDbEntity
  8
レイヤー_1
  6
SLD-1点鎖線(中心線)
 62
     7
370
    18
100
AcDbLine
 10
909.1272623704
 20
1350.538420203
 30
0.0
 11
909.1272623704
 21
458.8028288895
 31
0.0
  0
ENDSEC
  0
SECTION
  2
OBJECTS
  0
DICTIONARY
  5
C
330
0
100
AcDbDictionary
281
     1
  3
ACAD_GROUP
350
D
  3
ACAD_LAYOUT
350
1A
  3
ACAD_MLINESTYLE
350
17
  3
ACAD_PLOTSETTINGS
350
19
  3
ACAD_PLOTSTYLENAME
350
E
  3
ACAD_SCALELIST
350
47
  3
APPDATA
350
372
  3
DWGPROPS
350
3AB
  0
DICTIONARY
  5
39A
330
1F
100
AcDbDictionary
280
     1
281
     1
  3
ACAD_SORTENTS
360
39B
  0
DICTIONARY
  5
39D
330
33B
100
AcDbDictionary
280
     1
281
     1
  3
ACAD_SORTENTS
360
39E
  0
DICTIONARY
  5
3A2
330
342
100
AcDbDictionary
280
     1
281
     1
  3
ACAD_SORTENTS
360
3A3
  0
DICTIONARY
  5
3A8
330
349
100
AcDbDictionary
280
     1
281
     1
  3
ACAD_SORTENTS
360
3A9
  0
DICTIONARY
  5
D
102
{ACAD_REACTORS
330
C
102
}
330
C
100
AcDbDictionary
281
     1
  0
DICTIONARY
  5
1A
102
{ACAD_REACTORS
330
C
102
}
330
C
100
AcDbDictionary
281
     1
  3
Layout1
350
1E
  3
Layout2
350
26
  3
Model
350
22
  0
DICTIONARY
  5
17
102
{ACAD_REACTORS
330
C
102
}
330
C
100
AcDbDictionary
281
     1
  3
Standard
350
18
  0
DICTIONARY
  5
19
102
{ACAD_REACTORS
330
C
102
}
330
C
100
AcDbDictionary
281
     1
  0
ACDBDICTIONARYWDFLT
  5
E
102
{ACAD_REACTORS
330
C
102
}
330
C
100
AcDbDictionary
281
     1
  3
Normal
350
F
100
AcDbDictionaryWithDefault
340
F
  0
DICTIONARY
  5
47
102
{ACAD_REACTORS
330
C
102
}
330
C
100
AcDbDictionary
281
     1
  3
A0
350
48
  3
A1
350
49
  3
A2
350
4A
  3
A3
350
4B
  3
A4
350
4C
  3
A5
350
4D
  3
A6
350
4E
  3
A7
350
4F
  3
A8
350
50
  3
A9
350
51
  3
B0
350
52
  3
B1
350
53
  3
B2
350
54
  3
B3
350
55
  3
B4
350
56
  3
B5
350
57
  3
B6
350
58
  3
B7
350
59
  3
B8
350
5A
  3
B9
350
5B
  3
C0
350
5C
  3
C1
350
5D
  3
C2
350
5E
  3
C3
350
5F
  3
C4
350
60
  3
C5
350
61
  3
C6
350
62
  3
C7
350
63
  3
C8
350
64
  3
C9
350
65
  3
D0
350
66
  3
D1
350
67
  3
D2
350
68
  0
DICTIONARY
  5
372
102
{ACAD_REACTORS
330
C
102
}
330
C
100
AcDbDictionary
281
     1
  0
XRECORD
  5
3AB
102
{ACAD_REACTORS
330
C
102
}
330
C
100
AcDbXrecord
280
     1
  1
DWGPROPS COOKIE
  2

  3

  4

  6

  7

  8
9176
  9

300
=
301
=
302
=
303
=
304
=
305
=
306
=
307
=
308
=
309
=
 40
0.0
 41
2458754.035397963
 42
2458863.381079827
  1

 90
        0
  0
SORTENTSTABLE
  5
39B
102
{ACAD_REACTORS
330
39A
102
}
330
39A
100
AcDbSortentsTable
330
1F
  0
SORTENTSTABLE
  5
39E
102
{ACAD_REACTORS
330
39D
102
}
330
39D
100
AcDbSortentsTable
330
33B
  0
SORTENTSTABLE
  5
3A3
102
{ACAD_REACTORS
330
3A2
102
}
330
3A2
100
AcDbSortentsTable
330
342
  0
SORTENTSTABLE
  5
3A9
102
{ACAD_REACTORS
330
3A8
102
}
330
3A8
100
AcDbSortentsTable
330
349
  0
LAYOUT
  5
1E
102
{ACAD_REACTORS
330
1A
102
}
330
1A
100
AcDbPlotSettings
  1

  2
none_device
  4

  6

 40
0.0
 41
0.0
 42
0.0
 43
0.0
 44
0.0
 45
0.0
 46
0.0
 47
0.0
 48
0.0
 49
0.0
140
0.0
141
0.0
142
1.0
143
1.0
 70
   688
 72
     1
 73
     0
 74
     5
  7

 75
    16
147
1.0
148
0.0
149
0.0
100
AcDbLayout
  1
Layout1
 70
     1
 71
     1
 10
0.0
 20
0.0
 11
420.0
 21
297.0
 12
0.0
 22
0.0
 32
0.0
 14
1.000000000000000E+20
 24
1.000000000000000E+20
 34
1.000000000000000E+20
 15
-1.000000000000000E+20
 25
-1.000000000000000E+20
 35
-1.000000000000000E+20
146
0.0
 13
0.0
 23
0.0
 33
0.0
 16
1.0
 26
0.0
 36
0.0
 17
0.0
 27
1.0
 37
0.0
 76
     0
330
1B
  0
LAYOUT
  5
26
102
{ACAD_REACTORS
330
1A
102
}
330
1A
100
AcDbPlotSettings
  1

  2
none_device
  4

  6

 40
0.0
 41
0.0
 42
0.0
 43
0.0
 44
0.0
 45
0.0
 46
0.0
 47
0.0
 48
0.0
 49
0.0
140
0.0
141
0.0
142
1.0
143
1.0
 70
   688
 72
     1
 73
     0
 74
     5
  7

 75
    16
147
1.0
148
0.0
149
0.0
100
AcDbLayout
  1
Layout2
 70
     1
 71
     2
 10
0.0
 20
0.0
 11
0.0
 21
0.0
 12
0.0
 22
0.0
 32
0.0
 14
0.0
 24
0.0
 34
0.0
 15
0.0
 25
0.0
 35
0.0
146
0.0
 13
0.0
 23
0.0
 33
0.0
 16
1.0
 26
0.0
 36
0.0
 17
0.0
 27
1.0
 37
0.0
 76
     0
330
23
  0
LAYOUT
  5
22
102
{ACAD_REACTORS
330
1A
102
}
330
1A
100
AcDbPlotSettings
  1

  2
none_device
  4
Letter_(8.50_x_11.00_Inches)
  6

 40
6.35
 41
6.35
 42
6.35000508
 43
6.35000508
 44
215.9
 45
279.4
 46
0.0
 47
0.0
 48
0.0
 49
0.0
140
0.0
141
0.0
142
1.0
143
1.0
 70
  1712
 72
     1
 73
     0
 74
     0
  7

 75
     0
147
1.0
148
0.0
149
0.0
100
AcDbLayout
  1
Model
 70
     1
 71
     0
 10
0.0
 20
0.0
 11
2100.0
 21
1485.0
 12
0.0
 22
0.0
 32
0.0
 14
-39.48855118849997
 24
0.0
 34
0.0
 15
2100.0
 25
1485.0
 35
0.0
146
0.0
 13
0.0
 23
0.0
 33
0.0
 16
1.0
 26
0.0
 36
0.0
 17
0.0
 27
1.0
 37
0.0
 76
     0
330
1F
331
29
  0
MLINESTYLE
  5
18
102
{ACAD_REACTORS
330
17
102
}
330
17
100
AcDbMlineStyle
  2
Standard
 70
     0
  3

 62
   256
 51
90.0
 52
90.0
 71
     2
 49
0.5
 62
   256
  6
BYLAYER
 49
-0.5
 62
   256
  6
BYLAYER
  0
ACDBPLACEHOLDER
  5
F
102
{ACAD_REACTORS
330
E
102
}
330
E
  0
SCALE
  5
48
102
{ACAD_REACTORS
330
47
102
}
330
47
100
AcDbScale
 70
     0
300
1:1
140
1.0
141
1.0
290
     1
  0
SCALE
  5
49
102
{ACAD_REACTORS
330
47
102
}
330
47
100
AcDbScale
 70
     0
300
1:2
140
1.0
141
2.0
290
     0
  0
SCALE
  5
4A
102
{ACAD_REACTORS
330
47
102
}
330
47
100
AcDbScale
 70
     0
300
1:4
140
1.0
141
4.0
290
     0
  0
SCALE
  5
4B
102
{ACAD_REACTORS
330
47
102
}
330
47
100
AcDbScale
 70
     0
300
1:5
140
1.0
141
5.0
290
     0
  0
SCALE
  5
4C
102
{ACAD_REACTORS
330
47
102
}
330
47
100
AcDbScale
 70
     0
300
1:8
140
1.0
141
8.0
290
     0
  0
SCALE
  5
4D
102
{ACAD_REACTORS
330
47
102
}
330
47
100
AcDbScale
 70
     0
300
1:10
140
1.0
141
10.0
290
     0
  0
SCALE
  5
4E
102
{ACAD_REACTORS
330
47
102
}
330
47
100
AcDbScale
 70
     0
300
1:16
140
1.0
141
16.0
290
     0
  0
SCALE
  5
4F
102
{ACAD_REACTORS
330
47
102
}
330
47
100
AcDbScale
 70
     0
300
1:20
140
1.0
141
20.0
290
     0
  0
SCALE
  5
50
102
{ACAD_REACTORS
330
47
102
}
330
47
100
AcDbScale
 70
     0
300
1:30
140
1.0
141
30.0
290
     0
  0
SCALE
  5
51
102
{ACAD_REACTORS
330
47
102
}
330
47
100
AcDbScale
 70
     0
300
1:40
140
1.0
141
40.0
290
     0
  0
SCALE
  5
52
102
{ACAD_REACTORS
330
47
102
}
330
47
100
AcDbScale
 70
     0
300
1:50
140
1.0
141
50.0
290
     0
  0
SCALE
  5
53
102
{ACAD_REACTORS
330
47
102
}
330
47
100
AcDbScale
 70
     0
300
1:100
140
1.0
141
100.0
290
     0
  0
SCALE
  5
54
102
{ACAD_REACTORS
330
47
102
}
330
47
100
AcDbScale
 70
     0
300
2:1
140
2.0
141
1.0
290
     0
  0
SCALE
  5
55
102
{ACAD_REACTORS
330
47
102
}
330
47
100
AcDbScale
 70
     0
300
4:1
140
4.0
141
1.0
290
     0
  0
SCALE
  5
56
102
{ACAD_REACTORS
330
47
102
}
330
47
100
AcDbScale
 70
     0
300
8:1
140
8.0
141
1.0
290
     0
  0
SCALE
  5
57
102
{ACAD_REACTORS
330
47
102
}
330
47
100
AcDbScale
 70
     0
300
10:1
140
10.0
141
1.0
290
     0
  0
SCALE
  5
58
102
{ACAD_REACTORS
330
47
102
}
330
47
100
AcDbScale
 70
     0
300
100:1
140
100.0
141
1.0
290
     0
  0
SCALE
  5
59
102
{ACAD_REACTORS
330
47
102
}
330
47
100
AcDbScale
 70
     0
300
1/128" = 1'-0"
140
0.0078125
141
12.0
290
     0
  0
SCALE
  5
5A
102
{ACAD_REACTORS
330
47
102
}
330
47
100
AcDbScale
 70
     0
300
1/64" = 1'-0"
140
0.015625
141
12.0
290
     0
  0
SCALE
  5
5B
102
{ACAD_REACTORS
330
47
102
}
330
47
100
AcDbScale
 70
     0
300
1/32" = 1'-0"
140
0.03125
141
12.0
290
     0
  0
SCALE
  5
5C
102
{ACAD_REACTORS
330
47
102
}
330
47
100
AcDbScale
 70
     0
300
1/16" = 1'-0"
140
0.0625
141
12.0
290
     0
  0
SCALE
  5
5D
102
{ACAD_REACTORS
330
47
102
}
330
47
100
AcDbScale
 70
     0
300
3/32" = 1'-0"
140
0.09375
141
12.0
290
     0
  0
SCALE
  5
5E
102
{ACAD_REACTORS
330
47
102
}
330
47
100
AcDbScale
 70
     0
300
1/8" = 1'-0"
140
0.125
141
12.0
290
     0
  0
SCALE
  5
5F
102
{ACAD_REACTORS
330
47
102
}
330
47
100
AcDbScale
 70
     0
300
3/16" = 1'-0"
140
0.1875
141
12.0
290
     0
  0
SCALE
  5
60
102
{ACAD_REACTORS
330
47
102
}
330
47
100
AcDbScale
 70
     0
300
1/4" = 1'-0"
140
0.25
141
12.0
290
     0
  0
SCALE
  5
61
102
{ACAD_REACTORS
330
47
102
}
330
47
100
AcDbScale
 70
     0
300
3/8" = 1'-0"
140
0.375
141
12.0
290
     0
  0
SCALE
  5
62
102
{ACAD_REACTORS
330
47
102
}
330
47
100
AcDbScale
 70
     0
300
1/2" = 1'-0"
140
0.5
141
12.0
290
     0
  0
SCALE
  5
63
102
{ACAD_REACTORS
330
47
102
}
330
47
100
AcDbScale
 70
     0
300
3/4" = 1'-0"
140
0.75
141
12.0
290
     0
  0
SCALE
  5
64
102
{ACAD_REACTORS
330
47
102
}
330
47
100
AcDbScale
 70
     0
300
1" = 1'-0"
140
1.0
141
12.0
290
     0
  0
SCALE
  5
65
102
{ACAD_REACTORS
330
47
102
}
330
47
100
AcDbScale
 70
     0
300
1-1/2" = 1'-0"
140
1.5
141
12.0
290
     0
  0
SCALE
  5
66
102
{ACAD_REACTORS
330
47
102
}
330
47
100
AcDbScale
 70
     0
300
3" = 1'-0"
140
3.0
141
12.0
290
     0
  0
SCALE
  5
67
102
{ACAD_REACTORS
330
47
102
}
330
47
100
AcDbScale
 70
     0
300
6" = 1'-0"
140
6.0
141
12.0
290
     0
  0
SCALE
  5
68
102
{ACAD_REACTORS
330
47
102
}
330
47
100
AcDbScale
 70
     0
300
1'-0" = 1'-0"
140
12.0
141
12.0
290
     0
  0
ENDSEC
  0
EOF
