  0
SECTION
  2
HEADER
  9
$ACADVER
  1
AC1021
  9
$ACADMAINTVER
 70
    25
  9
$DWGCODEPAGE
  3
ANSI_932
  9
$LASTSAVEDBY
  1
9128
  9
$INSBASE
 10
0.0
 20
0.0
 30
0.0
  9
$EXTMIN
 10
0.0
 20
0.0
 30
0.0
  9
$EXTMAX
 10
420.0
 20
297.0
 30
0.0
  9
$LIMMIN
 10
0.0
 20
0.0
  9
$LIMMAX
 10
420.0
 20
297.0
  9
$ORTHOMODE
 70
     0
  9
$REGENMODE
 70
     1
  9
$FILLMODE
 70
     1
  9
$QTEXTMODE
 70
     0
  9
$MIRRTEXT
 70
     1
  9
$LTSCALE
 40
1.0
  9
$ATTMODE
 70
     1
  9
$TEXTSIZE
 40
3.5
  9
$TRACEWID
 40
1.0
  9
$TEXTSTYLE
  7
STANDARD
  9
$CLAYER
  8
0
  9
$CELTYPE
  6
BYLAYER
  9
$CECOLOR
 62
     7
  9
$CELTSCALE
 40
1.0
  9
$DISPSILH
 70
     0
  9
$DIMSCALE
 40
1.0
  9
$DIMASZ
 40
3.302
  9
$DIMEXO
 40
1.0
  9
$DIMDLI
 40
3.75
  9
$DIMRND
 40
0.0
  9
$DIMDLE
 40
0.0
  9
$DIMEXE
 40
1.0
  9
$DIMTP
 40
0.0
  9
$DIMTM
 40
0.0
  9
$DIMTXT
 40
3.5
  9
$DIMCEN
 40
2.5
  9
$DIMTSZ
 40
0.0
  9
$DIMTOL
 70
     0
  9
$DIMLIM
 70
     0
  9
$DIMTIH
 70
     1
  9
$DIMTOH
 70
     1
  9
$DIMSE1
 70
     0
  9
$DIMSE2
 70
     0
  9
$DIMTAD
 70
     1
  9
$DIMZIN
 70
     0
  9
$DIMBLK
  1

  9
$DIMASO
 70
     1
  9
$DIMSHO
 70
     1
  9
$DIMPOST
  1

  9
$DIMAPOST
  1

  9
$DIMALT
 70
     0
  9
$DIMALTD
 70
     3
  9
$DIMALTF
 40
0.0393700787
  9
$DIMLFAC
 40
1.0
  9
$DIMTOFL
 70
     1
  9
$DIMTVP
 40
0.0
  9
$DIMTIX
 70
     0
  9
$DIMSOXD
 70
     0
  9
$DIMSAH
 70
     0
  9
$DIMBLK1
  1

  9
$DIMBLK2
  1

  9
$DIMSTYLE
  2
ISO-25
  9
$DIMCLRD
 70
     0
  9
$DIMCLRE
 70
     0
  9
$DIMCLRT
 70
     0
  9
$DIMTFAC
 40
1.0
  9
$DIMGAP
 40
1.524
  9
$DIMJUST
 70
     0
  9
$DIMSD1
 70
     0
  9
$DIMSD2
 70
     0
  9
$DIMTOLJ
 70
     0
  9
$DIMTZIN
 70
     0
  9
$DIMALTZ
 70
     0
  9
$DIMALTTZ
 70
     0
  9
$DIMUPT
 70
     0
  9
$DIMDEC
 70
     2
  9
$DIMTDEC
 70
     2
  9
$DIMALTU
 70
     2
  9
$DIMALTTD
 70
     3
  9
$DIMTXSTY
  7
STANDARD
  9
$DIMAUNIT
 70
     0
  9
$DIMADEC
 70
     0
  9
$DIMALTRND
 40
0.0
  9
$DIMAZIN
 70
     0
  9
$DIMDSEP
 70
    46
  9
$DIMATFIT
 70
     3
  9
$DIMFRAC
 70
     0
  9
$DIMLDRBLK
  1

  9
$DIMLUNIT
 70
     2
  9
$DIMLWD
 70
    -2
  9
$DIMLWE
 70
    -2
  9
$DIMTMOVE
 70
     0
  9
$DIMFXL
 40
1.0
  9
$DIMFXLON
 70
     0
  9
$DIMJOGANG
 40
0.7853981633974483
  9
$DIMTFILL
 70
     0
  9
$DIMTFILLCLR
 70
     0
  9
$DIMARCSYM
 70
     0
  9
$DIMLTYPE
  6

  9
$DIMLTEX1
  6

  9
$DIMLTEX2
  6

  9
$LUNITS
 70
     2
  9
$LUPREC
 70
     2
  9
$SKETCHINC
 40
1.0
  9
$FILLETRAD
 40
10.0
  9
$AUNITS
 70
     0
  9
$AUPREC
 70
     2
  9
$MENU
  1
.
  9
$ELEVATION
 40
0.0
  9
$PELEVATION
 40
0.0
  9
$THICKNESS
 40
0.0
  9
$LIMCHECK
 70
     0
  9
$CHAMFERA
 40
0.0
  9
$CHAMFERB
 40
0.0
  9
$CHAMFERC
 40
0.0
  9
$CHAMFERD
 40
0.0
  9
$SKPOLY
 70
     0
  9
$TDCREATE
 40
2457711.397066366
  9
$TDUCREATE
 40
2457711.022066366
  9
$TDUPDATE
 40
2460404.676147291
  9
$TDUUPDATE
 40
2460404.301147291
  9
$TDINDWG
 40
0.1983934954
  9
$TDUSRTIMER
 40
0.0004965509
  9
$USRTIMER
 70
     1
  9
$ANGBASE
 50
0.0
  9
$ANGDIR
 70
     0
  9
$PDMODE
 70
     0
  9
$PDSIZE
 40
-1.0
  9
$PLINEWID
 40
0.0
  9
$SPLFRAME
 70
     0
  9
$SPLINETYPE
 70
     6
  9
$SPLINESEGS
 70
     8
  9
$HANDSEED
  5
7BF5
  9
$SURFTAB1
 70
     6
  9
$SURFTAB2
 70
     6
  9
$SURFTYPE
 70
     6
  9
$SURFU
 70
     6
  9
$SURFV
 70
     6
  9
$UCSBASE
  2

  9
$UCSNAME
  2

  9
$UCSORG
 10
0.0
 20
0.0
 30
0.0
  9
$UCSXDIR
 10
1.0
 20
0.0
 30
0.0
  9
$UCSYDIR
 10
0.0
 20
1.0
 30
0.0
  9
$UCSORTHOREF
  2

  9
$UCSORTHOVIEW
 70
     0
  9
$UCSORGTOP
 10
0.0
 20
0.0
 30
0.0
  9
$UCSORGBOTTOM
 10
0.0
 20
0.0
 30
0.0
  9
$UCSORGLEFT
 10
0.0
 20
0.0
 30
0.0
  9
$UCSORGRIGHT
 10
0.0
 20
0.0
 30
0.0
  9
$UCSORGFRONT
 10
0.0
 20
0.0
 30
0.0
  9
$UCSORGBACK
 10
0.0
 20
0.0
 30
0.0
  9
$PUCSBASE
  2

  9
$PUCSNAME
  2

  9
$PUCSORG
 10
0.0
 20
0.0
 30
0.0
  9
$PUCSXDIR
 10
1.0
 20
0.0
 30
0.0
  9
$PUCSYDIR
 10
0.0
 20
1.0
 30
0.0
  9
$PUCSORTHOREF
  2

  9
$PUCSORTHOVIEW
 70
     0
  9
$PUCSORGTOP
 10
0.0
 20
0.0
 30
0.0
  9
$PUCSORGBOTTOM
 10
0.0
 20
0.0
 30
0.0
  9
$PUCSORGLEFT
 10
0.0
 20
0.0
 30
0.0
  9
$PUCSORGRIGHT
 10
0.0
 20
0.0
 30
0.0
  9
$PUCSORGFRONT
 10
0.0
 20
0.0
 30
0.0
  9
$PUCSORGBACK
 10
0.0
 20
0.0
 30
0.0
  9
$USERI1
 70
     0
  9
$USERI2
 70
     0
  9
$USERI3
 70
     0
  9
$USERI4
 70
     0
  9
$USERI5
 70
     0
  9
$USERR1
 40
0.0
  9
$USERR2
 40
0.0
  9
$USERR3
 40
0.0
  9
$USERR4
 40
0.0
  9
$USERR5
 40
0.0
  9
$WORLDVIEW
 70
     1
  9
$SHADEDGE
 70
     3
  9
$SHADEDIF
 70
    70
  9
$TILEMODE
 70
     1
  9
$MAXACTVP
 70
    64
  9
$PINSBASE
 10
0.0
 20
0.0
 30
0.0
  9
$PLIMCHECK
 70
     0
  9
$PEXTMIN
 10
40.5
 20
25.69999999999999
 30
0.0
  9
$PEXTMAX
 10
364.5
 20
231.3
 30
0.0
  9
$PLIMMIN
 10
0.0
 20
0.0
  9
$PLIMMAX
 10
0.0
 20
0.0
  9
$UNITMODE
 70
     0
  9
$VISRETAIN
 70
     1
  9
$PLINEGEN
 70
     0
  9
$PSLTSCALE
 70
     1
  9
$TREEDEPTH
 70
  3020
  9
$CMLSTYLE
  2
STANDARD
  9
$CMLJUST
 70
     0
  9
$CMLSCALE
 40
20.0
  9
$PROXYGRAPHICS
 70
     1
  9
$MEASUREMENT
 70
     1
  9
$CELWEIGHT
370
    -1
  9
$ENDCAPS
280
     0
  9
$JOINSTYLE
280
     0
  9
$LWDISPLAY
290
     0
  9
$INSUNITS
 70
     0
  9
$HYPERLINKBASE
  1

  9
$STYLESHEET
  1

  9
$XEDIT
290
     1
  9
$CEPSNTYPE
380
     0
  9
$PSTYLEMODE
290
     1
  9
$FINGERPRINTGUID
  2
{E510D603-FC91-41C4-9807-941C3DE9FCB3}
  9
$VERSIONGUID
  2
{FAEB1C32-E019-11D5-929B-00C0DF256EC4}
  9
$EXTNAMES
290
     1
  9
$PSVPSCALE
 40
0.0
  9
$OLESTARTUP
290
     0
  9
$SORTENTS
280
   127
  9
$INDEXCTL
280
     0
  9
$HIDETEXT
280
     1
  9
$XCLIPFRAME
290
     0
  9
$HALOGAP
280
     0
  9
$OBSCOLOR
 70
   257
  9
$OBSLTYPE
280
     0
  9
$INTERSECTIONDISPLAY
280
     0
  9
$INTERSECTIONCOLOR
 70
   257
  9
$DIMASSOC
280
     2
  9
$PROJECTNAME
  1

  9
$CAMERADISPLAY
290
     0
  9
$LENSLENGTH
 40
50.0
  9
$CAMERAHEIGHT
 40
0.0
  9
$STEPSPERSEC
 40
2.0
  9
$STEPSIZE
 40
6.0
  9
$3DDWFPREC
 40
2.0
  9
$PSOLWIDTH
 40
0.25
  9
$PSOLHEIGHT
 40
4.0
  9
$LOFTANG1
 40
1.570796326794897
  9
$LOFTANG2
 40
1.570796326794897
  9
$LOFTMAG1
 40
0.0
  9
$LOFTMAG2
 40
0.0
  9
$LOFTPARAM
 70
     7
  9
$LOFTNORMALS
280
     1
  9
$LATITUDE
 40
37.795
  9
$LONGITUDE
 40
-122.394
  9
$NORTHDIRECTION
 40
0.0
  9
$TIMEZONE
 70
 -8000
  9
$LIGHTGLYPHDISPLAY
280
     1
  9
$TILEMODELIGHTSYNCH
280
     1
  9
$SOLIDHIST
280
     0
  9
$SHOWHIST
280
     1
  9
$DWFFRAME
280
     2
  9
$DGNFRAME
280
     2
  9
$REALWORLDSCALE
290
     1
  9
$INTERFERECOLOR
 62
   256
  9
$CSHADOW
280
     0
  9
$SHADOWPLANELOCATION
 40
0.0
  0
ENDSEC
  0
SECTION
  2
CLASSES
  0
CLASS
  1
ACDBDICTIONARYWDFLT
  2
AcDbDictionaryWithDefault
  3
ObjectDBX Classes
 90
        0
 91
        3
280
     0
281
     0
  0
CLASS
  1
VISUALSTYLE
  2
AcDbVisualStyle
  3
ObjectDBX Classes
 90
     4095
 91
        3
280
     0
281
     0
  0
CLASS
  1
MATERIAL
  2
AcDbMaterial
  3
ObjectDBX Classes
 90
     1153
 91
        3
280
     0
281
     0
  0
CLASS
  1
SCALE
  2
AcDbScale
  3
ObjectDBX Classes
 90
     1153
 91
        3
280
     0
281
     0
  0
CLASS
  1
TABLESTYLE
  2
AcDbTableStyle
  3
ObjectDBX Classes
 90
     4095
 91
        3
280
     0
281
     0
  0
CLASS
  1
MLEADERSTYLE
  2
AcDbMLeaderStyle
  3
ACDB_MLEADERSTYLE_CLASS
 90
     4095
 91
        3
280
     0
281
     0
  0
CLASS
  1
SUN
  2
AcDbSun
  3
SCENEOE
 90
     1153
 91
        3
280
     0
281
     0
  0
CLASS
  1
ACDBPLACEHOLDER
  2
AcDbPlaceHolder
  3
ObjectDBX Classes
 90
        0
 91
        1
280
     0
281
     0
  0
CLASS
  1
LAYOUT
  2
AcDbLayout
  3
ObjectDBX Classes
 90
        0
 91
        1
280
     0
281
     0
  0
CLASS
  1
RASTERVARIABLES
  2
AcDbRasterVariables
  3
ISM
 90
        0
 91
        3
280
     0
281
     0
  0
CLASS
  1
DIMASSOC
  2
AcDbDimAssoc
  3
"AcDbDimAssoc|Product Desc:     AcDim ARX App For Dimension|Company:          Autodesk, Inc.|WEB Address:      www.autodesk.com"
 90
        0
 91
        3
280
     0
281
     0
  0
CLASS
  1
IMAGE
  2
AcDbRasterImage
  3
ISM
 90
      127
 91
        4
280
     0
281
     1
  0
CLASS
  1
IMAGEDEF
  2
AcDbRasterImageDef
  3
ISM
 90
        0
 91
        3
280
     0
281
     0
  0
CLASS
  1
IMAGEDEF_REACTOR
  2
AcDbRasterImageDefReactor
  3
ISM
 90
        1
 91
        3
280
     0
281
     0
  0
CLASS
  1
DICTIONARYVAR
  2
AcDbDictionaryVar
  3
ObjectDBX Classes
 90
        0
 91
        3
280
     0
281
     0
  0
CLASS
  1
ACDB_ALDIMOBJECTCONTEXTDATA_CLASS
  2
AcDbAlignedDimensionObjectContextData
  3
ObjectDBX Classes
 90
     1153
 91
        3
280
     0
281
     0
  0
CLASS
  1
LARGE_RADIAL_DIMENSION
  2
AcDbRadialDimensionLarge
  3
ObjectDBX Classes
 90
     1025
 91
        3
280
     0
281
     1
  0
CLASS
  1
XRECORD
  2
AcDbXrecord
  3
ObjectDBX Classes
 90
        0
 91
        1
280
     0
281
     0
  0
CLASS
  1
LWPOLYLINE
  2
AcDbPolyline
  3
ObjectDBX Classes
 90
        0
 91
        1
280
     0
281
     1
  0
CLASS
  1
HATCH
  2
AcDbHatch
  3
ObjectDBX Classes
 90
        0
 91
        1
280
     0
281
     1
  0
CLASS
  1
CELLSTYLEMAP
  2
AcDbCellStyleMap
  3
ObjectDBX Classes
 90
     1152
 91
        3
280
     0
281
     0
  0
ENDSEC
  0
SECTION
  2
TABLES
  0
TABLE
  2
VPORT
  5
8
330
0
100
AcDbSymbolTable
 70
     1
  0
VPORT
  5
29
330
8
100
AcDbSymbolTableRecord
100
AcDbViewportTableRecord
  2
*ACTIVE
 70
     0
 10
0.0
 20
0.0
 11
1.0
 21
1.0
 12
175.484531365379
 22
148.2622359418916
 13
0.0
 23
0.0
 14
10.0
 24
10.0
 15
10.0
 25
10.0
 16
0.0
 26
0.0
 36
1.0
 17
0.0
 27
0.0
 37
0.0
 40
293.3382749837353
 41
2.125547445255474
 42
50.0
 43
0.0
 44
0.0
 50
0.0
 51
0.0
 71
    16
 72
  2000
 73
     1
 74
     3
 75
     0
 76
     0
 77
     0
 78
     0
281
     0
 65
     1
110
0.0
120
0.0
130
0.0
111
1.0
121
0.0
131
0.0
112
0.0
122
1.0
132
0.0
 79
     0
146
0.0
348
77AE
 60
     3
 61
     5
292
     1
282
     1
141
0.0
142
0.0
 63
   256
361
77F2
  0
ENDTAB
  0
TABLE
  2
LTYPE
  5
5
330
0
100
AcDbSymbolTable
 70
     1
  0
LTYPE
  5
14
330
5
100
AcDbSymbolTableRecord
100
AcDbLinetypeTableRecord
  2
BYBLOCK
 70
     0
  3

 72
    65
 73
     0
 40
0.0
  0
LTYPE
  5
15
330
5
100
AcDbSymbolTableRecord
100
AcDbLinetypeTableRecord
  2
BYLAYER
 70
     0
  3
Solid line
 72
    65
 73
     0
 40
0.0
  0
LTYPE
  5
16
330
5
100
AcDbSymbolTableRecord
100
AcDbLinetypeTableRecord
  2
CONTINUOUS
 70
     0
  3
Solid line
 72
    65
 73
     0
 40
0.0
  0
ENDTAB
  0
TABLE
  2
LAYER
  5
2
102
{ACAD_XDICTIONARY
360
3488
102
}
330
0
100
AcDbSymbolTable
 70
     5
  0
LAYER
  5
10
330
2
100
AcDbSymbolTableRecord
100
AcDbLayerTableRecord
  2
0
 70
     0
 62
     7
  6
CONTINUOUS
370
    -3
390
77C4
347
77ED
  0
LAYER
  5
77F9
330
2
100
AcDbSymbolTableRecord
100
AcDbLayerTableRecord
  2
図枠
 70
     0
 62
     7
  6
CONTINUOUS
370
    -3
390
77C4
347
77ED
1001
ACAECLAYERSTANDARD
1000

1000

  0
LAYER
  5
7802
330
2
100
AcDbSymbolTableRecord
100
AcDbLayerTableRecord
  2
Defpoints
 70
     0
 62
     7
  6
CONTINUOUS
290
     0
370
    -3
390
77C4
347
77ED
  0
LAYER
  5
7803
330
2
100
AcDbSymbolTableRecord
100
AcDbLayerTableRecord
  2
レイヤー_1
 70
     0
 62
   160
  6
CONTINUOUS
370
    -3
390
77C4
347
77ED
  0
LAYER
  5
7BCC
330
2
100
AcDbSymbolTableRecord
100
AcDbLayerTableRecord
  2
997-図枠_文字
 70
     0
 62
     7
  6
CONTINUOUS
370
    -3
390
77C4
347
77ED
1001
ACAECLAYERSTANDARD
1000

1000

  0
ENDTAB
  0
TABLE
  2
STYLE
  5
3
330
0
100
AcDbSymbolTable
 70
     4
  0
STYLE
  5
11
330
3
100
AcDbSymbolTableRecord
100
AcDbTextStyleTableRecord
  2
STANDARD
 70
     0
 40
0.0
 41
1.0
 50
0.0
 71
     0
 42
3.5
  3
msgothic.ttc
  4

1001
ACAD
1000
MS PGothic
1071
        0
  0
STYLE
  5
33F
330
3
100
AcDbSymbolTableRecord
100
AcDbTextStyleTableRecord
  2
SLDTEXTSTYLE0
 70
     0
 40
0.0
 41
0.75
 50
0.0
 71
     0
 42
3.5
  3
TXT
  4
bigfont
  0
STYLE
  5
35D
330
3
100
AcDbSymbolTableRecord
100
AcDbTextStyleTableRecord
  2
SLDTEXTSTYLE1
 70
     0
 40
0.0
 41
0.7
 50
0.0
 71
     0
 42
3.5
  3
TXT
  4
bigfont
  0
STYLE
  5
35F
330
3
100
AcDbSymbolTableRecord
100
AcDbTextStyleTableRecord
  2
SLDTEXTSTYLE2
 70
     0
 40
0.0
 41
0.605
 50
0.0
 71
     0
 42
3.5
  3
TXT
  4
bigfont
  0
ENDTAB
  0
TABLE
  2
VIEW
  5
6
330
0
100
AcDbSymbolTable
 70
     0
  0
ENDTAB
  0
TABLE
  2
UCS
  5
7
330
0
100
AcDbSymbolTable
 70
     0
  0
ENDTAB
  0
TABLE
  2
APPID
  5
9
330
0
100
AcDbSymbolTable
 70
     7
  0
APPID
  5
12
330
9
100
AcDbSymbolTableRecord
100
AcDbRegAppTableRecord
  2
ACAD
 70
     0
  0
APPID
  5
3289
330
9
100
AcDbSymbolTableRecord
100
AcDbRegAppTableRecord
  2
ACAECLAYERSTANDARD
 70
     0
  0
APPID
  5
36A2
330
9
100
AcDbSymbolTableRecord
100
AcDbRegAppTableRecord
  2
ACADANNOTATIVE
 70
     0
  0
APPID
  5
3793
330
9
100
AcDbSymbolTableRecord
100
AcDbRegAppTableRecord
  2
ACAD_DSTYLE_DIMRADIAL_EXTE
 70
     0
  0
APPID
  5
77A6
330
9
100
AcDbSymbolTableRecord
100
AcDbRegAppTableRecord
  2
ACAD_SPLINE_DATA
 70
     0
  0
APPID
  5
77A7
330
9
100
AcDbSymbolTableRecord
100
AcDbRegAppTableRecord
  2
ACAD_SPLINE_DATA2
 70
     0
  0
APPID
  5
7BF1
330
9
100
AcDbSymbolTableRecord
100
AcDbRegAppTableRecord
  2
ACAD_MLEADERVER
 70
     0
  0
ENDTAB
  0
TABLE
  2
DIMSTYLE
  5
A
330
0
100
AcDbSymbolTable
 70
     2
100
AcDbDimStyleTable
  0
DIMSTYLE
105
27
102
{ACAD_REACTORS
330
7B01
330
7B02
330
7B03
102
}
330
A
100
AcDbSymbolTableRecord
100
AcDbDimStyleTableRecord
  2
ISO-25
 70
     0
 41
2.5
 42
0.625
 43
3.75
 44
1.25
 73
     0
 74
     0
 77
     1
 78
     8
140
2.5
141
2.5
143
0.0393700787
147
0.625
171
     3
172
     1
178
     0
271
     2
272
     2
274
     3
283
     0
284
     8
340
11
  0
DIMSTYLE
105
935
330
A
100
AcDbSymbolTableRecord
100
AcDbDimStyleTableRecord
  2
STANDARD
 70
     0
178
     0
340
11
  0
ENDTAB
  0
TABLE
  2
BLOCK_RECORD
  5
1
330
0
100
AcDbSymbolTable
 70
     4
  0
BLOCK_RECORD
  5
1F
330
1
100
AcDbSymbolTableRecord
100
AcDbBlockTableRecord
  2
*MODEL_SPACE
340
77E8
 70
     0
280
     1
281
     0
  0
BLOCK_RECORD
  5
1B
330
1
100
AcDbSymbolTableRecord
100
AcDbBlockTableRecord
  2
*PAPER_SPACE
340
77E9
 70
     0
280
     1
281
     0
  0
BLOCK_RECORD
  5
7971
330
1
100
AcDbSymbolTableRecord
100
AcDbBlockTableRecord
  2
_OPEN
340
0
102
{BLKREFS
331
7970
331
7977
331
7983
331
7984
331
7990
331
7991
331
7B16
331
7B17
331
7B22
331
7B23
331
7B2E
331
7B2F
102
}
 70
     0
280
     1
281
     0
  0
BLOCK_RECORD
  5
7B10
330
1
100
AcDbSymbolTableRecord
100
AcDbBlockTableRecord
  2
*D5
340
0
 70
     0
280
     1
281
     0
  0
BLOCK_RECORD
  5
7B1C
330
1
100
AcDbSymbolTableRecord
100
AcDbBlockTableRecord
  2
*D6
340
0
 70
     0
280
     1
281
     0
  0
BLOCK_RECORD
  5
7B28
330
1
100
AcDbSymbolTableRecord
100
AcDbBlockTableRecord
  2
*D7
340
0
 70
     0
280
     1
281
     0
  0
ENDTAB
  0
ENDSEC
  0
SECTION
  2
BLOCKS
  0
BLOCK
  5
20
330
1F
100
AcDbEntity
  8
0
100
AcDbBlockBegin
  2
*MODEL_SPACE
 70
     0
 10
0.0
 20
0.0
 30
0.0
  3
*MODEL_SPACE
  1

  0
ENDBLK
  5
21
330
1F
100
AcDbEntity
  8
0
100
AcDbBlockEnd
  0
BLOCK
  5
1C
330
1B
100
AcDbEntity
 67
     1
  8
0
100
AcDbBlockBegin
  2
*PAPER_SPACE
 70
     0
 10
0.0
 20
0.0
 30
0.0
  3
*PAPER_SPACE
  1

  0
ENDBLK
  5
1D
330
1B
100
AcDbEntity
 67
     1
  8
0
100
AcDbBlockEnd
  0
BLOCK
  5
7972
330
7971
100
AcDbEntity
  8
0
100
AcDbBlockBegin
  2
_OPEN
 70
     0
 10
0.0
 20
0.0
 30
0.0
  3
_OPEN
  1

  0
LINE
  5
7973
330
7971
100
AcDbEntity
  8
0
  6
ByBlock
 62
     0
100
AcDbLine
 10
-1.0
 20
0.166667
 30
0.0
 11
0.0
 21
0.0
 31
0.0
  0
LINE
  5
7974
330
7971
100
AcDbEntity
  8
0
  6
ByBlock
 62
     0
100
AcDbLine
 10
-1.0
 20
-0.166667
 30
0.0
 11
0.0
 21
0.0
 31
0.0
  0
LINE
  5
7975
330
7971
100
AcDbEntity
  8
0
  6
ByBlock
 62
     0
100
AcDbLine
 10
0.0
 20
0.0
 30
0.0
 11
-1.0
 21
0.0
 31
0.0
  0
ENDBLK
  5
7976
330
7971
100
AcDbEntity
  8
0
100
AcDbBlockEnd
  0
BLOCK
  5
7B11
330
7B10
100
AcDbEntity
  8
0
100
AcDbBlockBegin
  2
*D5
 70
     1
 10
0.0
 20
0.0
 30
0.0
  3
*D5
  1

  0
LINE
  5
7B13
330
7B10
100
AcDbEntity
  8
0
  6
Continuous
 62
     0
370
    -2
100
AcDbLine
 10
160.1803629257157
 20
239.8938124741511
 30
0.0
 11
160.1803629257157
 21
246.0195092814194
 31
0.0
  0
LINE
  5
7B14
330
7B10
100
AcDbEntity
  8
0
  6
Continuous
 62
     0
370
    -2
100
AcDbLine
 10
176.1803629257157
 20
239.8938124741511
 30
0.0
 11
176.1803629257157
 21
246.0195092814194
 31
0.0
  0
LINE
  5
7B15
330
7B10
100
AcDbEntity
  8
0
  6
Continuous
 62
     0
370
    -2
100
AcDbLine
 10
162.6803629257157
 20
244.7695092814194
 30
0.0
 11
173.6803629257157
 21
244.7695092814194
 31
0.0
  0
INSERT
  5
7B16
330
7B10
100
AcDbEntity
  8
0
 62
     0
370
    -2
100
AcDbBlockReference
  2
_OPEN
 10
160.1803629257157
 20
244.7695092814194
 30
0.0
 41
2.5
 42
2.5
 43
2.5
 50
180.0
  0
INSERT
  5
7B17
330
7B10
100
AcDbEntity
  8
0
 62
     0
370
    -2
100
AcDbBlockReference
  2
_OPEN
 10
176.1803629257157
 20
244.7695092814194
 30
0.0
 41
2.5
 42
2.5
 43
2.5
  0
MTEXT
  5
7B18
330
7B10
100
AcDbEntity
  8
0
 62
     0
370
     9
100
AcDbMText
 10
168.1803629257157
 20
246.6445092814194
 30
0.0
 40
2.5
 41
0.0
 46
0.0
 71
     5
 72
     1
  1
8
 73
     1
 44
1.0
  0
POINT
  5
7B19
330
7B10
100
AcDbEntity
  8
Defpoints
 62
     0
100
AcDbPoint
 10
160.1803629257157
 20
239.2688124741511
 30
0.0
  0
POINT
  5
7B1A
330
7B10
100
AcDbEntity
  8
Defpoints
 62
     0
100
AcDbPoint
 10
176.1803629257157
 20
239.2688124741511
 30
0.0
  0
POINT
  5
7B1B
330
7B10
100
AcDbEntity
  8
Defpoints
 62
     0
100
AcDbPoint
 10
176.1803629257157
 20
244.7695092814194
 30
0.0
  0
ENDBLK
  5
7B12
330
7B10
100
AcDbEntity
  8
0
100
AcDbBlockEnd
  0
BLOCK
  5
7B1D
330
7B1C
100
AcDbEntity
  8
0
100
AcDbBlockBegin
  2
*D6
 70
     1
 10
0.0
 20
0.0
 30
0.0
  3
*D6
  1

  0
LINE
  5
7B1F
330
7B1C
100
AcDbEntity
  8
0
  6
Continuous
 62
     0
370
    -2
100
AcDbLine
 10
159.5553629257157
 20
239.2688124741511
 30
0.0
 11
140.3836051326509
 21
239.2688124741511
 31
0.0
  0
LINE
  5
7B20
330
7B1C
100
AcDbEntity
  8
0
  6
Continuous
 62
     0
370
    -2
100
AcDbLine
 10
150.5767229257157
 20
169.2688124741511
 30
0.0
 11
140.3836051326509
 21
169.2688124741511
 31
0.0
  0
LINE
  5
7B21
330
7B1C
100
AcDbEntity
  8
0
  6
Continuous
 62
     0
370
    -2
100
AcDbLine
 10
141.6336051326509
 20
236.7688124741511
 30
0.0
 11
141.6336051326509
 21
171.7688124741511
 31
0.0
  0
INSERT
  5
7B22
330
7B1C
100
AcDbEntity
  8
0
 62
     0
370
    -2
100
AcDbBlockReference
  2
_OPEN
 10
141.6336051326509
 20
239.2688124741511
 30
0.0
 41
2.5
 42
2.5
 43
2.5
 50
90.0
  0
INSERT
  5
7B23
330
7B1C
100
AcDbEntity
  8
0
 62
     0
370
    -2
100
AcDbBlockReference
  2
_OPEN
 10
141.6336051326509
 20
169.2688124741511
 30
0.0
 41
2.5
 42
2.5
 43
2.5
 50
270.0
  0
MTEXT
  5
7B24
330
7B1C
100
AcDbEntity
  8
0
 62
     0
370
     9
100
AcDbMText
 10
139.7581362068037
 20
204.2688124741511
 30
0.0
 40
2.5
 41
0.0
 46
0.0
 71
     5
 72
     1
  1
35
 11
0.0
 21
1.0
 31
0.0
 73
     1
 44
1.0
  0
POINT
  5
7B25
330
7B1C
100
AcDbEntity
  8
Defpoints
 62
     0
100
AcDbPoint
 10
160.1803629257157
 20
239.2688124741511
 30
0.0
  0
POINT
  5
7B26
330
7B1C
100
AcDbEntity
  8
Defpoints
 62
     0
100
AcDbPoint
 10
151.2017229257157
 20
169.2688124741511
 30
0.0
  0
POINT
  5
7B27
330
7B1C
100
AcDbEntity
  8
Defpoints
 62
     0
100
AcDbPoint
 10
141.6336051326509
 20
169.2688124741511
 30
0.0
  0
ENDBLK
  5
7B1E
330
7B1C
100
AcDbEntity
  8
0
100
AcDbBlockEnd
  0
BLOCK
  5
7B29
330
7B28
100
AcDbEntity
  8
0
100
AcDbBlockBegin
  2
*D7
 70
     1
 10
0.0
 20
0.0
 30
0.0
  3
*D7
  1

  0
LINE
  5
7B2B
330
7B28
100
AcDbEntity
  8
0
  6
Continuous
 62
     0
370
    -2
100
AcDbLine
 10
243.0369239257157
 20
239.8938124741511
 30
0.0
 11
243.0369239257157
 21
246.4409568585349
 31
0.0
  0
LINE
  5
7B2C
330
7B28
100
AcDbEntity
  8
0
  6
Continuous
 62
     0
370
    -2
100
AcDbLine
 10
272.0369239257157
 20
239.8938124741511
 30
0.0
 11
272.0369239257157
 21
246.4409568585349
 31
0.0
  0
LINE
  5
7B2D
330
7B28
100
AcDbEntity
  8
0
  6
Continuous
 62
     0
370
    -2
100
AcDbLine
 10
245.5369239257157
 20
245.1909568585349
 30
0.0
 11
269.5369239257157
 21
245.1909568585349
 31
0.0
  0
INSERT
  5
7B2E
330
7B28
100
AcDbEntity
  8
0
 62
     0
370
    -2
100
AcDbBlockReference
  2
_OPEN
 10
243.0369239257157
 20
245.1909568585349
 30
0.0
 41
2.5
 42
2.5
 43
2.5
 50
180.0
  0
INSERT
  5
7B2F
330
7B28
100
AcDbEntity
  8
0
 62
     0
370
    -2
100
AcDbBlockReference
  2
_OPEN
 10
272.0369239257157
 20
245.1909568585349
 30
0.0
 41
2.5
 42
2.5
 43
2.5
  0
MTEXT
  5
7B30
330
7B28
100
AcDbEntity
  8
0
 62
     0
370
     9
100
AcDbMText
 10
257.5369239257157
 20
247.0726781290113
 30
0.0
 40
2.5
 41
0.0
 46
0.0
 71
     5
 72
     1
  1
14
 73
     1
 44
1.0
  0
POINT
  5
7B31
330
7B28
100
AcDbEntity
  8
Defpoints
 62
     0
100
AcDbPoint
 10
243.0369239257157
 20
239.2688124741511
 30
0.0
  0
POINT
  5
7B32
330
7B28
100
AcDbEntity
  8
Defpoints
 62
     0
100
AcDbPoint
 10
272.0369239257157
 20
239.2688124741511
 30
0.0
  0
POINT
  5
7B33
330
7B28
100
AcDbEntity
  8
Defpoints
 62
     0
100
AcDbPoint
 10
272.0369239257157
 20
245.1909568585349
 30
0.0
  0
ENDBLK
  5
7B2A
330
7B28
100
AcDbEntity
  8
0
100
AcDbBlockEnd
  0
ENDSEC
  0
SECTION
  2
ENTITIES
  0
LWPOLYLINE
  5
348D
330
1F
100
AcDbEntity
  8
図枠
 62
     7
100
AcDbPolyline
 90
        4
 70
     1
 43
0.0
 10
0.0
 20
0.0
 10
0.0
 20
297.0
 10
420.0
 20
297.0
 10
420.0
 20
0.0
  0
HATCH
  5
348E
330
1F
100
AcDbEntity
  8
図枠
  6
Continuous
 62
     7
100
AcDbHatch
 10
0.0
 20
0.0
 30
0.0
210
0.0
220
0.0
230
1.0
  2
SOLID
 70
     1
 71
     0
 91
        2
 92
        0
 93
        7
 72
     1
 10
352.5633015943662
 20
22.95845117211671
 11
352.5633015943662
 21
17.56193769596804
 72
     1
 10
352.5633015943662
 20
17.56193769596804
 11
354.2954335926312
 21
16.90734765800449
 72
     4
 94
        3
 73
     1
 74
     0
 95
        8
 96
        4
 40
1.0
 40
1.0
 40
1.0
 40
1.0
 40
2.0
 40
2.0
 40
2.0
 40
2.0
 10
354.2954335926312
 20
16.90734765800449
 42
1.0
 10
355.2373433688714
 20
16.90734765800449
 42
1.0
 10
356.2229507362465
 20
16.92586849133319
 42
1.0
 10
356.9787840151373
 20
17.5829722238078
 42
1.0
 72
     4
 94
        3
 73
     1
 74
     0
 95
        8
 96
        4
 40
2.0
 40
2.0
 40
2.0
 40
2.0
 40
3.0
 40
3.0
 40
3.0
 40
3.0
 10
356.9787840151373
 20
17.5829722238078
 42
1.0
 10
357.6450034702659
 20
18.16850065248088
 42
1.0
 10
358.0980886481041
 20
18.96996077597841
 42
1.0
 10
358.0980886481041
 20
20.20487592323912
 42
1.0
 72
     4
 94
        3
 73
     1
 74
     0
 95
        8
 96
        4
 40
3.0
 40
3.0
 40
3.0
 40
3.0
 40
4.0
 40
4.0
 40
4.0
 40
4.0
 10
358.0980886481041
 20
20.20487592323912
 42
1.0
 10
358.0980886481041
 20
21.04834554108382
 42
1.0
 10
357.8138613803799
 20
21.87498242238757
 42
1.0
 10
357.147497231241
 20
22.42583251990612
 42
1.0
 72
     4
 94
        3
 73
     1
 74
     0
 95
        8
 96
        4
 40
4.0
 40
4.0
 40
4.0
 40
4.0
 40
5.0
 40
5.0
 40
5.0
 40
5.0
 10
357.147497231241
 20
22.42583251990612
 42
1.0
 10
356.4006832123306
 20
23.04690744379599
 42
1.0
 10
355.5040626613393
 20
22.95845117211671
 42
1.0
 10
354.5795161663448
 20
22.95845117211671
 42
1.0
 72
     1
 10
354.5795161663448
 20
22.95845117211671
 11
352.5633015943662
 21
22.95845117211671
 97
        0
 92
        0
 93
        5
 72
     4
 94
        3
 73
     1
 74
     0
 95
        8
 96
        4
 40
2.0
 40
2.0
 40
2.0
 40
2.0
 40
3.0
 40
3.0
 40
3.0
 40
3.0
 10
357.2272236309607
 20
20.07146804566832
 42
1.0
 10
357.2272236309607
 20
18.98698643786653
 42
1.0
 10
356.9073051740093
 20
18.00065560043949
 42
1.0
 10
355.9485144298916
 20
17.52171842608005
 42
1.0
 72
     4
 94
        3
 73
     1
 74
     0
 95
        8
 96
        4
 40
3.0
 40
3.0
 40
3.0
 40
3.0
 40
4.0
 40
4.0
 40
4.0
 40
4.0
 10
355.9485144298916
 20
17.52171842608005
 42
1.0
 10
355.2285170342382
 20
17.15747537061555
 42
1.0
 10
354.1267203765275
 20
17.26310199819333
 42
1.0
 10
353.3445527877473
 20
17.30737836536974
 42
1.0
 72
     1
 10
353.3445527877473
 20
17.30737836536974
 11
353.3445527877473
 21
22.60269683192786
 72
     4
 94
        3
 73
     1
 74
     0
 95
        8
 96
        4
 40
0.0
 40
0.0
 40
0.0
 40
0.0
 40
1.0
 40
1.0
 40
1.0
 40
1.0
 10
353.3445527877473
 20
22.60269683192786
 42
1.0
 10
353.7269308258461
 20
22.61234309928658
 42
1.0
 10
354.0997108279232
 20
22.63819509580789
 42
1.0
 10
354.4644844280922
 20
22.6381950958079
 42
1.0
 72
     4
 94
        3
 73
     1
 74
     0
 95
        8
 96
        4
 40
1.0
 40
1.0
 40
1.0
 40
1.0
 40
2.0
 40
2.0
 40
2.0
 40
2.0
 10
354.4644844280922
 20
22.6381950958079
 42
1.0
 10
356.454509384192
 20
22.63819509580788
 42
1.0
 10
357.2272236309607
 20
21.95451589676006
 42
1.0
 10
357.2272236309607
 20
20.07146804566833
 42
1.0
 97
        0
 75
     0
 76
     1
 98
        1
 10
0.0
 20
0.0
  0
HATCH
  5
348F
330
1F
100
AcDbEntity
  8
図枠
  6
Continuous
 62
     7
100
AcDbHatch
 10
0.0
 20
0.0
 30
0.0
210
0.0
220
0.0
230
1.0
  2
SOLID
 70
     1
 71
     0
 91
        1
 92
        0
 93
        6
 72
     4
 94
        3
 73
     1
 74
     0
 95
        8
 96
        4
 40
4.0
 40
4.0
 40
4.0
 40
4.0
 40
5.0
 40
5.0
 40
5.0
 40
5.0
 10
359.8220695504509
 20
21.10058007883118
 42
1.0
 10
359.9371012887034
 20
21.10058007883118
 42
1.0
 10
360.044416013069
 20
21.11992084488537
 42
1.0
 10
360.1771486519246
 20
21.12821663481386
 42
1.0
 72
     1
 10
360.1771486519246
 20
21.12821663481386
 11
360.1771486519246
 21
16.88130273613601
 72
     4
 94
        3
 73
     1
 74
     0
 95
        8
 96
        4
 40
0.0
 40
0.0
 40
0.0
 40
0.0
 40
1.0
 40
1.0
 40
1.0
 40
1.0
 10
360.1771486519246
 20
16.88130273613601
 42
1.0
 10
360.044416013069
 20
16.89037022745316
 42
1.0
 10
359.9371012887034
 20
16.90734765800448
 42
1.0
 10
359.8220695504509
 20
16.90734765800448
 42
1.0
 72
     4
 94
        3
 73
     1
 74
     0
 95
        8
 96
        4
 40
1.0
 40
1.0
 40
1.0
 40
1.0
 40
2.0
 40
2.0
 40
2.0
 40
2.0
 10
359.8220695504509
 20
16.90734765800448
 42
1.0
 10
359.6978256268708
 20
16.90734765800448
 42
1.0
 10
359.5816845678722
 20
16.89037022745316
 42
1.0
 10
359.4666045982827
 20
16.88130273613601
 42
1.0
 72
     1
 10
359.4666045982827
 20
16.88130273613601
 11
359.4666045982827
 21
21.12821663481386
 72
     4
 94
        3
 73
     1
 74
     0
 95
        8
 96
        4
 40
3.0
 40
3.0
 40
3.0
 40
3.0
 40
4.0
 40
4.0
 40
4.0
 40
4.0
 10
359.4666045982827
 20
21.12821663481386
 42
1.0
 10
359.5816845678722
 20
21.11992084488537
 42
1.0
 10
359.6978256268708
 20
21.10058007883118
 42
1.0
 10
359.8220695504509
 20
21.10058007883118
 42
1.0
 97
        0
 75
     0
 76
     1
 98
        1
 10
0.0
 20
0.0
  0
HATCH
  5
3490
330
1F
100
AcDbEntity
  8
図枠
  6
Continuous
 62
     7
100
AcDbHatch
 10
0.0
 20
0.0
 30
0.0
210
0.0
220
0.0
230
1.0
  2
SOLID
 70
     1
 71
     0
 91
        1
 92
        0
 93
        2
 72
     4
 94
        3
 73
     1
 74
     0
 95
       11
 96
        7
 40
0.0
 40
0.0
 40
0.0
 40
0.0
 40
1.0
 40
1.0
 40
1.0
 40
2.0
 40
2.0
 40
2.0
 40
2.0
 10
359.8220695504509
 20
22.19465972265487
 42
1.0
 10
359.5730029272493
 20
22.19465972265487
 42
1.0
 10
359.3681162085505
 20
22.39805126991308
 42
1.0
 10
359.3681162085505
 20
22.64750374380904
 42
1.0
 10
359.3681162085505
 20
22.89681152369462
 42
1.0
 10
359.5730029272493
 20
23.10145708570941
 42
1.0
 10
359.8220695504509
 20
23.10145708570941
 42
1.0
 72
     4
 94
        3
 73
     1
 74
     0
 95
       11
 96
        7
 40
2.0
 40
2.0
 40
2.0
 40
2.0
 40
3.0
 40
3.0
 40
3.0
 40
4.0
 40
4.0
 40
4.0
 40
4.0
 10
359.8220695504509
 20
23.10145708570941
 42
1.0
 10
360.0612969809465
 20
23.10145708570941
 42
1.0
 10
360.2746724149211
 20
22.89681152369462
 42
1.0
 10
360.2746724149211
 20
22.64750374380904
 42
1.0
 10
360.2746724149211
 20
22.39805126991308
 42
1.0
 10
360.0612969809465
 20
22.19465972265487
 42
1.0
 10
359.8220695504509
 20
22.19465972265487
 42
1.0
 97
        0
 75
     0
 76
     1
 98
        1
 10
0.0
 20
0.0
  0
HATCH
  5
3491
330
1F
100
AcDbEntity
  8
図枠
  6
Continuous
 62
     7
100
AcDbHatch
 10
0.0
 20
0.0
 30
0.0
210
0.0
220
0.0
230
1.0
  2
SOLID
 70
     1
 71
     0
 91
        1
 92
        0
 93
       14
 72
     4
 94
        3
 73
     1
 74
     0
 95
        8
 96
        4
 40
12.0
 40
12.0
 40
12.0
 40
12.0
 40
13.0
 40
13.0
 40
13.0
 40
13.0
 10
367.3558525889321
 20
22.57713422342731
 42
1.0
 10
367.2756921071812
 20
22.35420898476778
 42
1.0
 10
367.2136666080648
 20
22.12322911286372
 42
1.0
 10
367.1514481836012
 20
21.89302094234835
 42
1.0
 72
     1
 10
367.1514481836012
 20
21.89302094234835
 11
367.053635032584
 21
21.89302094234835
 72
     4
 94
        3
 73
     1
 74
     0
 95
        8
 96
        4
 40
0.0
 40
0.0
 40
0.0
 40
0.0
 40
1.0
 40
1.0
 40
1.0
 40
1.0
 10
367.053635032584
 20
21.89302094234835
 42
1.0
 10
366.5559840995485
 20
22.46123432111253
 42
1.0
 10
365.8092665433118
 20
22.75414322945944
 42
1.0
 10
365.054542585167
 20
22.75414322945944
 42
1.0
 72
     4
 94
        3
 73
     1
 74
     0
 95
        8
 96
        4
 40
1.0
 40
1.0
 40
1.0
 40
1.0
 40
2.0
 40
2.0
 40
2.0
 40
2.0
 10
365.054542585167
 20
22.75414322945944
 42
1.0
 10
363.5437441914476
 20
22.75414322945944
 42
1.0
 10
362.4959666309456
 20
21.75937190809358
 42
1.0
 10
362.4959666309456
 20
19.9654555673962
 42
1.0
 72
     4
 94
        3
 73
     1
 74
     0
 95
        8
 96
        4
 40
2.0
 40
2.0
 40
2.0
 40
2.0
 40
3.0
 40
3.0
 40
3.0
 40
3.0
 10
362.4959666309456
 20
19.9654555673962
 42
1.0
 10
362.4959666309456
 20
18.20477061774959
 42
1.0
 10
363.401654673254
 20
17.11223437670327
 42
1.0
 10
365.15196988549
 20
17.11223437670327
 42
1.0
 72
     4
 94
        3
 73
     1
 74
     0
 95
        8
 96
        4
 40
3.0
 40
3.0
 40
3.0
 40
3.0
 40
4.0
 40
4.0
 40
4.0
 40
4.0
 10
365.15196988549
 20
17.11223437670327
 42
1.0
 10
365.6323539999531
 20
17.11223437670327
 42
1.0
 10
366.1301978583356
 20
17.20184820046559
 42
1.0
 10
366.5384278929558
 20
17.41435547037771
 42
1.0
 72
     1
 10
366.5384278929558
 20
17.41435547037771
 11
366.5384278929558
 21
19.69815749888666
 72
     4
 94
        3
 73
     1
 74
     0
 95
        8
 96
        4
 40
5.0
 40
5.0
 40
5.0
 40
5.0
 40
6.0
 40
6.0
 40
6.0
 40
6.0
 10
366.5384278929558
 20
19.69815749888666
 42
1.0
 10
366.6629612045565
 20
19.68865592553832
 42
1.0
 10
366.7963690821275
 20
19.67081033092475
 42
1.0
 10
366.9296804970246
 20
19.67081033092475
 42
1.0
 72
     4
 94
        3
 73
     1
 74
     0
 95
        8
 96
        4
 40
6.0
 40
6.0
 40
6.0
 40
6.0
 40
7.0
 40
7.0
 40
7.0
 40
7.0
 10
366.9296804970246
 20
19.67081033092475
 42
1.0
 10
367.0532491818895
 20
19.67081033092475
 42
1.0
 10
367.1784577322055
 20
19.68865592553832
 42
1.0
 10
367.3206437130728
 20
19.69815749888666
 42
1.0
 72
     1
 10
367.3206437130728
 20
19.69815749888666
 11
367.3206437130728
 21
17.18361675515765
 72
     4
 94
        3
 73
     1
 74
     0
 95
        8
 96
        4
 40
8.0
 40
8.0
 40
8.0
 40
8.0
 40
9.0
 40
9.0
 40
9.0
 40
9.0
 10
367.3206437130728
 20
17.18361675515765
 42
1.0
 10
366.5473024589257
 20
16.91718685071036
 42
1.0
 10
365.7300706882967
 20
16.7746150191488
 42
1.0
 10
364.9031926503091
 20
16.7746150191488
 42
1.0
 72
     4
 94
        3
 73
     1
 74
     0
 95
        8
 96
        4
 40
9.0
 40
9.0
 40
9.0
 40
9.0
 40
10.0
 40
10.0
 40
10.0
 40
10.0
 10
364.9031926503091
 20
16.7746150191488
 42
1.0
 10
362.6556123557321
 20
16.7746150191488
 42
1.0
 10
361.6255356958334
 20
18.11660373409106
 42
1.0
 10
361.6255356958334
 20
19.9202145734839
 42
1.0
 72
     4
 94
        3
 73
     1
 74
     0
 95
        8
 96
        4
 40
10.0
 40
10.0
 40
10.0
 40
10.0
 40
11.0
 40
11.0
 40
11.0
 40
11.0
 10
361.6255356958334
 20
19.9202145734839
 42
1.0
 10
361.6255356958334
 20
21.99830995056854
 42
1.0
 10
363.1180544129081
 20
23.0913767363196
 42
1.0
 10
365.0897514610264
 20
23.0913767363196
 42
1.0
 72
     4
 94
        3
 73
     1
 74
     0
 95
        8
 96
        4
 40
11.0
 40
11.0
 40
11.0
 40
11.0
 40
12.0
 40
12.0
 40
12.0
 40
12.0
 10
365.0897514610264
 20
23.0913767363196
 42
1.0
 10
366.4145698200701
 20
23.0913767363196
 42
1.0
 10
367.1598404362031
 20
22.70152284101775
 42
1.0
 10
367.3558525889321
 20
22.57713422342731
 42
1.0
 97
        0
 75
     0
 76
     1
 98
        1
 10
0.0
 20
0.0
  0
HATCH
  5
3492
330
1F
100
AcDbEntity
  8
図枠
  6
Continuous
 62
     7
100
AcDbHatch
 10
0.0
 20
0.0
 30
0.0
210
0.0
220
0.0
230
1.0
  2
SOLID
 70
     1
 71
     0
 91
        1
 92
        0
 93
        6
 72
     4
 94
        3
 73
     1
 74
     0
 95
        8
 96
        4
 40
4.0
 40
4.0
 40
4.0
 40
4.0
 40
5.0
 40
5.0
 40
5.0
 40
5.0
 10
369.2039809521852
 20
21.10058007883118
 42
1.0
 10
369.3193503097952
 20
21.10058007883118
 42
1.0
 10
369.4260380267825
 20
21.11992084488537
 42
1.0
 10
369.5594459043533
 20
21.12821663481386
 42
1.0
 72
     1
 10
369.5594459043533
 20
21.12821663481386
 11
369.5594459043533
 21
16.88130273613601
 72
     4
 94
        3
 73
     1
 74
     0
 95
        8
 96
        4
 40
0.0
 40
0.0
 40
0.0
 40
0.0
 40
1.0
 40
1.0
 40
1.0
 40
1.0
 10
369.5594459043533
 20
16.88130273613601
 42
1.0
 10
369.4260380267825
 20
16.89037022745316
 42
1.0
 10
369.3193503097952
 20
16.90734765800448
 42
1.0
 10
369.2039809521852
 20
16.90734765800448
 42
1.0
 72
     4
 94
        3
 73
     1
 74
     0
 95
        8
 96
        4
 40
1.0
 40
1.0
 40
1.0
 40
1.0
 40
2.0
 40
2.0
 40
2.0
 40
2.0
 10
369.2039809521852
 20
16.90734765800448
 42
1.0
 10
369.0786759391958
 20
16.90734765800448
 42
1.0
 10
368.9633065815856
 20
16.89037022745316
 42
1.0
 10
368.8486124626907
 20
16.88130273613601
 42
1.0
 72
     1
 10
368.8486124626907
 20
16.88130273613601
 11
368.8486124626907
 21
21.12821663481386
 72
     4
 94
        3
 73
     1
 74
     0
 95
        8
 96
        4
 40
3.0
 40
3.0
 40
3.0
 40
3.0
 40
4.0
 40
4.0
 40
4.0
 40
4.0
 10
368.8486124626907
 20
21.12821663481386
 42
1.0
 10
368.9633065815856
 20
21.11992084488537
 42
1.0
 10
369.0786759391958
 20
21.10058007883118
 42
1.0
 10
369.2039809521852
 20
21.10058007883118
 42
1.0
 97
        0
 75
     0
 76
     1
 98
        1
 10
0.0
 20
0.0
  0
HATCH
  5
3493
330
1F
100
AcDbEntity
  8
図枠
  6
Continuous
 62
     7
100
AcDbHatch
 10
0.0
 20
0.0
 30
0.0
210
0.0
220
0.0
230
1.0
  2
SOLID
 70
     1
 71
     0
 91
        1
 92
        0
 93
        2
 72
     4
 94
        3
 73
     1
 74
     0
 95
       11
 96
        7
 40
0.0
 40
0.0
 40
0.0
 40
0.0
 40
1.0
 40
1.0
 40
1.0
 40
2.0
 40
2.0
 40
2.0
 40
2.0
 10
369.2039809521852
 20
22.19465972265487
 42
1.0
 10
368.955300179678
 20
22.19465972265487
 42
1.0
 10
368.7501240729583
 20
22.39805126991308
 42
1.0
 10
368.7501240729583
 20
22.64750374380904
 42
1.0
 10
368.7501240729583
 20
22.89681152369462
 42
1.0
 10
368.955300179678
 20
23.10145708570941
 42
1.0
 10
369.2039809521852
 20
23.10145708570941
 42
1.0
 72
     4
 94
        3
 73
     1
 74
     0
 95
       11
 96
        7
 40
2.0
 40
2.0
 40
2.0
 40
2.0
 40
3.0
 40
3.0
 40
3.0
 40
4.0
 40
4.0
 40
4.0
 40
4.0
 10
369.2039809521852
 20
23.10145708570941
 42
1.0
 10
369.4432083826809
 20
23.10145708570941
 42
1.0
 10
369.6569696673498
 20
22.89681152369462
 42
1.0
 10
369.6569696673498
 20
22.64750374380904
 42
1.0
 10
369.6569696673498
 20
22.39805126991308
 42
1.0
 10
369.4432083826809
 20
22.19465972265487
 42
1.0
 10
369.2039809521852
 20
22.19465972265487
 42
1.0
 97
        0
 75
     0
 76
     1
 98
        1
 10
0.0
 20
0.0
  0
HATCH
  5
3494
330
1F
100
AcDbEntity
  8
図枠
  6
Continuous
 62
     7
100
AcDbHatch
 10
0.0
 20
0.0
 30
0.0
210
0.0
220
0.0
230
1.0
  2
SOLID
 70
     1
 71
     0
 91
        1
 92
        0
 93
       11
 72
     4
 94
        3
 73
     1
 74
     0
 95
        8
 96
        4
 40
9.0
 40
9.0
 40
9.0
 40
9.0
 40
10.0
 40
10.0
 40
10.0
 40
10.0
 10
375.201258294436
 20
22.42583251990612
 42
1.0
 10
374.7564689065262
 20
22.47879052770539
 42
1.0
 10
374.1354422139731
 20
22.53280962491409
 42
1.0
 10
373.3447376785806
 20
22.53280962491409
 42
1.0
 72
     1
 10
373.3447376785806
 20
22.53280962491409
 11
373.3447376785806
 21
16.8641323802375
 72
     4
 94
        3
 73
     1
 74
     0
 95
        8
 96
        4
 40
0.0
 40
0.0
 40
0.0
 40
0.0
 40
1.0
 40
1.0
 40
1.0
 40
1.0
 10
373.3447376785806
 20
16.8641323802375
 42
1.0
 10
373.2025516977134
 20
16.87358572224905
 42
1.0
 10
373.0777289980919
 20
16.89037022745316
 42
1.0
 10
372.9534850745118
 20
16.89037022745316
 42
1.0
 72
     4
 94
        3
 73
     1
 74
     0
 95
        8
 96
        4
 40
1.0
 40
1.0
 40
1.0
 40
1.0
 40
2.0
 40
2.0
 40
2.0
 40
2.0
 10
372.9534850745118
 20
16.89037022745316
 42
1.0
 10
372.8204630476353
 20
16.89037022745316
 42
1.0
 10
372.6862834686758
 20
16.87358572224905
 42
1.0
 10
372.5620395450958
 20
16.8641323802375
 42
1.0
 72
     1
 10
372.5620395450958
 20
16.8641323802375
 11
372.5620395450958
 21
22.53280962491409
 72
     4
 94
        3
 73
     1
 74
     0
 95
        8
 96
        4
 40
3.0
 40
3.0
 40
3.0
 40
3.0
 40
4.0
 40
4.0
 40
4.0
 40
4.0
 10
372.5620395450958
 20
22.53280962491409
 42
1.0
 10
371.6651296060838
 20
22.53280962491409
 42
1.0
 10
371.1236846192401
 20
22.47879052770539
 42
1.0
 10
370.6165803441933
 20
22.42583251990612
 42
1.0
 72
     4
 94
        3
 73
     1
 74
     0
 95
        8
 96
        4
 40
4.0
 40
4.0
 40
4.0
 40
4.0
 40
5.0
 40
5.0
 40
5.0
 40
5.0
 10
370.6165803441933
 20
22.42583251990612
 42
1.0
 10
370.6248761341216
 20
22.51486756762691
 42
1.0
 10
370.6432040421031
 20
22.60269683192786
 42
1.0
 10
370.6432040421031
 20
22.69216596167979
 42
1.0
 72
     4
 94
        3
 73
     1
 74
     0
 95
        8
 96
        4
 40
5.0
 40
5.0
 40
5.0
 40
5.0
 40
6.0
 40
6.0
 40
6.0
 40
6.0
 10
370.6432040421031
 20
22.69216596167979
 42
1.0
 10
370.6432040421031
 20
22.78086339004306
 42
1.0
 10
370.6248761341216
 20
22.86073448377311
 42
1.0
 10
370.6165803441933
 20
22.95845117211671
 42
1.0
 72
     1
 10
370.6165803441933
 20
22.95845117211671
 11
375.201258294436
 21
22.95845117211671
 72
     4
 94
        3
 73
     1
 74
     0
 95
        8
 96
        4
 40
7.0
 40
7.0
 40
7.0
 40
7.0
 40
8.0
 40
8.0
 40
8.0
 40
8.0
 10
375.201258294436
 20
22.95845117211671
 42
1.0
 10
375.1914191017301
 20
22.86073448377311
 42
1.0
 10
375.1745381338523
 20
22.78086339004306
 42
1.0
 10
375.1745381338523
 20
22.69216596167979
 42
1.0
 72
     4
 94
        3
 73
     1
 74
     0
 95
        8
 96
        4
 40
8.0
 40
8.0
 40
8.0
 40
8.0
 40
9.0
 40
9.0
 40
9.0
 40
9.0
 10
375.1745381338523
 20
22.69216596167979
 42
1.0
 10
375.1745381338523
 20
22.60269683192786
 42
1.0
 10
375.1914191017301
 20
22.51486756762691
 42
1.0
 10
375.201258294436
 20
22.42583251990612
 42
1.0
 97
        0
 75
     0
 76
     1
 98
        1
 10
0.0
 20
0.0
  0
HATCH
  5
3495
330
1F
100
AcDbEntity
  8
図枠
  6
Continuous
 62
     7
100
AcDbHatch
 10
0.0
 20
0.0
 30
0.0
210
0.0
220
0.0
230
1.0
  2
SOLID
 70
     1
 71
     0
 91
        1
 92
        0
 93
       20
 72
     4
 94
        3
 73
     1
 74
     0
 95
        8
 96
        4
 40
16.0
 40
16.0
 40
16.0
 40
16.0
 40
17.0
 40
17.0
 40
17.0
 40
17.0
 10
379.3230118741347
 20
22.42583251990612
 42
1.0
 10
379.0569678203817
 20
22.47879052770539
 42
1.0
 10
378.7895732891986
 20
22.50555891962577
 42
1.0
 10
378.5238186234664
 20
22.52292220087144
 42
1.0
 72
     1
 10
378.5238186234664
 20
22.52292220087144
 11
377.636362026466
 21
22.54057487013784
 72
     1
 10
377.636362026466
 20
22.54057487013784
 11
376.950608879936
 21
22.54057487013784
 72
     1
 10
376.950608879936
 20
22.54057487013784
 11
376.950608879936
 21
20.31127425220559
 72
     1
 10
376.950608879936
 20
20.31127425220559
 11
378.3282887841056
 21
20.31127425220559
 72
     4
 94
        3
 73
     1
 74
     0
 95
        8
 96
        4
 40
1.0
 40
1.0
 40
1.0
 40
1.0
 40
2.0
 40
2.0
 40
2.0
 40
2.0
 10
378.3282887841056
 20
20.31127425220559
 42
1.0
 10
378.5941399125113
 20
20.31127425220559
 42
1.0
 10
378.85227402703
 20
20.34648312806483
 42
1.0
 10
379.1186074688038
 20
20.35550238804521
 42
1.0
 72
     4
 94
        3
 73
     1
 74
     0
 95
        8
 96
        4
 40
2.0
 40
2.0
 40
2.0
 40
2.0
 40
3.0
 40
3.0
 40
3.0
 40
3.0
 10
379.1186074688038
 20
20.35550238804521
 42
1.0
 10
379.1107939922432
 20
20.28436116627481
 42
1.0
 10
379.0924660842617
 20
20.20487592323912
 42
1.0
 10
379.0924660842617
 20
20.12514952351947
 42
1.0
 72
     4
 94
        3
 73
     1
 74
     0
 95
        8
 96
        4
 40
3.0
 40
3.0
 40
3.0
 40
3.0
 40
4.0
 40
4.0
 40
4.0
 40
4.0
 10
379.0924660842617
 20
20.12514952351947
 42
1.0
 10
379.0924660842617
 20
20.0529954436764
 42
1.0
 10
379.1107939922432
 20
19.97259380524166
 42
1.0
 10
379.1186074688038
 20
19.87569704962349
 42
1.0
 72
     4
 94
        3
 73
     1
 74
     0
 95
        8
 96
        4
 40
4.0
 40
4.0
 40
4.0
 40
4.0
 40
5.0
 40
5.0
 40
5.0
 40
5.0
 10
379.1186074688038
 20
19.87569704962349
 42
1.0
 10
378.85227402703
 20
19.88587386168694
 42
1.0
 10
378.5941399125113
 20
19.9202145734839
 42
1.0
 10
378.3282887841056
 20
19.9202145734839
 42
1.0
 72
     1
 10
378.3282887841056
 20
19.9202145734839
 11
376.950608879936
 21
19.9202145734839
 72
     1
 10
376.950608879936
 20
19.9202145734839
 11
376.950608879936
 21
17.32541688533052
 72
     4
 94
        3
 73
     1
 74
     0
 95
        8
 96
        4
 40
7.0
 40
7.0
 40
7.0
 40
7.0
 40
8.0
 40
8.0
 40
8.0
 40
8.0
 10
376.950608879936
 20
17.32541688533052
 42
1.0
 10
377.4928255681685
 20
17.30737836536974
 42
1.0
 10
378.0254924517159
 20
17.34374479331203
 42
1.0
 10
378.5597992007144
 20
17.36120453723132
 42
1.0
 72
     4
 94
        3
 73
     1
 74
     0
 95
        8
 96
        4
 40
8.0
 40
8.0
 40
8.0
 40
8.0
 40
9.0
 40
9.0
 40
9.0
 40
9.0
 10
378.5597992007144
 20
17.36120453723132
 42
1.0
 10
378.83452489509
 20
17.37036849122208
 42
1.0
 10
379.1016300382524
 20
17.39718511447925
 42
1.0
 10
379.3765486579755
 20
17.44117209363492
 42
1.0
 72
     4
 94
        3
 73
     1
 74
     0
 95
        8
 96
        4
 40
9.0
 40
9.0
 40
9.0
 40
9.0
 40
10.0
 40
10.0
 40
10.0
 40
10.0
 10
379.3765486579755
 20
17.44117209363492
 42
1.0
 10
379.3679634800263
 20
17.34374479331203
 42
1.0
 10
379.350503736107
 20
17.26310199819333
 42
1.0
 10
379.350503736107
 20
17.17397048779896
 42
1.0
 72
     4
 94
        3
 73
     1
 74
     0
 95
        8
 96
        4
 40
10.0
 40
10.0
 40
10.0
 40
10.0
 40
11.0
 40
11.0
 40
11.0
 40
11.0
 10
379.350503736107
 20
17.17397048779896
 42
1.0
 10
379.350503736107
 20
17.08599652948759
 42
1.0
 10
379.3679634800263
 20
16.99667209374605
 42
1.0
 10
379.3765486579755
 20
16.90734765800448
 42
1.0
 72
     1
 10
379.3765486579755
 20
16.90734765800448
 11
376.1693576865551
 21
16.90734765800448
 72
     1
 10
376.1693576865551
 20
16.90734765800448
 11
376.1693576865551
 21
22.95845117211671
 72
     1
 10
376.1693576865551
 20
22.95845117211671
 11
379.3230118741347
 21
22.95845117211671
 72
     4
 94
        3
 73
     1
 74
     0
 95
        8
 96
        4
 40
14.0
 40
14.0
 40
14.0
 40
14.0
 40
15.0
 40
15.0
 40
15.0
 40
15.0
 10
379.3230118741347
 20
22.95845117211671
 42
1.0
 10
379.3152948602477
 20
22.86073448377311
 42
1.0
 10
379.2966775642455
 20
22.78086339004306
 42
1.0
 10
379.2966775642455
 20
22.69216596167979
 42
1.0
 72
     4
 94
        3
 73
     1
 74
     0
 95
        8
 96
        4
 40
15.0
 40
15.0
 40
15.0
 40
15.0
 40
16.0
 40
16.0
 40
16.0
 40
16.0
 10
379.2966775642455
 20
22.69216596167979
 42
1.0
 10
379.2966775642455
 20
22.60269683192786
 42
1.0
 10
379.3152948602477
 20
22.51486756762691
 42
1.0
 10
379.3230118741347
 20
22.42583251990612
 42
1.0
 97
        0
 75
     0
 76
     1
 98
        1
 10
0.0
 20
0.0
  0
HATCH
  5
3496
330
1F
100
AcDbEntity
  8
図枠
  6
Continuous
 62
     7
100
AcDbHatch
 10
0.0
 20
0.0
 30
0.0
210
0.0
220
0.0
230
1.0
  2
SOLID
 70
     1
 71
     0
 91
        1
 92
        0
 93
       11
 72
     4
 94
        3
 73
     1
 74
     0
 95
        8
 96
        4
 40
9.0
 40
9.0
 40
9.0
 40
9.0
 40
10.0
 40
10.0
 40
10.0
 40
10.0
 10
383.4099424286684
 20
17.12130186802043
 42
1.0
 10
384.3698424935328
 20
17.12130186802043
 42
1.0
 10
385.1158848110546
 20
17.69023871683654
 42
1.0
 10
385.2942442945169
 20
17.84110633832662
 42
1.0
 72
     1
 10
385.2942442945169
 20
17.84110633832662
 11
385.249582076646
 21
17.2810440554805
 72
     4
 94
        3
 73
     1
 74
     0
 95
        8
 96
        4
 40
0.0
 40
0.0
 40
0.0
 40
0.0
 40
1.0
 40
1.0
 40
1.0
 40
1.0
 10
385.249582076646
 20
17.2810440554805
 42
1.0
 10
384.6903879578623
 20
16.90734765800448
 42
1.0
 10
383.9617089215861
 20
16.7746150191488
 42
1.0
 10
383.2860843557829
 20
16.7746150191488
 42
1.0
 72
     4
 94
        3
 73
     1
 74
     0
 95
        8
 96
        4
 40
1.0
 40
1.0
 40
1.0
 40
1.0
 40
2.0
 40
2.0
 40
2.0
 40
2.0
 10
383.2860843557829
 20
16.7746150191488
 42
1.0
 10
381.332039976931
 20
16.7746150191488
 42
1.0
 10
380.158378627398
 20
18.00924077838873
 42
1.0
 10
380.158378627398
 20
19.95585753137431
 42
1.0
 72
     4
 94
        3
 73
     1
 74
     0
 95
        8
 96
        4
 40
2.0
 40
2.0
 40
2.0
 40
2.0
 40
3.0
 40
3.0
 40
3.0
 40
3.0
 10
380.158378627398
 20
19.95585753137431
 42
1.0
 10
380.158378627398
 20
21.95451589676006
 42
1.0
 10
381.6330999811959
 20
23.0913767363196
 42
1.0
 10
383.5084308184008
 20
23.0913767363196
 42
1.0
 72
     4
 94
        3
 73
     1
 74
     0
 95
        8
 96
        4
 40
3.0
 40
3.0
 40
3.0
 40
3.0
 40
4.0
 40
4.0
 40
4.0
 40
4.0
 10
383.5084308184008
 20
23.0913767363196
 42
1.0
 10
384.1566599849054
 20
23.0913767363196
 42
1.0
 10
384.8234099847388
 20
22.94147374156541
 42
1.0
 10
385.4184882180969
 20
22.68358078373056
 42
1.0
 72
     4
 94
        3
 73
     1
 74
     0
 95
        8
 96
        4
 40
4.0
 40
4.0
 40
4.0
 40
4.0
 40
5.0
 40
5.0
 40
5.0
 40
5.0
 10
385.4184882180969
 20
22.68358078373056
 42
1.0
 10
385.3290673196817
 20
22.46123432111253
 42
1.0
 10
385.276688087924
 20
22.23015798653489
 42
1.0
 10
385.2320258700533
 20
21.99830995056854
 42
1.0
 72
     1
 10
385.2320258700533
 20
21.99830995056854
 11
385.1694215948954
 21
21.98986946662968
 72
     4
 94
        3
 73
     1
 74
     0
 95
        8
 96
        4
 40
6.0
 40
6.0
 40
6.0
 40
6.0
 40
7.0
 40
7.0
 40
7.0
 40
7.0
 10
385.1694215948954
 20
21.98986946662968
 42
1.0
 10
385.0451776713151
 20
22.15043158681523
 42
1.0
 10
384.3874951627991
 20
22.75414322945944
 42
1.0
 10
383.4729325545208
 20
22.75414322945944
 42
1.0
 72
     4
 94
        3
 73
     1
 74
     0
 95
        8
 96
        4
 40
7.0
 40
7.0
 40
7.0
 40
7.0
 40
8.0
 40
8.0
 40
8.0
 40
8.0
 10
383.4729325545208
 20
22.75414322945944
 42
1.0
 10
381.8379866998947
 20
22.75414322945944
 42
1.0
 10
381.0292436445413
 20
21.42995187779396
 42
1.0
 10
381.0292436445413
 20
19.9202145734839
 42
1.0
 72
     4
 94
        3
 73
     1
 74
     0
 95
        8
 96
        4
 40
8.0
 40
8.0
 40
8.0
 40
8.0
 40
9.0
 40
9.0
 40
9.0
 40
9.0
 10
381.0292436445413
 20
19.9202145734839
 42
1.0
 10
381.0292436445413
 20
18.21345225837241
 42
1.0
 10
382.0062176026305
 20
17.12130186802043
 42
1.0
 10
383.4099424286684
 20
17.12130186802043
 42
1.0
 97
        0
 75
     0
 76
     1
 98
        1
 10
0.0
 20
0.0
  0
HATCH
  5
3497
330
1F
100
AcDbEntity
  8
図枠
  6
Continuous
 62
     7
100
AcDbHatch
 10
0.0
 20
0.0
 30
0.0
210
0.0
220
0.0
230
1.0
  2
SOLID
 70
     1
 71
     0
 91
        1
 92
        0
 93
        8
 72
     1
 10
353.7333938249764
 20
14.67033002618525
 11
353.7333938249764
 21
14.39618310785101
 72
     1
 10
353.7333938249764
 20
14.39618310785101
 11
353.1555824101903
 21
14.39618310785101
 72
     1
 10
353.1555824101903
 20
14.39618310785101
 11
353.1555824101903
 21
12.8543237332365
 72
     1
 10
353.1555824101903
 20
12.8543237332365
 11
352.8374485127005
 21
12.8543237332365
 72
     1
 10
352.8374485127005
 20
12.8543237332365
 11
352.8374485127005
 21
14.39618310785101
 72
     1
 10
352.8374485127005
 20
14.39618310785101
 11
352.2623380527748
 21
14.39618310785101
 72
     1
 10
352.2623380527748
 20
14.39618310785101
 11
352.2623380527748
 21
14.67033002618525
 72
     1
 10
352.2623380527748
 20
14.67033002618525
 11
353.7333938249764
 21
14.67033002618525
 97
        0
 75
     0
 76
     1
 98
        1
 10
0.0
 20
0.0
  0
HATCH
  5
3498
330
1F
100
AcDbEntity
  8
図枠
  6
Continuous
 62
     7
100
AcDbHatch
 10
0.0
 20
0.0
 30
0.0
210
0.0
220
0.0
230
1.0
  2
SOLID
 70
     1
 71
     0
 91
        2
 92
        0
 93
        8
 72
     1
 10
354.1959805761628
 20
14.67033002618525
 11
353.4990859908336
 21
12.8543237332365
 72
     1
 10
353.4990859908336
 20
12.8543237332365
 11
353.8275413943975
 21
12.8543237332365
 72
     1
 10
353.8275413943975
 20
12.8543237332365
 11
353.9986661773407
 21
13.33451492235256
 72
     1
 10
353.9986661773407
 20
13.33451492235256
 11
354.7231490873158
 21
13.33451492235256
 72
     1
 10
354.7231490873158
 20
13.33451492235256
 11
354.8937915568913
 21
12.8543237332365
 72
     1
 10
354.8937915568913
 20
12.8543237332365
 11
355.2351247273789
 21
12.8543237332365
 72
     1
 10
355.2351247273789
 20
12.8543237332365
 11
354.5349986424844
 21
14.67033002618525
 72
     1
 10
354.5349986424844
 20
14.67033002618525
 11
354.1959805761628
 21
14.67033002618525
 97
        0
 92
        0
 93
        4
 72
     1
 10
354.6396124119896
 20
13.57644330770875
 11
354.0843250314861
 21
13.57644330770875
 72
     1
 10
354.0843250314861
 20
13.57644330770875
 11
354.3597259645768
 21
14.35798388911056
 72
     1
 10
354.3597259645768
 20
14.35798388911056
 11
354.3667677397487
 21
14.35798388911056
 72
     1
 10
354.3667677397487
 20
14.35798388911056
 11
354.6396124119896
 21
13.57644330770875
 97
        0
 75
     0
 76
     1
 98
        1
 10
0.0
 20
0.0
  0
HATCH
  5
3499
330
1F
100
AcDbEntity
  8
図枠
  6
Continuous
 62
     7
100
AcDbHatch
 10
0.0
 20
0.0
 30
0.0
210
0.0
220
0.0
230
1.0
  2
SOLID
 70
     1
 71
     0
 91
        1
 92
        0
 93
       12
 72
     1
 10
356.5350074853005
 20
14.67033002618525
 11
356.9267424027372
 21
14.67033002618525
 72
     1
 10
356.9267424027372
 20
14.67033002618525
 11
356.201584254047
 21
13.9460882728941
 72
     1
 10
356.201584254047
 20
13.9460882728941
 11
356.9773370750336
 21
12.8543237332365
 72
     1
 10
356.9773370750336
 20
12.8543237332365
 11
356.5807790239173
 21
12.8543237332365
 72
     1
 10
356.5807790239173
 20
12.8543237332365
 11
355.9854596338752
 21
13.72171609413075
 72
     1
 10
355.9854596338752
 20
13.72171609413075
 11
355.7256374225686
 21
13.46377490495913
 72
     1
 10
355.7256374225686
 20
13.46377490495913
 11
355.7256374225686
 21
12.8543237332365
 72
     1
 10
355.7256374225686
 20
12.8543237332365
 11
355.4076964504259
 21
12.8543237332365
 72
     1
 10
355.4076964504259
 20
12.8543237332365
 11
355.4076964504259
 21
14.67033002618525
 72
     1
 10
355.4076964504259
 20
14.67033002618525
 11
355.7256374225686
 21
14.67033002618525
 72
     1
 10
355.7256374225686
 20
14.67033002618525
 11
355.7256374225686
 21
13.84403076423906
 72
     1
 10
355.7256374225686
 20
13.84403076423906
 11
356.5350074853005
 21
14.67033002618525
 97
        0
 75
     0
 76
     1
 98
        1
 10
0.0
 20
0.0
  0
HATCH
  5
349A
330
1F
100
AcDbEntity
  8
図枠
  6
Continuous
 62
     7
100
AcDbHatch
 10
0.0
 20
0.0
 30
0.0
210
0.0
220
0.0
230
1.0
  2
SOLID
 70
     1
 71
     0
 91
        2
 92
        0
 93
        8
 72
     1
 10
357.636804143011
 20
14.67033002618525
 11
356.9397648636715
 21
12.8543237332365
 72
     1
 10
356.9397648636715
 20
12.8543237332365
 11
357.2676897225305
 21
12.8543237332365
 72
     1
 10
357.2676897225305
 20
12.8543237332365
 11
357.4380428040852
 21
13.33451492235256
 72
     1
 10
357.4380428040852
 20
13.33451492235256
 11
358.1628633334178
 21
13.33451492235256
 72
     1
 10
358.1628633334178
 20
13.33451492235256
 11
358.3333611089828
 21
12.8543237332365
 72
     1
 10
358.3333611089828
 20
12.8543237332365
 11
358.6749354361543
 21
12.8543237332365
 72
     1
 10
358.6749354361543
 20
12.8543237332365
 11
357.9747128885862
 21
14.67033002618525
 72
     1
 10
357.9747128885862
 20
14.67033002618525
 11
357.636804143011
 21
14.67033002618525
 97
        0
 92
        0
 93
        4
 72
     1
 10
358.0789890387338
 20
13.57644330770875
 11
357.5241357402615
 21
13.57644330770875
 72
     1
 10
357.5241357402615
 20
13.57644330770875
 11
357.7991025913212
 21
14.35798388911056
 72
     1
 10
357.7991025913212
 20
14.35798388911056
 11
357.8067713738714
 21
14.35798388911056
 72
     1
 10
357.8067713738714
 20
14.35798388911056
 11
358.0789890387338
 21
13.57644330770875
 97
        0
 75
     0
 76
     1
 98
        1
 10
0.0
 20
0.0
  0
HATCH
  5
349B
330
1F
100
AcDbEntity
  8
図枠
  6
Continuous
 62
     7
100
AcDbHatch
 10
0.0
 20
0.0
 30
0.0
210
0.0
220
0.0
230
1.0
  2
SOLID
 70
     1
 71
     0
 91
        1
 92
        0
 93
       16
 72
     4
 94
        3
 73
     1
 74
     0
 95
        8
 96
        4
 40
14.0
 40
14.0
 40
14.0
 40
14.0
 40
15.0
 40
15.0
 40
15.0
 40
15.0
 10
359.4965080270947
 20
12.810529679428
 42
1.0
 10
359.0821043813651
 20
12.810529679428
 42
1.0
 10
358.7456425758936
 20
13.00904986167002
 42
1.0
 10
358.7384078753744
 20
13.46030224870999
 42
1.0
 72
     1
 10
358.7384078753744
 20
13.46030224870999
 11
359.0561076908332
 21
13.46030224870999
 72
     4
 94
        3
 73
     1
 74
     0
 95
        8
 96
        4
 40
0.0
 40
0.0
 40
0.0
 40
0.0
 40
1.0
 40
1.0
 40
1.0
 40
1.0
 10
359.0561076908332
 20
13.46030224870999
 42
1.0
 10
359.0561076908332
 20
13.17940294322464
 42
1.0
 10
359.2625378123094
 20
13.070014271377
 42
1.0
 10
359.5169098825584
 20
13.070014271377
 42
1.0
 72
     4
 94
        3
 73
     1
 74
     0
 95
        8
 96
        4
 40
1.0
 40
1.0
 40
1.0
 40
1.0
 40
2.0
 40
2.0
 40
2.0
 40
2.0
 10
359.5169098825584
 20
13.070014271377
 42
1.0
 10
359.7971339493287
 20
13.070014271377
 42
1.0
 10
359.9006383980874
 20
13.20834174530077
 42
1.0
 10
359.9006383980874
 20
13.34551166714148
 42
1.0
 72
     4
 94
        3
 73
     1
 74
     0
 95
        8
 96
        4
 40
2.0
 40
2.0
 40
2.0
 40
2.0
 40
3.0
 40
3.0
 40
3.0
 40
3.0
 10
359.9006383980874
 20
13.34551166714148
 42
1.0
 10
359.9006383980874
 20
13.48518961849547
 42
1.0
 10
359.824625811301
 20
13.54190967056458
 42
1.0
 10
359.7506871719965
 20
13.5693050698633
 42
1.0
 72
     4
 94
        3
 73
     1
 74
     0
 95
        8
 96
        4
 40
3.0
 40
3.0
 40
3.0
 40
3.0
 40
4.0
 40
4.0
 40
4.0
 40
4.0
 10
359.7506871719965
 20
13.5693050698633
 42
1.0
 10
359.6235975995457
 20
13.61792225735114
 42
1.0
 10
359.4582605770174
 20
13.64975493963487
 42
1.0
 10
359.2087116404479
 20
13.7192080646175
 42
1.0
 72
     4
 94
        3
 73
     1
 74
     0
 95
        8
 96
        4
 40
4.0
 40
4.0
 40
4.0
 40
4.0
 40
5.0
 40
5.0
 40
5.0
 40
5.0
 10
359.2087116404479
 20
13.7192080646175
 42
1.0
 10
358.8987770702128
 20
13.80332351598533
 42
1.0
 10
358.807185761642
 20
13.9921974308687
 42
1.0
 10
358.807185761642
 20
14.17933501762744
 42
1.0
 72
     4
 94
        3
 73
     1
 74
     0
 95
        8
 96
        4
 40
5.0
 40
5.0
 40
5.0
 40
5.0
 40
6.0
 40
6.0
 40
6.0
 40
6.0
 10
358.807185761642
 20
14.17933501762744
 42
1.0
 10
358.807185761642
 20
14.54338514774476
 42
1.0
 10
359.142827634388
 20
14.71470285603529
 42
1.0
 10
359.4709454185941
 20
14.71470285603529
 42
1.0
 72
     4
 94
        3
 73
     1
 74
     0
 95
        8
 96
        4
 40
6.0
 40
6.0
 40
6.0
 40
6.0
 40
7.0
 40
7.0
 40
7.0
 40
7.0
 10
359.4709454185941
 20
14.71470285603529
 42
1.0
 10
359.8499954944543
 20
14.71470285603529
 42
1.0
 10
360.1686117053121
 20
14.51271001754413
 42
1.0
 10
360.1686117053121
 20
14.1338046356944
 42
1.0
 72
     1
 10
360.1686117053121
 20
14.1338046356944
 11
359.8499954944543
 21
14.1338046356944
 72
     4
 94
        3
 73
     1
 74
     0
 95
        8
 96
        4
 40
8.0
 40
8.0
 40
8.0
 40
8.0
 40
9.0
 40
9.0
 40
9.0
 40
9.0
 10
359.8499954944543
 20
14.1338046356944
 42
1.0
 10
359.8345614666803
 20
14.36859478320512
 42
1.0
 10
359.6767967640287
 20
14.45502533873909
 42
1.0
 10
359.4582605770174
 20
14.45502533873909
 42
1.0
 72
     4
 94
        3
 73
     1
 74
     0
 95
        8
 96
        4
 40
9.0
 40
9.0
 40
9.0
 40
9.0
 40
10.0
 40
10.0
 40
10.0
 40
10.0
 10
359.4582605770174
 20
14.45502533873909
 42
1.0
 10
359.310769149103
 20
14.45502533873909
 42
1.0
 10
359.1250302711111
 20
14.40119916687754
 42
1.0
 10
359.1250302711111
 20
14.21811301240944
 42
1.0
 72
     4
 94
        3
 73
     1
 74
     0
 95
        8
 96
        4
 40
10.0
 40
10.0
 40
10.0
 40
10.0
 40
11.0
 40
11.0
 40
11.0
 40
11.0
 10
359.1250302711111
 20
14.21811301240944
 42
1.0
 10
359.1250302711111
 20
14.0907822832746
 42
1.0
 10
359.2116055206556
 20
14.01901405412586
 42
1.0
 10
359.3409619659356
 20
13.98390164094019
 42
1.0
 72
     4
 94
        3
 73
     1
 74
     0
 95
        8
 96
        4
 40
11.0
 40
11.0
 40
11.0
 40
11.0
 40
12.0
 40
12.0
 40
12.0
 40
12.0
 10
359.3409619659356
 20
13.98390164094019
 42
1.0
 10
359.3697078426646
 20
13.97599170170609
 42
1.0
 10
359.7710890274602
 20
13.87258371562082
 42
1.0
 10
359.8650919028706
 20
13.84403076423906
 42
1.0
 72
     4
 94
        3
 73
     1
 74
     0
 95
        8
 96
        4
 40
12.0
 40
12.0
 40
12.0
 40
12.0
 40
13.0
 40
13.0
 40
13.0
 40
13.0
 10
359.8650919028706
 20
13.84403076423906
 42
1.0
 10
360.1043675647032
 20
13.77264838578469
 42
1.0
 10
360.2186276015669
 20
13.5693050698633
 42
1.0
 10
360.2186276015669
 20
13.38062408032715
 42
1.0
 72
     4
 94
        3
 73
     1
 74
     0
 95
        8
 96
        4
 40
13.0
 40
13.0
 40
13.0
 40
13.0
 40
14.0
 40
14.0
 40
14.0
 40
14.0
 10
360.2186276015669
 20
13.38062408032715
 42
1.0
 10
360.2186276015669
 20
12.97374452313719
 42
1.0
 10
359.8575678143308
 20
12.810529679428
 42
1.0
 10
359.4965080270947
 20
12.810529679428
 42
1.0
 97
        0
 75
     0
 76
     1
 98
        1
 10
0.0
 20
0.0
  0
HATCH
  5
349C
330
1F
100
AcDbEntity
  8
図枠
  6
Continuous
 62
     7
100
AcDbHatch
 10
0.0
 20
0.0
 30
0.0
210
0.0
220
0.0
230
1.0
  2
SOLID
 70
     1
 71
     0
 91
        1
 92
        0
 93
       12
 72
     1
 10
360.4882407742427
 20
12.8543237332365
 11
360.4882407742427
 21
14.67033002618525
 72
     1
 10
360.4882407742427
 20
14.67033002618525
 11
360.8073392984684
 21
14.67033002618525
 72
     1
 10
360.8073392984684
 20
14.67033002618525
 11
360.8073392984684
 21
13.94782460101867
 72
     1
 10
360.8073392984684
 20
13.94782460101867
 11
361.634024411109
 21
13.94782460101867
 72
     1
 10
361.634024411109
 20
13.94782460101867
 11
361.634024411109
 21
14.67033002618525
 72
     1
 10
361.634024411109
 20
14.67033002618525
 11
361.9515313012205
 21
14.67033002618525
 72
     1
 10
361.9515313012205
 20
14.67033002618525
 11
361.9515313012205
 21
12.8543237332365
 72
     1
 10
361.9515313012205
 20
12.8543237332365
 11
361.634024411109
 21
12.8543237332365
 72
     1
 10
361.634024411109
 20
12.8543237332365
 11
361.634024411109
 21
13.67406353337878
 72
     1
 10
361.634024411109
 20
13.67406353337878
 11
360.8073392984684
 21
13.67406353337878
 72
     1
 10
360.8073392984684
 20
13.67406353337878
 11
360.8073392984684
 21
12.8543237332365
 72
     1
 10
360.8073392984684
 20
12.8543237332365
 11
360.4882407742427
 21
12.8543237332365
 97
        0
 75
     0
 76
     1
 98
        1
 10
0.0
 20
0.0
  0
HATCH
  5
349D
330
1F
100
AcDbEntity
  8
図枠
  6
Continuous
 62
     7
100
AcDbHatch
 10
0.0
 20
0.0
 30
0.0
210
0.0
220
0.0
230
1.0
  2
SOLID
 70
     1
 71
     0
 91
        2
 92
        0
 93
        2
 72
     4
 94
        3
 73
     1
 74
     0
 95
       11
 96
        7
 40
0.0
 40
0.0
 40
0.0
 40
0.0
 40
1.0
 40
1.0
 40
1.0
 40
2.0
 40
2.0
 40
2.0
 40
2.0
 10
363.1067682800984
 20
14.71470285603529
 42
1.0
 10
362.5617541743318
 20
14.71470285603529
 42
1.0
 10
362.2367714270172
 20
14.28139252628248
 42
1.0
 10
362.2367714270172
 20
13.76203749169012
 42
1.0
 10
362.2367714270172
 20
13.24403293452797
 42
1.0
 10
362.5617541743318
 20
12.810529679428
 42
1.0
 10
363.1067682800984
 20
12.810529679428
 42
1.0
 72
     4
 94
        3
 73
     1
 74
     0
 95
       11
 96
        7
 40
2.0
 40
2.0
 40
2.0
 40
2.0
 40
3.0
 40
3.0
 40
3.0
 40
4.0
 40
4.0
 40
4.0
 40
4.0
 10
363.1067682800984
 20
12.810529679428
 42
1.0
 10
363.6508177591292
 20
12.810529679428
 42
1.0
 10
363.976668670506
 20
13.24403293452797
 42
1.0
 10
363.976668670506
 20
13.76203749169012
 42
1.0
 10
363.976668670506
 20
14.28139252628248
 42
1.0
 10
363.6508177591292
 20
14.71470285603529
 42
1.0
 10
363.1067682800984
 20
14.71470285603529
 42
1.0
 97
        0
 92
        0
 93
        2
 72
     4
 94
        3
 73
     1
 74
     0
 95
       11
 96
        7
 40
2.0
 40
2.0
 40
2.0
 40
2.0
 40
3.0
 40
3.0
 40
3.0
 40
4.0
 40
4.0
 40
4.0
 40
4.0
 10
363.1067682800984
 20
13.070014271377
 42
1.0
 10
362.7166732281127
 20
13.070014271377
 42
1.0
 10
362.5544230111393
 20
13.41438601608259
 42
1.0
 10
362.5544230111393
 20
13.76203749169012
 42
1.0
 10
362.5544230111393
 20
14.1108465193807
 42
1.0
 10
362.7166732281127
 20
14.45502533873909
 42
1.0
 10
363.1067682800984
 20
14.45502533873909
 42
1.0
 72
     4
 94
        3
 73
     1
 74
     0
 95
       11
 96
        7
 40
0.0
 40
0.0
 40
0.0
 40
0.0
 40
1.0
 40
1.0
 40
1.0
 40
2.0
 40
2.0
 40
2.0
 40
2.0
 10
363.1067682800984
 20
14.45502533873909
 42
1.0
 10
363.4959951680219
 20
14.45502533873909
 42
1.0
 10
363.6582453849953
 20
14.1108465193807
 42
1.0
 10
363.6582453849953
 20
13.76203749169012
 42
1.0
 10
363.6582453849953
 20
13.41438601608259
 42
1.0
 10
363.4959951680219
 20
13.070014271377
 42
1.0
 10
363.1067682800984
 20
13.070014271377
 42
1.0
 97
        0
 75
     0
 76
     1
 98
        1
 10
0.0
 20
0.0
  0
HATCH
  5
349E
330
1F
100
AcDbEntity
  8
図枠
  6
Continuous
 62
     7
100
AcDbHatch
 10
0.0
 20
0.0
 30
0.0
210
0.0
220
0.0
230
1.0
  2
SOLID
 70
     1
 71
     0
 91
        2
 92
        0
 93
        5
 72
     4
 94
        3
 73
     1
 74
     0
 95
        8
 96
        4
 40
2.0
 40
2.0
 40
2.0
 40
2.0
 40
3.0
 40
3.0
 40
3.0
 40
3.0
 10
366.5286851629235
 20
13.76203749169012
 42
1.0
 10
366.5286851629235
 20
14.26383631968965
 42
1.0
 10
366.2868532402409
 20
14.67033002618525
 42
1.0
 10
365.7265980320477
 20
14.67033002618525
 42
1.0
 72
     1
 10
365.7265980320477
 20
14.67033002618525
 11
364.9738997900483
 21
14.67033002618525
 72
     1
 10
364.9738997900483
 20
14.67033002618525
 11
364.9738997900483
 21
12.8543237332365
 72
     1
 10
364.9738997900483
 20
12.8543237332365
 11
365.7265980320477
 21
12.8543237332365
 72
     4
 94
        3
 73
     1
 74
     0
 95
        8
 96
        4
 40
1.0
 40
1.0
 40
1.0
 40
1.0
 40
2.0
 40
2.0
 40
2.0
 40
2.0
 10
365.7265980320477
 20
12.8543237332365
 42
1.0
 10
366.2868532402409
 20
12.8543237332365
 42
1.0
 10
366.5286851629235
 20
13.26101036507926
 42
1.0
 10
366.5286851629235
 20
13.76203749169012
 42
1.0
 97
        0
 92
        0
 93
        5
 72
     4
 94
        3
 73
     1
 74
     0
 95
        8
 96
        4
 40
1.0
 40
1.0
 40
1.0
 40
1.0
 40
2.0
 40
2.0
 40
2.0
 40
2.0
 10
365.6052479886752
 20
14.4110383595834
 42
1.0
 10
366.1031883097313
 20
14.4110383595834
 42
1.0
 10
366.2105512654335
 20
14.12666639784894
 42
1.0
 10
366.2105512654335
 20
13.76203749169012
 42
1.0
 72
     4
 94
        3
 73
     1
 74
     0
 95
        8
 96
        4
 40
2.0
 40
2.0
 40
2.0
 40
2.0
 40
3.0
 40
3.0
 40
3.0
 40
3.0
 10
366.2105512654335
 20
13.76203749169012
 42
1.0
 10
366.2105512654335
 20
13.39933783900301
 42
1.0
 10
366.1031883097313
 20
13.11400125053267
 42
1.0
 10
365.6052479886752
 20
13.11400125053267
 42
1.0
 72
     1
 10
365.6052479886752
 20
13.11400125053267
 11
365.2920336875383
 21
13.11400125053267
 72
     1
 10
365.2920336875383
 20
13.11400125053267
 11
365.2920336875383
 21
14.4110383595834
 72
     1
 10
365.2920336875383
 20
14.4110383595834
 11
365.6052479886752
 21
14.4110383595834
 97
        0
 75
     0
 76
     1
 98
        1
 10
0.0
 20
0.0
  0
HATCH
  5
349F
330
1F
100
AcDbEntity
  8
図枠
  6
Continuous
 62
     7
100
AcDbHatch
 10
0.0
 20
0.0
 30
0.0
210
0.0
220
0.0
230
1.0
  2
SOLID
 70
     1
 71
     0
 91
        1
 92
        0
 93
        4
 72
     1
 10
366.8111278711862
 20
12.8543237332365
 11
366.8111278711862
 21
14.67033002618525
 72
     1
 10
366.8111278711862
 20
14.67033002618525
 11
367.1292617686761
 21
14.67033002618525
 72
     1
 10
367.1292617686761
 20
14.67033002618525
 11
367.1292617686761
 21
12.8543237332365
 72
     1
 10
367.1292617686761
 20
12.8543237332365
 11
366.8111278711862
 21
12.8543237332365
 97
        0
 75
     0
 76
     1
 98
        1
 10
0.0
 20
0.0
  0
HATCH
  5
34A0
330
1F
100
AcDbEntity
  8
図枠
  6
Continuous
 62
     7
100
AcDbHatch
 10
0.0
 20
0.0
 30
0.0
210
0.0
220
0.0
230
1.0
  2
SOLID
 70
     1
 71
     0
 91
        1
 92
        0
 93
       15
 72
     4
 94
        3
 73
     1
 74
     0
 95
        8
 96
        4
 40
10.0
 40
10.0
 40
10.0
 40
10.0
 40
11.0
 40
11.0
 40
11.0
 40
11.0
 10
368.3044665209865
 20
13.070014271377
 42
1.0
 10
368.6303174323634
 20
13.06615576443354
 42
1.0
 10
368.8080981397841
 20
13.26101036507926
 42
1.0
 10
368.8134035868314
 20
13.5693050698633
 42
1.0
 72
     1
 10
368.8134035868314
 20
13.5693050698633
 11
368.3292574280983
 21
13.5693050698633
 72
     1
 10
368.3292574280983
 20
13.5693050698633
 11
368.3292574280983
 21
13.81104052987232
 72
     1
 10
368.3292574280983
 20
13.81104052987232
 11
369.1037562343283
 21
13.81104052987232
 72
     1
 10
369.1037562343283
 20
13.81104052987232
 11
369.1037562343283
 21
12.8543237332365
 72
     1
 10
369.1037562343283
 20
12.8543237332365
 11
368.8996412170183
 21
12.8543237332365
 72
     1
 10
368.8996412170183
 20
12.8543237332365
 11
368.8515063428983
 21
13.06789209255811
 72
     4
 94
        3
 73
     1
 74
     0
 95
        8
 96
        4
 40
2.0
 40
2.0
 40
2.0
 40
2.0
 40
3.0
 40
3.0
 40
3.0
 40
3.0
 10
368.8515063428983
 20
13.06789209255811
 42
1.0
 10
368.6808638733231
 20
12.87477382003696
 42
1.0
 10
368.5247872674591
 20
12.810529679428
 42
1.0
 10
368.3044665209865
 20
12.810529679428
 42
1.0
 72
     4
 94
        3
 73
     1
 74
     0
 95
        8
 96
        4
 40
3.0
 40
3.0
 40
3.0
 40
3.0
 40
4.0
 40
4.0
 40
4.0
 40
4.0
 10
368.3044665209865
 20
12.810529679428
 42
1.0
 10
367.75945241522
 20
12.810529679428
 42
1.0
 10
367.4339873545374
 20
13.24403293452797
 42
1.0
 10
367.4339873545374
 20
13.76203749169012
 42
1.0
 72
     4
 94
        3
 73
     1
 74
     0
 95
        8
 96
        4
 40
4.0
 40
4.0
 40
4.0
 40
4.0
 40
5.0
 40
5.0
 40
5.0
 40
5.0
 10
367.4339873545374
 20
13.76203749169012
 42
1.0
 10
367.4339873545374
 20
14.28139252628248
 42
1.0
 10
367.75945241522
 20
14.71470285603529
 42
1.0
 10
368.3044665209865
 20
14.71470285603529
 42
1.0
 72
     4
 94
        3
 73
     1
 74
     0
 95
        8
 96
        4
 40
5.0
 40
5.0
 40
5.0
 40
5.0
 40
6.0
 40
6.0
 40
6.0
 40
6.0
 10
368.3044665209865
 20
14.71470285603529
 42
1.0
 10
368.7007351840819
 20
14.71470285603529
 42
1.0
 10
369.0347854227137
 20
14.50383545157413
 42
1.0
 10
369.0830167595072
 20
14.09329031278784
 42
1.0
 72
     1
 10
369.0830167595072
 20
14.09329031278784
 11
368.7722140252099
 21
14.09329031278784
 72
     4
 94
        3
 73
     1
 74
     0
 95
        8
 96
        4
 40
7.0
 40
7.0
 40
7.0
 40
7.0
 40
8.0
 40
8.0
 40
8.0
 40
8.0
 10
368.7722140252099
 20
14.09329031278784
 42
1.0
 10
368.742021208377
 20
14.33290359397794
 42
1.0
 10
368.5329865947141
 20
14.45502533873909
 42
1.0
 10
368.3044665209865
 20
14.45502533873909
 42
1.0
 72
     4
 94
        3
 73
     1
 74
     0
 95
        8
 96
        4
 40
8.0
 40
8.0
 40
8.0
 40
8.0
 40
9.0
 40
9.0
 40
9.0
 40
9.0
 10
368.3044665209865
 20
14.45502533873909
 42
1.0
 10
367.9150467077158
 20
14.45502533873909
 42
1.0
 10
367.7521212520275
 20
14.1108465193807
 42
1.0
 10
367.7521212520275
 20
13.76203749169012
 42
1.0
 72
     4
 94
        3
 73
     1
 74
     0
 95
        8
 96
        4
 40
9.0
 40
9.0
 40
9.0
 40
9.0
 40
10.0
 40
10.0
 40
10.0
 40
10.0
 10
367.7521212520275
 20
13.76203749169012
 42
1.0
 10
367.7521212520275
 20
13.41438601608259
 42
1.0
 10
367.9150467077158
 20
13.070014271377
 42
1.0
 10
368.3044665209865
 20
13.070014271377
 42
1.0
 97
        0
 75
     0
 76
     1
 98
        1
 10
0.0
 20
0.0
  0
HATCH
  5
34A1
330
1F
100
AcDbEntity
  8
図枠
  6
Continuous
 62
     7
100
AcDbHatch
 10
0.0
 20
0.0
 30
0.0
210
0.0
220
0.0
230
1.0
  2
SOLID
 70
     1
 71
     0
 91
        1
 92
        0
 93
        4
 72
     1
 10
369.4493819937906
 20
12.8543237332365
 11
369.4493819937906
 21
14.67033002618525
 72
     1
 10
369.4493819937906
 20
14.67033002618525
 11
369.7670335779125
 21
14.67033002618525
 72
     1
 10
369.7670335779125
 20
14.67033002618525
 11
369.7670335779125
 21
12.8543237332365
 72
     1
 10
369.7670335779125
 20
12.8543237332365
 11
369.4493819937906
 21
12.8543237332365
 97
        0
 75
     0
 76
     1
 98
        1
 10
0.0
 20
0.0
  0
HATCH
  5
34A2
330
1F
100
AcDbEntity
  8
図枠
  6
Continuous
 62
     7
100
AcDbHatch
 10
0.0
 20
0.0
 30
0.0
210
0.0
220
0.0
230
1.0
  2
SOLID
 70
     1
 71
     0
 91
        1
 92
        0
 93
        8
 72
     1
 10
369.9834958174418
 20
14.39618310785101
 11
369.9834958174418
 21
14.67033002618525
 72
     1
 10
369.9834958174418
 20
14.67033002618525
 11
371.4543586642963
 21
14.67033002618525
 72
     1
 10
371.4543586642963
 20
14.67033002618525
 11
371.4543586642963
 21
14.39618310785101
 72
     1
 10
371.4543586642963
 20
14.39618310785101
 11
370.8765472495102
 21
14.39618310785101
 72
     1
 10
370.8765472495102
 20
14.39618310785101
 11
370.8765472495102
 21
12.8543237332365
 72
     1
 10
370.8765472495102
 20
12.8543237332365
 11
370.5588956653881
 21
12.8543237332365
 72
     1
 10
370.5588956653881
 20
12.8543237332365
 11
370.5588956653881
 21
14.39618310785101
 72
     1
 10
370.5588956653881
 20
14.39618310785101
 11
369.9834958174418
 21
14.39618310785101
 97
        0
 75
     0
 76
     1
 98
        1
 10
0.0
 20
0.0
  0
HATCH
  5
34A3
330
1F
100
AcDbEntity
  8
図枠
  6
Continuous
 62
     7
100
AcDbHatch
 10
0.0
 20
0.0
 30
0.0
210
0.0
220
0.0
230
1.0
  2
SOLID
 70
     1
 71
     0
 91
        1
 92
        0
 93
       12
 72
     1
 10
371.6651296060838
 20
12.8543237332365
 11
371.6651296060838
 21
14.67033002618525
 72
     1
 10
371.6651296060838
 20
14.67033002618525
 11
372.9727776092291
 21
14.67033002618525
 72
     1
 10
372.9727776092291
 20
14.67033002618525
 11
372.9727776092291
 21
14.39618310785101
 72
     1
 10
372.9727776092291
 20
14.39618310785101
 11
371.9836493542682
 21
14.39618310785101
 72
     1
 10
371.9836493542682
 20
14.39618310785101
 11
371.9836493542682
 21
13.91965750033127
 72
     1
 10
371.9836493542682
 20
13.91965750033127
 11
372.8988872012616
 21
13.91965750033127
 72
     1
 10
372.8988872012616
 20
13.91965750033127
 11
372.8988872012616
 21
13.6611375351181
 72
     1
 10
372.8988872012616
 20
13.6611375351181
 11
371.9836493542682
 21
13.6611375351181
 72
     1
 10
371.9836493542682
 20
13.6611375351181
 11
371.9836493542682
 21
13.12943527830661
 72
     1
 10
371.9836493542682
 20
13.12943527830661
 11
372.9899479651276
 21
13.12943527830661
 72
     1
 10
372.9899479651276
 20
13.12943527830661
 11
372.9899479651276
 21
12.8543237332365
 72
     1
 10
372.9899479651276
 20
12.8543237332365
 11
371.6651296060838
 21
12.8543237332365
 97
        0
 75
     0
 76
     1
 98
        1
 10
0.0
 20
0.0
  0
HATCH
  5
34A4
330
1F
100
AcDbEntity
  8
図枠
  6
Continuous
 62
     7
100
AcDbHatch
 10
0.0
 20
0.0
 30
0.0
210
0.0
220
0.0
230
1.0
  2
SOLID
 70
     1
 71
     0
 91
        1
 92
        0
 93
       10
 72
     4
 94
        3
 73
     1
 74
     0
 95
        8
 96
        4
 40
8.0
 40
8.0
 40
8.0
 40
8.0
 40
9.0
 40
9.0
 40
9.0
 40
9.0
 10
374.0417769579201
 20
14.71470285603529
 42
1.0
 10
374.4518397833386
 20
14.7118089758277
 42
1.0
 10
374.774507426487
 20
14.48570046893975
 42
1.0
 10
374.8131889585953
 20
14.09329031278784
 42
1.0
 72
     1
 10
374.8131889585953
 20
14.09329031278784
 11
374.4947656730849
 21
14.09329031278784
 72
     4
 94
        3
 73
     1
 74
     0
 95
        8
 96
        4
 40
0.0
 40
0.0
 40
0.0
 40
0.0
 40
1.0
 40
1.0
 40
1.0
 40
1.0
 10
374.4947656730849
 20
14.09329031278784
 42
1.0
 10
374.4412288892439
 20
14.3022284637773
 42
1.0
 10
374.3063740715693
 20
14.45502533873909
 42
1.0
 10
374.0417769579201
 20
14.45502533873909
 42
1.0
 72
     4
 94
        3
 73
     1
 74
     0
 95
        8
 96
        4
 40
1.0
 40
1.0
 40
1.0
 40
1.0
 40
2.0
 40
2.0
 40
2.0
 40
2.0
 10
374.0417769579201
 20
14.45502533873909
 42
1.0
 10
373.6529359206911
 20
14.45502533873909
 42
1.0
 10
373.4897210769819
 20
14.1108465193807
 42
1.0
 10
373.4897210769819
 20
13.76203749169012
 42
1.0
 72
     4
 94
        3
 73
     1
 74
     0
 95
        8
 96
        4
 40
2.0
 40
2.0
 40
2.0
 40
2.0
 40
3.0
 40
3.0
 40
3.0
 40
3.0
 10
373.4897210769819
 20
13.76203749169012
 42
1.0
 10
373.4897210769819
 20
13.41438601608259
 42
1.0
 10
373.6529359206911
 20
13.070014271377
 42
1.0
 10
374.0417769579201
 20
13.070014271377
 42
1.0
 72
     4
 94
        3
 73
     1
 74
     0
 95
        8
 96
        4
 40
3.0
 40
3.0
 40
3.0
 40
3.0
 40
4.0
 40
4.0
 40
4.0
 40
4.0
 10
374.0417769579201
 20
13.070014271377
 42
1.0
 10
374.3241232035093
 20
13.070014271377
 42
1.0
 10
374.4784634812486
 20
13.28184630257406
 42
1.0
 10
374.5048942538115
 20
13.5463469535496
 42
1.0
 72
     1
 10
374.5048942538115
 20
13.5463469535496
 11
374.8149252867199
 21
13.5463469535496
 72
     4
 94
        3
 73
     1
 74
     0
 95
        8
 96
        4
 40
5.0
 40
5.0
 40
5.0
 40
5.0
 40
6.0
 40
6.0
 40
6.0
 40
6.0
 10
374.8149252867199
 20
13.5463469535496
 42
1.0
 10
374.7885909768307
 20
13.11187907171378
 42
1.0
 10
374.4820326001713
 20
12.810529679428
 42
1.0
 10
374.0417769579201
 20
12.810529679428
 42
1.0
 72
     4
 94
        3
 73
     1
 74
     0
 95
        8
 96
        4
 40
6.0
 40
6.0
 40
6.0
 40
6.0
 40
7.0
 40
7.0
 40
7.0
 40
7.0
 10
374.0417769579201
 20
12.810529679428
 42
1.0
 10
373.4970522401744
 20
12.810529679428
 42
1.0
 10
373.1712013287976
 20
13.24403293452797
 42
1.0
 10
373.1712013287976
 20
13.76203749169012
 42
1.0
 72
     4
 94
        3
 73
     1
 74
     0
 95
        8
 96
        4
 40
7.0
 40
7.0
 40
7.0
 40
7.0
 40
8.0
 40
8.0
 40
8.0
 40
8.0
 10
373.1712013287976
 20
13.76203749169012
 42
1.0
 10
373.1712013287976
 20
14.28139252628248
 42
1.0
 10
373.4970522401744
 20
14.71470285603529
 42
1.0
 10
374.0417769579201
 20
14.71470285603529
 42
1.0
 97
        0
 75
     0
 76
     1
 98
        1
 10
0.0
 20
0.0
  0
HATCH
  5
34A5
330
1F
100
AcDbEntity
  8
図枠
  6
Continuous
 62
     7
100
AcDbHatch
 10
0.0
 20
0.0
 30
0.0
210
0.0
220
0.0
230
1.0
  2
SOLID
 70
     1
 71
     0
 91
        1
 92
        0
 93
       10
 72
     4
 94
        3
 73
     1
 74
     0
 95
        8
 96
        4
 40
8.0
 40
8.0
 40
8.0
 40
8.0
 40
9.0
 40
9.0
 40
9.0
 40
9.0
 10
376.5856905857564
 20
14.71470285603529
 42
1.0
 10
376.9958498738484
 20
14.7118089758277
 42
1.0
 10
377.318228128976
 20
14.48570046893975
 42
1.0
 10
377.3566202730636
 20
14.09329031278784
 42
1.0
 72
     1
 10
377.3566202730636
 20
14.09329031278784
 11
377.0381005248796
 21
14.09329031278784
 72
     4
 94
        3
 73
     1
 74
     0
 95
        8
 96
        4
 40
0.0
 40
0.0
 40
0.0
 40
0.0
 40
1.0
 40
1.0
 40
1.0
 40
1.0
 10
377.0381005248796
 20
14.09329031278784
 42
1.0
 10
376.985431905101
 20
14.3022284637773
 42
1.0
 10
376.8506735500999
 20
14.45502533873909
 42
1.0
 10
376.5856905857564
 20
14.45502533873909
 42
1.0
 72
     4
 94
        3
 73
     1
 74
     0
 95
        8
 96
        4
 40
1.0
 40
1.0
 40
1.0
 40
1.0
 40
2.0
 40
2.0
 40
2.0
 40
2.0
 10
376.5856905857564
 20
14.45502533873909
 42
1.0
 10
376.1964636978331
 20
14.45502533873909
 42
1.0
 10
376.0335382421445
 20
14.1108465193807
 42
1.0
 10
376.0335382421445
 20
13.76203749169012
 42
1.0
 72
     4
 94
        3
 73
     1
 74
     0
 95
        8
 96
        4
 40
2.0
 40
2.0
 40
2.0
 40
2.0
 40
3.0
 40
3.0
 40
3.0
 40
3.0
 10
376.0335382421445
 20
13.76203749169012
 42
1.0
 10
376.0335382421445
 20
13.41438601608259
 42
1.0
 10
376.1964636978331
 20
13.070014271377
 42
1.0
 10
376.5856905857564
 20
13.070014271377
 42
1.0
 72
     4
 94
        3
 73
     1
 74
     0
 95
        8
 96
        4
 40
3.0
 40
3.0
 40
3.0
 40
3.0
 40
4.0
 40
4.0
 40
4.0
 40
4.0
 10
376.5856905857564
 20
13.070014271377
 42
1.0
 10
376.8678439059985
 20
13.070014271377
 42
1.0
 10
377.0233417358207
 20
13.28184630257406
 42
1.0
 10
377.0487114189741
 20
13.5463469535496
 42
1.0
 72
     1
 10
377.0487114189741
 20
13.5463469535496
 11
377.359803541292
 21
13.5463469535496
 72
     4
 94
        3
 73
     1
 74
     0
 95
        8
 96
        4
 40
5.0
 40
5.0
 40
5.0
 40
5.0
 40
6.0
 40
6.0
 40
6.0
 40
6.0
 10
377.359803541292
 20
13.5463469535496
 42
1.0
 10
377.3337586194237
 20
13.11187907171378
 42
1.0
 10
377.0259462280075
 20
12.810529679428
 42
1.0
 10
376.5856905857564
 20
12.810529679428
 42
1.0
 72
     4
 94
        3
 73
     1
 74
     0
 95
        8
 96
        4
 40
6.0
 40
6.0
 40
6.0
 40
6.0
 40
7.0
 40
7.0
 40
7.0
 40
7.0
 10
376.5856905857564
 20
12.810529679428
 42
1.0
 10
376.0412552560315
 20
12.810529679428
 42
1.0
 10
375.7156937326754
 20
13.24403293452797
 42
1.0
 10
375.7156937326754
 20
13.76203749169012
 42
1.0
 72
     4
 94
        3
 73
     1
 74
     0
 95
        8
 96
        4
 40
7.0
 40
7.0
 40
7.0
 40
7.0
 40
8.0
 40
8.0
 40
8.0
 40
8.0
 10
375.7156937326754
 20
13.76203749169012
 42
1.0
 10
375.7156937326754
 20
14.28139252628248
 42
1.0
 10
376.0412552560315
 20
14.71470285603529
 42
1.0
 10
376.5856905857564
 20
14.71470285603529
 42
1.0
 97
        0
 75
     0
 76
     1
 98
        1
 10
0.0
 20
0.0
  0
HATCH
  5
34A6
330
1F
100
AcDbEntity
  8
図枠
  6
Continuous
 62
     7
100
AcDbHatch
 10
0.0
 20
0.0
 30
0.0
210
0.0
220
0.0
230
1.0
  2
SOLID
 70
     1
 71
     0
 91
        2
 92
        0
 93
        2
 72
     4
 94
        3
 73
     1
 74
     0
 95
       11
 96
        7
 40
0.0
 40
0.0
 40
0.0
 40
0.0
 40
1.0
 40
1.0
 40
1.0
 40
2.0
 40
2.0
 40
2.0
 40
2.0
 10
378.4229186668944
 20
14.71470285603529
 42
1.0
 10
377.8779045611279
 20
14.71470285603529
 42
1.0
 10
377.5514748737095
 20
14.28139252628248
 42
1.0
 10
377.5514748737095
 20
13.76203749169012
 42
1.0
 10
377.5514748737095
 20
13.24403293452797
 42
1.0
 10
377.8779045611279
 20
12.810529679428
 42
1.0
 10
378.4229186668944
 20
12.810529679428
 42
1.0
 72
     4
 94
        3
 73
     1
 74
     0
 95
       11
 96
        7
 40
2.0
 40
2.0
 40
2.0
 40
2.0
 40
3.0
 40
3.0
 40
3.0
 40
4.0
 40
4.0
 40
4.0
 40
4.0
 10
378.4229186668944
 20
12.810529679428
 42
1.0
 10
378.9672575339458
 20
12.810529679428
 42
1.0
 10
379.2920473559132
 20
13.24403293452797
 42
1.0
 10
379.2920473559132
 20
13.76203749169012
 42
1.0
 10
379.2920473559132
 20
14.28139252628248
 42
1.0
 10
378.9672575339458
 20
14.71470285603529
 42
1.0
 10
378.4229186668944
 20
14.71470285603529
 42
1.0
 97
        0
 92
        0
 93
        2
 72
     4
 94
        3
 73
     1
 74
     0
 95
       11
 96
        7
 40
2.0
 40
2.0
 40
2.0
 40
2.0
 40
3.0
 40
3.0
 40
3.0
 40
4.0
 40
4.0
 40
4.0
 40
4.0
 10
378.4229186668944
 20
13.070014271377
 42
1.0
 10
378.03340239095
 20
13.070014271377
 42
1.0
 10
377.8704769352617
 20
13.41438601608259
 42
1.0
 10
377.8704769352617
 20
13.76203749169012
 42
1.0
 10
377.8704769352617
 20
14.1108465193807
 42
1.0
 10
378.03340239095
 20
14.45502533873909
 42
1.0
 10
378.4229186668944
 20
14.45502533873909
 42
1.0
 72
     4
 94
        3
 73
     1
 74
     0
 95
       11
 96
        7
 40
0.0
 40
0.0
 40
0.0
 40
0.0
 40
1.0
 40
1.0
 40
1.0
 40
2.0
 40
2.0
 40
2.0
 40
2.0
 10
378.4229186668944
 20
14.45502533873909
 42
1.0
 10
378.8117597041235
 20
14.45502533873909
 42
1.0
 10
378.9749745478329
 20
14.1108465193807
 42
1.0
 10
378.9749745478329
 20
13.76203749169012
 42
1.0
 10
378.9749745478329
 20
13.41438601608259
 42
1.0
 10
378.8117597041235
 20
13.070014271377
 42
1.0
 10
378.4229186668944
 20
13.070014271377
 42
1.0
 97
        0
 75
     0
 76
     1
 98
        1
 10
0.0
 20
0.0
  0
HATCH
  5
34A7
330
1F
100
AcDbEntity
  8
図枠
  6
Continuous
 62
     7
100
AcDbHatch
 10
0.0
 20
0.0
 30
0.0
210
0.0
220
0.0
230
1.0
  2
SOLID
 70
     1
 71
     0
 91
        1
 92
        0
 93
        4
 72
     1
 10
379.565133184838
 20
12.8543237332365
 11
379.565133184838
 21
13.19773085120619
 72
     1
 10
379.565133184838
 20
13.19773085120619
 11
379.9191511969023
 21
13.19773085120619
 72
     1
 10
379.9191511969023
 20
13.19773085120619
 11
379.9191511969023
 21
12.8543237332365
 72
     1
 10
379.9191511969023
 20
12.8543237332365
 11
379.565133184838
 21
12.8543237332365
 97
        0
 75
     0
 76
     1
 98
        1
 10
0.0
 20
0.0
  0
HATCH
  5
34A8
330
1F
100
AcDbEntity
  8
図枠
  6
Continuous
 62
     7
100
AcDbHatch
 10
0.0
 20
0.0
 30
0.0
210
0.0
220
0.0
230
1.0
  2
SOLID
 70
     1
 71
     0
 91
        1
 92
        0
 93
        7
 72
     4
 94
        3
 73
     1
 74
     0
 95
        8
 96
        4
 40
4.0
 40
4.0
 40
4.0
 40
4.0
 40
5.0
 40
5.0
 40
5.0
 40
5.0
 10
380.2826225509781
 20
12.60718636350657
 42
1.0
 10
380.3941334016446
 20
12.635353464194
 42
1.0
 10
380.4504676030194
 20
12.74551383743036
 42
1.0
 10
380.4484418868741
 20
12.8543237332365
 42
1.0
 72
     1
 10
380.4484418868741
 20
12.8543237332365
 11
380.2720116568835
 21
12.8543237332365
 72
     1
 10
380.2720116568835
 20
12.8543237332365
 11
380.2720116568835
 21
13.19773085120619
 72
     1
 10
380.2720116568835
 20
13.19773085120619
 11
380.6261261316213
 21
13.19773085120619
 72
     1
 10
380.6261261316213
 20
13.19773085120619
 11
380.6261261316213
 21
12.8543237332365
 72
     4
 94
        3
 73
     1
 74
     0
 95
        8
 96
        4
 40
2.0
 40
2.0
 40
2.0
 40
2.0
 40
3.0
 40
3.0
 40
3.0
 40
3.0
 10
380.6261261316213
 20
12.8543237332365
 42
1.0
 10
380.6239074901288
 20
12.64557850759426
 42
1.0
 10
380.4839401507541
 20
12.4935533340211
 42
1.0
 10
380.2826225509781
 20
12.45246023507307
 42
1.0
 72
     1
 10
380.2826225509781
 20
12.45246023507307
 11
380.2826225509781
 21
12.60718636350657
 97
        0
 75
     0
 76
     1
 98
        1
 10
0.0
 20
0.0
  0
HATCH
  5
34A9
330
1F
100
AcDbEntity
  8
図枠
  6
Continuous
 62
     7
100
AcDbHatch
 10
0.0
 20
0.0
 30
0.0
210
0.0
220
0.0
230
1.0
  2
SOLID
 70
     1
 71
     0
 91
        1
 92
        0
 93
        6
 72
     1
 10
380.9976038876049
 20
12.8543237332365
 11
380.9976038876049
 21
14.67033002618525
 72
     1
 10
380.9976038876049
 20
14.67033002618525
 11
381.3161236357892
 21
14.67033002618525
 72
     1
 10
381.3161236357892
 20
14.67033002618525
 11
381.3161236357892
 21
13.12943527830661
 72
     1
 10
381.3161236357892
 20
13.12943527830661
 11
382.2391749593431
 21
13.12943527830661
 72
     1
 10
382.2391749593431
 20
13.12943527830661
 11
382.2391749593431
 21
12.8543237332365
 72
     1
 10
382.2391749593431
 20
12.8543237332365
 11
380.9976038876049
 21
12.8543237332365
 97
        0
 75
     0
 76
     1
 98
        1
 10
0.0
 20
0.0
  0
HATCH
  5
34AA
330
1F
100
AcDbEntity
  8
図枠
  6
Continuous
 62
     7
100
AcDbHatch
 10
0.0
 20
0.0
 30
0.0
210
0.0
220
0.0
230
1.0
  2
SOLID
 70
     1
 71
     0
 91
        1
 92
        0
 93
        8
 72
     1
 10
382.6257973550798
 20
14.39618310785101
 11
382.0508798205014
 21
14.39618310785101
 72
     1
 10
382.0508798205014
 20
14.39618310785101
 11
382.0508798205014
 21
14.67033002618525
 72
     1
 10
382.0508798205014
 20
14.67033002618525
 11
383.521453279335
 21
14.67033002618525
 72
     1
 10
383.521453279335
 20
14.67033002618525
 11
383.521453279335
 21
14.39618310785101
 72
     1
 10
383.521453279335
 20
14.39618310785101
 11
382.9446064912847
 21
14.39618310785101
 72
     1
 10
382.9446064912847
 20
14.39618310785101
 11
382.9446064912847
 21
12.8543237332365
 72
     1
 10
382.9446064912847
 20
12.8543237332365
 11
382.6257973550798
 21
12.8543237332365
 72
     1
 10
382.6257973550798
 20
12.8543237332365
 11
382.6257973550798
 21
14.39618310785101
 97
        0
 75
     0
 76
     1
 98
        1
 10
0.0
 20
0.0
  0
HATCH
  5
34AB
330
1F
100
AcDbEntity
  8
図枠
  6
Continuous
 62
     7
100
AcDbHatch
 10
0.0
 20
0.0
 30
0.0
210
0.0
220
0.0
230
1.0
  2
SOLID
 70
     1
 71
     0
 91
        2
 92
        0
 93
        5
 72
     4
 94
        3
 73
     1
 74
     0
 95
        8
 96
        4
 40
2.0
 40
2.0
 40
2.0
 40
2.0
 40
3.0
 40
3.0
 40
3.0
 40
3.0
 10
385.2882636087545
 20
13.76203749169012
 42
1.0
 10
385.2882636087545
 20
14.26383631968965
 42
1.0
 10
385.0461422980512
 20
14.67033002618525
 42
1.0
 10
384.4859835525314
 20
14.67033002618525
 42
1.0
 72
     1
 10
384.4859835525314
 20
14.67033002618525
 11
383.7331888478584
 21
14.67033002618525
 72
     1
 10
383.7331888478584
 20
14.67033002618525
 11
383.7331888478584
 21
12.8543237332365
 72
     1
 10
383.7331888478584
 20
12.8543237332365
 11
384.4859835525314
 21
12.8543237332365
 72
     4
 94
        3
 73
     1
 74
     0
 95
        8
 96
        4
 40
1.0
 40
1.0
 40
1.0
 40
1.0
 40
2.0
 40
2.0
 40
2.0
 40
2.0
 10
384.4859835525314
 20
12.8543237332365
 42
1.0
 10
385.0461422980512
 20
12.8543237332365
 42
1.0
 10
385.2882636087545
 20
13.26101036507926
 42
1.0
 10
385.2882636087545
 20
13.76203749169012
 42
1.0
 97
        0
 92
        0
 93
        5
 72
     4
 94
        3
 73
     1
 74
     0
 95
        8
 96
        4
 40
1.0
 40
1.0
 40
1.0
 40
1.0
 40
2.0
 40
2.0
 40
2.0
 40
2.0
 10
384.3645370464853
 20
14.4110383595834
 42
1.0
 10
384.8624773675414
 20
14.4110383595834
 42
1.0
 10
384.9686827711607
 20
14.12666639784894
 42
1.0
 10
384.9686827711607
 20
13.76203749169012
 42
1.0
 72
     4
 94
        3
 73
     1
 74
     0
 95
        8
 96
        4
 40
2.0
 40
2.0
 40
2.0
 40
2.0
 40
3.0
 40
3.0
 40
3.0
 40
3.0
 10
384.9686827711607
 20
13.76203749169012
 42
1.0
 10
384.9686827711607
 20
13.39933783900301
 42
1.0
 10
384.8624773675414
 20
13.11400125053267
 42
1.0
 10
384.3645370464853
 20
13.11400125053267
 42
1.0
 72
     1
 10
384.3645370464853
 20
13.11400125053267
 11
384.0507439693069
 21
13.11400125053267
 72
     1
 10
384.0507439693069
 20
13.11400125053267
 11
384.0507439693069
 21
14.4110383595834
 72
     1
 10
384.0507439693069
 20
14.4110383595834
 11
384.3645370464853
 21
14.4110383595834
 97
        0
 75
     0
 76
     1
 98
        1
 10
0.0
 20
0.0
  0
HATCH
  5
34AC
330
1F
100
AcDbEntity
  8
図枠
  6
Continuous
 62
     7
100
AcDbHatch
 10
0.0
 20
0.0
 30
0.0
210
0.0
220
0.0
230
1.0
  2
SOLID
 70
     1
 71
     0
 91
        1
 92
        0
 93
        4
 72
     1
 10
385.5517996329941
 20
12.3943865506406
 11
385.5517996329941
 21
12.7377936686103
 72
     1
 10
385.5517996329941
 20
12.7377936686103
 11
385.9051424063431
 21
12.7377936686103
 72
     1
 10
385.9051424063431
 20
12.7377936686103
 11
385.9051424063431
 21
12.3943865506406
 72
     1
 10
385.9051424063431
 20
12.3943865506406
 11
385.5517996329941
 21
12.3943865506406
 97
        0
 75
     0
 76
     1
 98
        1
 10
0.0
 20
0.0
  0
HATCH
  5
34AD
330
1F
100
AcDbEntity
  8
図枠
  6
Continuous
 62
     7
100
AcDbHatch
 10
0.0
 20
0.0
 30
0.0
210
0.0
220
0.0
230
1.0
  2
ANSI31
 70
     0
 71
     0
 91
        1
 92
        0
 93
        3
 72
     4
 94
        3
 73
     1
 74
     0
 95
       14
 96
       10
 40
5.0
 40
5.0
 40
5.0
 40
5.0
 40
6.0
 40
6.0
 40
6.0
 40
7.0
 40
7.0
 40
7.0
 40
8.0
 40
8.0
 40
8.0
 40
8.0
 10
340.7609234069766
 20
13.66965489072315
 42
1.0
 10
341.7976077600161
 20
12.83544568954278
 42
1.0
 10
343.1140820977948
 20
12.33654074175086
 42
1.0
 10
344.5475174272975
 20
12.33654074175086
 42
1.0
 10
347.8839683813245
 20
12.33654074175086
 42
1.0
 10
350.5898910694502
 20
15.04116118378303
 42
1.0
 10
350.5898910694501
 20
18.37862499588271
 42
1.0
 10
350.5898910694501
 20
21.71464186787857
 42
1.0
 10
347.8839683813245
 20
24.42032339932019
 42
1.0
 10
344.5475174272975
 20
24.42032339932018
 42
1.0
 72
     4
 94
        3
 73
     1
 74
     0
 95
        8
 96
        4
 40
0.0
 40
0.0
 40
0.0
 40
0.0
 40
1.0
 40
1.0
 40
1.0
 40
1.0
 10
344.5475174272975
 20
24.42032339932018
 42
1.0
 10
343.1140820977948
 20
24.42032339932017
 42
1.0
 10
341.7976077600161
 20
23.92103260083391
 42
1.0
 10
340.7609234069766
 20
23.08701632500076
 42
1.0
 72
     4
 94
        3
 73
     1
 74
     0
 95
       17
 96
       13
 40
1.0
 40
1.0
 40
1.0
 40
1.0
 40
2.0
 40
2.0
 40
2.0
 40
3.0
 40
3.0
 40
3.0
 40
4.0
 40
4.0
 40
4.0
 40
5.0
 40
5.0
 40
5.0
 40
5.0
 10
340.7609234069766
 20
23.08701632500076
 42
1.0
 10
341.1867096481898
 20
23.20788405500527
 42
1.0
 10
341.6361292444316
 20
23.2729963596765
 42
1.0
 10
342.100114704385
 20
23.2729963596765
 42
1.0
 10
344.802902355619
 20
23.2729963596765
 42
1.0
 10
346.9944860681788
 20
21.0816055724639
 42
1.0
 10
346.9944860681788
 20
18.37862499588273
 42
1.0
 10
346.9944860681788
 20
15.6749691805864
 42
1.0
 10
344.802902355619
 20
13.48444655743612
 42
1.0
 10
342.100114704385
 20
13.48444655743612
 42
1.0
 10
341.6361292444316
 20
13.48444655743612
 42
1.0
 10
341.1867096481898
 20
13.54849777269788
 42
1.0
 10
340.7609234069766
 20
13.66965489072315
 42
1.0
 97
        0
 75
     0
 76
     1
 52
0.0
 41
0.001953125
 77
     0
 78
     1
 53
45.0
 43
0.0
 44
0.0
 45
-0.0043848906841158
 46
0.0043848906841158
 79
     0
 98
        1
 10
0.0
 20
0.0
  0
HATCH
  5
34AE
330
1F
100
AcDbEntity
  8
図枠
  6
Continuous
 62
     7
100
AcDbHatch
 10
0.0
 20
0.0
 30
0.0
210
0.0
220
0.0
230
1.0
  2
ANSI31
 70
     0
 71
     0
 91
        1
 92
        0
 93
        3
 72
     4
 94
        3
 73
     1
 74
     0
 95
        8
 96
        4
 40
3.0
 40
3.0
 40
3.0
 40
3.0
 40
4.0
 40
4.0
 40
4.0
 40
4.0
 10
340.7609234069766
 20
13.66965489072315
 42
1.0
 10
339.385413912963
 20
14.7766605328075
 42
1.0
 10
338.5049508597976
 20
16.47406596858107
 42
1.0
 10
338.5049508597976
 20
18.37862499588273
 42
1.0
 72
     4
 94
        3
 73
     1
 74
     0
 95
        8
 96
        4
 40
0.0
 40
0.0
 40
0.0
 40
0.0
 40
1.0
 40
1.0
 40
1.0
 40
1.0
 10
338.5049508597976
 20
18.37862499588273
 42
1.0
 10
338.5049508597976
 20
20.28279817249002
 42
1.0
 10
339.385413912963
 20
21.97957660088526
 42
1.0
 10
340.7609234069766
 20
23.08701632500076
 42
1.0
 72
     4
 94
        3
 73
     1
 74
     0
 95
       11
 96
        7
 40
1.0
 40
1.0
 40
1.0
 40
1.0
 40
2.0
 40
2.0
 40
2.0
 40
3.0
 40
3.0
 40
3.0
 40
3.0
 10
340.7609234069766
 20
23.08701632500076
 42
1.0
 10
338.7094034964653
 20
22.50515347792401
 42
1.0
 10
337.2055986465808
 20
20.61781303785764
 42
1.0
 10
337.2055986465808
 20
18.37862499588273
 42
1.0
 10
337.2055986465808
 20
16.13914756588701
 42
1.0
 10
338.7094034964653
 20
14.25151773779991
 42
1.0
 10
340.7609234069766
 20
13.66965489072315
 42
1.0
 97
        0
 75
     0
 76
     1
 52
0.0
 41
0.001953125
 77
     0
 78
     1
 53
45.0
 43
0.0
 44
0.0
 45
-0.0043848906841158
 46
0.0043848906841158
 79
     0
 98
        1
 10
0.0
 20
0.0
  0
LINE
  5
34AF
330
1F
100
AcDbEntity
  8
図枠
 62
     7
100
AcDbLine
 10
410.0
 20
287.0
 30
0.0
 11
410.0
 21
10.0
 31
0.0
  0
LINE
  5
34B1
330
1F
100
AcDbEntity
  8
図枠
 62
     7
100
AcDbLine
 10
410.0
 20
71.4183039484
 30
0.0
 11
10.0
 21
71.4183039484
 31
0.0
  0
LINE
  5
34B3
330
1F
100
AcDbEntity
  8
図枠
  6
Continuous
 62
     7
100
AcDbLine
 10
420.0
 20
148.5
 30
0.0
 11
405.0
 21
148.5
 31
0.0
  0
LINE
  5
34B4
330
1F
100
AcDbEntity
  8
図枠
 62
     7
100
AcDbLine
 10
10.0
 20
10.0
 30
0.0
 11
410.0
 21
10.0
 31
0.0
  0
LINE
  5
34B6
330
1F
100
AcDbEntity
  8
図枠
  6
Continuous
 62
     7
100
AcDbLine
 10
60.0
 20
287.0
 30
0.0
 11
60.0
 21
297.0
 31
0.0
  0
LINE
  5
34B7
330
1F
100
AcDbEntity
  8
図枠
  6
Continuous
 62
     7
100
AcDbLine
 10
60.0
 20
10.0
 30
0.0
 11
60.0
 21
0.0
 31
0.0
  0
LINE
  5
34B8
330
1F
100
AcDbEntity
  8
図枠
  6
Continuous
 62
     7
100
AcDbLine
 10
110.0
 20
287.0
 30
0.0
 11
110.0
 21
297.0
 31
0.0
  0
LINE
  5
34B9
330
1F
100
AcDbEntity
  8
図枠
  6
Continuous
 62
     7
100
AcDbLine
 10
110.0
 20
10.0
 30
0.0
 11
110.0
 21
0.0
 31
0.0
  0
LINE
  5
34BA
330
1F
100
AcDbEntity
  8
図枠
  6
Continuous
 62
     7
100
AcDbLine
 10
160.0
 20
287.0
 30
0.0
 11
160.0
 21
297.0
 31
0.0
  0
LINE
  5
34BB
330
1F
100
AcDbEntity
  8
図枠
  6
Continuous
 62
     7
100
AcDbLine
 10
160.0
 20
10.0
 30
0.0
 11
160.0
 21
0.0
 31
0.0
  0
LINE
  5
34CA
330
1F
100
AcDbEntity
  8
図枠
 62
     7
100
AcDbLine
 10
410.0
 20
26.4821127524
 30
0.0
 11
260.0
 21
26.4821127524
 31
0.0
  0
LINE
  5
34CB
330
1F
100
AcDbEntity
  8
図枠
 62
     7
100
AcDbLine
 10
333.037196794
 20
10.0
 30
0.0
 11
333.037196794
 21
71.4183039484
 31
0.0
  0
LINE
  5
34D6
330
1F
100
AcDbEntity
  8
図枠
  6
Continuous
 62
     7
100
AcDbLine
 10
210.0
 20
282.0
 30
0.0
 11
210.0
 21
297.0
 31
0.0
  0
LINE
  5
34D7
330
1F
100
AcDbEntity
  8
図枠
  6
Continuous
 62
     7
100
AcDbLine
 10
210.0
 20
10.0
 30
0.0
 11
210.0
 21
0.0
 31
0.0
  0
LINE
  5
34D8
330
1F
100
AcDbEntity
  8
図枠
 62
     7
100
AcDbLine
 10
410.0
 20
287.0
 30
0.0
 11
10.0
 21
287.0
 31
0.0
  0
LINE
  5
34D9
330
1F
100
AcDbEntity
  8
図枠
  6
Continuous
 62
     7
100
AcDbLine
 10
260.0
 20
287.0
 30
0.0
 11
260.0
 21
297.0
 31
0.0
  0
LINE
  5
34DA
330
1F
100
AcDbEntity
  8
図枠
 62
     7
100
AcDbLine
 10
10.0
 20
287.0
 30
0.0
 11
10.0
 21
10.0
 31
0.0
  0
LINE
  5
34DB
330
1F
100
AcDbEntity
  8
図枠
  6
Continuous
 62
     7
100
AcDbLine
 10
260.0
 20
10.0
 30
0.0
 11
260.0
 21
0.0
 31
0.0
  0
LINE
  5
34DC
330
1F
100
AcDbEntity
  8
図枠
  6
Continuous
 62
     7
100
AcDbLine
 10
310.0
 20
287.0
 30
0.0
 11
310.0
 21
297.0
 31
0.0
  0
LINE
  5
34DD
330
1F
100
AcDbEntity
  8
図枠
  6
Continuous
 62
     7
100
AcDbLine
 10
309.9987854449
 20
10.0
 30
0.0
 11
309.9987854449
 21
0.0
 31
0.0
  0
LINE
  5
34DE
330
1F
100
AcDbEntity
  8
図枠
  6
Continuous
 62
     7
100
AcDbLine
 10
360.0
 20
287.0
 30
0.0
 11
360.0
 21
297.0
 31
0.0
  0
LINE
  5
34DF
330
1F
100
AcDbEntity
  8
図枠
  6
Continuous
 62
     7
100
AcDbLine
 10
360.0039151785
 20
10.0
 30
0.0
 11
360.0039151785
 21
0.0
 31
0.0
  0
LINE
  5
34E0
330
1F
100
AcDbEntity
  8
図枠
  6
Continuous
 62
     7
100
AcDbLine
 10
410.0
 20
248.5
 30
0.0
 11
420.0
 21
248.5
 31
0.0
  0
LINE
  5
34E1
330
1F
100
AcDbEntity
  8
図枠
  6
Continuous
 62
     7
100
AcDbLine
 10
10.0
 20
248.5
 30
0.0
 11
0.0
 21
248.5
 31
0.0
  0
LINE
  5
34E2
330
1F
100
AcDbEntity
  8
図枠
  6
Continuous
 62
     7
100
AcDbLine
 10
410.0
 20
198.5
 30
0.0
 11
420.0
 21
198.5
 31
0.0
  0
LINE
  5
34E3
330
1F
100
AcDbEntity
  8
図枠
  6
Continuous
 62
     7
100
AcDbLine
 10
10.0
 20
198.5
 30
0.0
 11
0.0
 21
198.5
 31
0.0
  0
LINE
  5
34E5
330
1F
100
AcDbEntity
  8
図枠
  6
Continuous
 62
     7
100
AcDbLine
 10
15.0
 20
148.5
 30
0.0
 11
0.0
 21
148.5
 31
0.0
  0
LINE
  5
34E6
330
1F
100
AcDbEntity
  8
図枠
  6
Continuous
 62
     7
100
AcDbLine
 10
410.0
 20
98.5
 30
0.0
 11
420.0
 21
98.5
 31
0.0
  0
LINE
  5
34E7
330
1F
100
AcDbEntity
  8
図枠
  6
Continuous
 62
     7
100
AcDbLine
 10
10.0
 20
98.5
 30
0.0
 11
0.0
 21
98.5
 31
0.0
  0
LINE
  5
34EA
330
1F
100
AcDbEntity
  8
図枠
  6
Continuous
 62
     7
100
AcDbLine
 10
410.0
 20
48.5
 30
0.0
 11
420.0
 21
48.5
 31
0.0
  0
LINE
  5
34EB
330
1F
100
AcDbEntity
  8
図枠
  6
Continuous
 62
     7
100
AcDbLine
 10
10.0
 20
48.5
 30
0.0
 11
0.0
 21
48.5
 31
0.0
  0
LINE
  5
3573
330
1F
100
AcDbEntity
  8
図枠
 62
     7
100
AcDbLine
 10
392.7629249112
 20
10.0
 30
0.0
 11
392.7558225395
 21
26.4821127524
 31
0.0
  0
LINE
  5
3574
330
1F
100
AcDbEntity
  8
図枠
 62
     7
100
AcDbLine
 10
333.037196794
 20
64.3897202375
 30
0.0
 11
410.0
 21
64.3897202375
 31
0.0
  0
LINE
  5
3575
330
1F
100
AcDbEntity
  8
図枠
 62
     7
100
AcDbLine
 10
260.0
 20
10.0
 30
0.0
 11
260.0
 21
71.4183039484
 31
0.0
  0
LINE
  5
3576
330
1F
100
AcDbEntity
  8
図枠
 62
     7
100
AcDbLine
 10
333.037196794
 20
64.3897202375
 30
0.0
 11
260.0
 21
64.3897202375
 31
0.0
  0
LINE
  5
3578
330
1F
100
AcDbEntity
  8
図枠
 62
     7
100
AcDbLine
 10
333.037196794
 20
19.4657688322
 30
0.0
 11
260.0
 21
19.4657688322
 31
0.0
  0
LINE
  5
3579
330
1F
100
AcDbEntity
  8
図枠
 62
     7
100
AcDbLine
 10
299.5921729633
 20
10.0
 30
0.0
 11
299.5850705916
 21
26.4821127524
 31
0.0
  0
LINE
  5
357A
330
1F
100
AcDbEntity
  8
図枠
 62
     7
100
AcDbLine
 10
210.0
 20
10.0
 30
0.0
 11
210.0
 21
71.4183039484
 31
0.0
  0
LINE
  5
357B
330
1F
100
AcDbEntity
  8
図枠
 62
     7
100
AcDbLine
 10
260.0
 20
64.3897202375
 30
0.0
 11
210.0
 21
64.3897202375
 31
0.0
  0
LINE
  5
357C
330
1F
100
AcDbEntity
  8
図枠
  6
Continuous
 62
     7
100
AcDbLine
 10
227.6777366283
 20
64.3897202375
 30
0.0
 11
227.6777366283
 21
10.0
 31
0.0
  0
LINE
  5
357D
330
1F
100
AcDbEntity
  8
図枠
 62
     7
100
AcDbLine
 10
210.0
 20
23.947130671
 30
0.0
 11
260.0
 21
23.947130671
 31
0.0
  0
LINE
  5
357E
330
1F
100
AcDbEntity
  8
図枠
 62
     7
100
AcDbLine
 10
210.0
 20
50.7133687799
 30
0.0
 11
260.0
 21
50.7133687799
 31
0.0
  0
LINE
  5
357F
330
1F
100
AcDbEntity
  8
図枠
 62
     7
100
AcDbLine
 10
260.0
 20
37.4806218497
 30
0.0
 11
210.0
 21
37.4806218497
 31
0.0
  0
LINE
  5
3580
330
1F
100
AcDbEntity
  8
図枠
 62
     7
100
AcDbLine
 10
260.0
 20
16.9562384825
 30
0.0
 11
210.0
 21
16.9562384825
 31
0.0
  0
LINE
  5
3581
330
1F
100
AcDbEntity
  8
図枠
 62
     7
100
AcDbLine
 10
210.0
 20
16.9562384825
 30
0.0
 11
10.0
 21
16.9562384825
 31
0.0
  0
LINE
  5
3582
330
1F
100
AcDbEntity
  8
図枠
 62
     7
100
AcDbLine
 10
210.0
 20
23.947130671
 30
0.0
 11
10.0
 21
23.947130671
 31
0.0
  0
LINE
  5
3583
330
1F
100
AcDbEntity
  8
図枠
 62
     7
100
AcDbLine
 10
210.0
 20
30.4849499307
 30
0.0
 11
10.0
 21
30.4849499307
 31
0.0
  0
LINE
  5
3584
330
1F
100
AcDbEntity
  8
図枠
 62
     7
100
AcDbLine
 10
210.0
 20
37.4806218497
 30
0.0
 11
10.0
 21
37.4806218497
 31
0.0
  0
LINE
  5
3585
330
1F
100
AcDbEntity
  8
図枠
 62
     7
100
AcDbLine
 10
210.0
 20
43.9342364428
 30
0.0
 11
10.0
 21
43.9342364428
 31
0.0
  0
LINE
  5
3586
330
1F
100
AcDbEntity
  8
図枠
 62
     7
100
AcDbLine
 10
210.0
 20
50.7133687799
 30
0.0
 11
10.0
 21
50.7133687799
 31
0.0
  0
LINE
  5
3587
330
1F
100
AcDbEntity
  8
図枠
 62
     7
100
AcDbLine
 10
210.0
 20
57.9312307419
 30
0.0
 11
10.0
 21
57.9312307419
 31
0.0
  0
LINE
  5
3588
330
1F
100
AcDbEntity
  8
図枠
 62
     7
100
AcDbLine
 10
210.0
 20
64.3897202375
 30
0.0
 11
10.0
 21
64.3897202375
 31
0.0
  0
LINE
  5
3589
330
1F
100
AcDbEntity
  8
図枠
 62
     7
100
AcDbLine
 10
21.7562186156
 20
10.0
 30
0.0
 11
21.7562186156
 21
71.4183039484
 31
0.0
  0
LINE
  5
358A
330
1F
100
AcDbEntity
  8
図枠
 62
     7
100
AcDbLine
 10
170.0277100038
 20
10.0
 30
0.0
 11
170.0277100038
 21
71.4183039484
 31
0.0
  0
LINE
  5
358B
330
1F
100
AcDbEntity
  8
図枠
 62
     7
100
AcDbLine
 10
160.0
 20
10.0
 30
0.0
 11
160.0
 21
71.4183039484
 31
0.0
  0
LINE
  5
3599
330
1F
100
AcDbEntity
  8
図枠
  6
Continuous
 62
     7
100
AcDbLine
 10
281.386764118
 20
16.8279349855
 30
0.0
 11
287.9944275431
 21
17.83094703369149
 31
0.0
  0
LINE
  5
359A
330
1F
100
AcDbEntity
  8
図枠
  6
Continuous
 62
     7
100
AcDbLine
 10
291.5066090033
 20
14.8279349855
 30
0.0
 11
268.7270365948
 21
14.8279349855
 31
0.0
  0
LINE
  5
359B
330
1F
100
AcDbEntity
  8
図枠
  6
Continuous
 62
     7
100
AcDbLine
 10
273.5630784217
 20
18.6994881575
 30
0.0
 11
273.5630784217
 21
10.6994881575
 31
0.0
  0
LINE
  5
359C
330
1F
100
AcDbEntity
  8
図枠
  6
Continuous
 62
     7
100
AcDbLine
 10
281.386764118
 20
12.8279349855
 30
0.0
 11
287.9944275431
 21
11.83092899747479
 31
0.0
  0
LINE
  5
359D
330
1F
100
AcDbEntity
  8
図枠
  6
Continuous
 62
     7
100
AcDbLine
 10
281.386764118
 20
16.8279349855
 30
0.0
 11
281.386764118
 21
12.8279349855
 31
0.0
  0
CIRCLE
  5
359E
330
1F
100
AcDbEntity
  8
図枠
  6
Continuous
 62
     7
100
AcDbCircle
 10
273.5630784217
 20
14.8279349855
 30
0.0
 40
2.999999999999964
  0
CIRCLE
  5
359F
330
1F
100
AcDbEntity
  8
図枠
  6
Continuous
 62
     7
100
AcDbCircle
 10
273.5630784217
 20
14.8279349855
 30
0.0
 40
1.999999999999994
  0
SPLINE
  5
35D0
330
1F
100
AcDbEntity
  8
図枠
  6
Continuous
 62
     7
100
AcDbSpline
210
0.0
220
0.0
230
1.0
 70
     8
 71
     3
 72
     8
 73
     4
 74
     0
 42
0.000000001
 43
0.00000001
 40
0.0
 40
0.0
 40
0.0
 40
0.0
 40
1.0
 40
1.0
 40
1.0
 40
1.0
 10
344.5475174272975
 20
24.42032339932018
 30
0.0
 10
343.1140820977948
 20
24.42032339932017
 30
0.0
 10
341.7976077600161
 20
23.92103260083391
 30
0.0
 10
340.7609234069766
 20
23.08701632500076
 30
0.0
  0
MTEXT
  5
3619
330
1F
100
AcDbEntity
  8
図枠
  6
Continuous
 62
     7
100
AcDbMText
 10
414.6137063608
 20
25.5530180432
 30
0.0
 40
3.5
 41
0.0
 46
0.0
 71
     2
 72
     1
  1
F
  7
SLDTEXTSTYLE0
 73
     1
 44
1.0
  0
MTEXT
  5
361A
330
1F
100
AcDbEntity
  8
図枠
  6
Continuous
 62
     7
100
AcDbMText
 10
413.3481189104
 20
274.9653191374
 30
0.0
 40
3.5
 41
0.0
 46
0.0
 71
     2
 72
     1
  1
A
  7
SLDTEXTSTYLE0
 73
     1
 44
1.0
  0
MTEXT
  5
361B
330
1F
100
AcDbEntity
  8
図枠
  6
Continuous
 62
     7
100
AcDbMText
 10
413.9943428345
 20
175.7531994215
 30
0.0
 40
3.5
 41
0.0
 46
0.0
 71
     2
 72
     1
  1
C
  7
SLDTEXTSTYLE0
 73
     1
 44
1.0
  0
MTEXT
  5
361C
330
1F
100
AcDbEntity
  8
図枠
  6
Continuous
 62
     7
100
AcDbMText
 10
414.5205581885
 20
75.7531994215
 30
0.0
 40
3.5
 41
0.0
 46
0.0
 71
     2
 72
     1
  1
E
  7
SLDTEXTSTYLE0
 73
     1
 44
1.0
  0
MTEXT
  5
361D
330
1F
100
AcDbEntity
  8
図枠
  6
Continuous
 62
     7
100
AcDbMText
 10
413.4474678345
 20
225.7531994215
 30
0.0
 40
3.5
 41
0.0
 46
0.0
 71
     2
 72
     1
  1
B
  7
SLDTEXTSTYLE0
 73
     1
 44
1.0
  0
MTEXT
  5
361E
330
1F
100
AcDbEntity
  8
図枠
  6
Continuous
 62
     7
100
AcDbMText
 10
413.9906969227
 20
125.7531994215
 30
0.0
 40
3.5
 41
0.0
 46
0.0
 71
     2
 72
     1
  1
D
  7
SLDTEXTSTYLE0
 73
     1
 44
1.0
  0
MTEXT
  5
361F
330
1F
100
AcDbEntity
  8
図枠
  6
Continuous
 62
     7
100
AcDbMText
 10
86.2898942795
 20
291.9958015854
 30
0.0
 40
3.5
 41
0.0
 46
0.0
 71
     2
 72
     1
  1
2
  7
SLDTEXTSTYLE0
 73
     1
 44
1.0
  0
MTEXT
  5
3620
330
1F
100
AcDbEntity
  8
図枠
  6
Continuous
 62
     7
100
AcDbMText
 10
31.4493798471
 20
291.9958015854
 30
0.0
 40
3.5
 41
0.0
 46
0.0
 71
     2
 72
     1
  1
1
  7
SLDTEXTSTYLE0
 73
     1
 44
1.0
  0
MTEXT
  5
3621
330
1F
100
AcDbEntity
  8
図枠
  6
Continuous
 62
     7
100
AcDbMText
 10
336.4418421836
 20
291.9958015854
 30
0.0
 40
3.5
 41
0.0
 46
0.0
 71
     2
 72
     1
  1
7
  7
SLDTEXTSTYLE0
 73
     1
 44
1.0
  0
MTEXT
  5
3622
330
1F
100
AcDbEntity
  8
図枠
  6
Continuous
 62
     7
100
AcDbMText
 10
236.0711732812
 20
291.9958015854
 30
0.0
 40
3.5
 41
0.0
 46
0.0
 71
     2
 72
     1
  1
5
  7
SLDTEXTSTYLE0
 73
     1
 44
1.0
  0
MTEXT
  5
3623
330
1F
100
AcDbEntity
  8
図枠
  6
Continuous
 62
     7
100
AcDbMText
 10
136.4558926481
 20
291.9958015854
 30
0.0
 40
3.5
 41
0.0
 46
0.0
 71
     2
 72
     1
  1
3
  7
SLDTEXTSTYLE0
 73
     1
 44
1.0
  0
MTEXT
  5
3624
330
1F
100
AcDbEntity
  8
図枠
  6
Continuous
 62
     7
100
AcDbMText
 10
391.4132830604
 20
291.9294820467
 30
0.0
 40
3.5
 41
0.0
 46
0.0
 71
     2
 72
     1
  1
8
  7
SLDTEXTSTYLE0
 73
     1
 44
1.0
  0
MTEXT
  5
3625
330
1F
100
AcDbEntity
  8
図枠
  6
Continuous
 62
     7
100
AcDbMText
 10
286.3740325912
 20
291.9958015854
 30
0.0
 40
3.5
 41
0.0
 46
0.0
 71
     2
 72
     1
  1
6
  7
SLDTEXTSTYLE0
 73
     1
 44
1.0
  0
MTEXT
  5
3626
330
1F
100
AcDbEntity
  8
図枠
  6
Continuous
 62
     7
100
AcDbMText
 10
186.3567148807
 20
291.9958015854
 30
0.0
 40
3.5
 41
0.0
 46
0.0
 71
     2
 72
     1
  1
4
  7
SLDTEXTSTYLE0
 73
     1
 44
1.0
  0
MTEXT
  5
3627
330
1F
100
AcDbEntity
  8
図枠
  6
Continuous
 62
     7
100
AcDbMText
 10
6.1819882844
 20
125.7531994215
 30
0.0
 40
3.5
 41
0.0
 46
0.0
 71
     2
 72
     1
  1
D
  7
SLDTEXTSTYLE0
 73
     1
 44
1.0
  0
MTEXT
  5
3628
330
1F
100
AcDbEntity
  8
図枠
  6
Continuous
 62
     7
100
AcDbMText
 10
6.1856341962
 20
175.7531994215
 30
0.0
 40
3.5
 41
0.0
 46
0.0
 71
     2
 72
     1
  1
C
  7
SLDTEXTSTYLE0
 73
     1
 44
1.0
  0
MTEXT
  5
3629
330
1F
100
AcDbEntity
  8
図枠
  6
Continuous
 62
     7
100
AcDbMText
 10
5.6387591962
 20
225.8746600786
 30
0.0
 40
3.5
 41
0.0
 46
0.0
 71
     2
 72
     1
  1
B
  7
SLDTEXTSTYLE0
 73
     1
 44
1.0
  0
MTEXT
  5
362A
330
1F
100
AcDbEntity
  8
図枠
  6
Continuous
 62
     7
100
AcDbMText
 10
6.2281689173
 20
75.7531994215
 30
0.0
 40
3.5
 41
0.0
 46
0.0
 71
     2
 72
     1
  1
E
  7
SLDTEXTSTYLE0
 73
     1
 44
1.0
  0
MTEXT
  5
362B
330
1F
100
AcDbEntity
  8
図枠
  6
Continuous
 62
     7
100
AcDbMText
 10
390.1189953632
 20
8.3321536334
 30
0.0
 40
3.5
 41
0.0
 46
0.0
 71
     2
 72
     1
  1
8
  7
SLDTEXTSTYLE0
 73
     1
 44
1.0
  0
MTEXT
  5
362C
330
1F
100
AcDbEntity
  8
図枠
  6
Continuous
 62
     7
100
AcDbMText
 10
135.0754620529
 20
8.3984731721
 30
0.0
 40
3.5
 41
0.0
 46
0.0
 71
     2
 72
     1
  1
3
  7
SLDTEXTSTYLE0
 73
     1
 44
1.0
  0
MTEXT
  5
362D
330
1F
100
AcDbEntity
  8
図枠
  6
Continuous
 62
     7
100
AcDbMText
 10
184.9799479386
 20
8.3984733468
 30
0.0
 40
3.5
 41
0.0
 46
0.0
 71
     2
 72
     1
  1
4
  7
SLDTEXTSTYLE0
 73
     1
 44
1.0
  0
MTEXT
  5
362E
330
1F
100
AcDbEntity
  8
図枠
  6
Continuous
 62
     7
100
AcDbMText
 10
234.9893662874
 20
8.3984731721
 30
0.0
 40
3.5
 41
0.0
 46
0.0
 71
     2
 72
     1
  1
5
  7
SLDTEXTSTYLE0
 73
     1
 44
1.0
  0
MTEXT
  5
362F
330
1F
100
AcDbEntity
  8
図枠
  6
Continuous
 62
     7
100
AcDbMText
 10
284.997265649
 20
8.3984731721
 30
0.0
 40
3.5
 41
0.0
 46
0.0
 71
     2
 72
     1
  1
6
  7
SLDTEXTSTYLE0
 73
     1
 44
1.0
  0
MTEXT
  5
3630
330
1F
100
AcDbEntity
  8
図枠
  6
Continuous
 62
     7
100
AcDbMText
 10
334.9933160264
 20
8.3984731721
 30
0.0
 40
3.5
 41
0.0
 46
0.0
 71
     2
 72
     1
  1
7
  7
SLDTEXTSTYLE0
 73
     1
 44
1.0
  0
MTEXT
  5
3631
330
1F
100
AcDbEntity
  8
図枠
  6
Continuous
 62
     7
100
AcDbMText
 10
5.539410272
 20
274.9676194612
 30
0.0
 40
3.5
 41
0.0
 46
0.0
 71
     2
 72
     1
  1
A
  7
SLDTEXTSTYLE0
 73
     1
 44
1.0
  0
MTEXT
  5
3632
330
1F
100
AcDbEntity
  8
図枠
  6
Continuous
 62
     7
100
AcDbMText
 10
84.9842014052
 20
8.3984731721
 30
0.0
 40
3.5
 41
0.0
 46
0.0
 71
     2
 72
     1
  1
2
  7
SLDTEXTSTYLE0
 73
     1
 44
1.0
  0
MTEXT
  5
3633
330
1F
100
AcDbEntity
  8
図枠
  6
Continuous
 62
     7
100
AcDbMText
 10
30.0726129049
 20
8.3984731721
 30
0.0
 40
3.5
 41
0.0
 46
0.0
 71
     2
 72
     1
  1
1
  7
SLDTEXTSTYLE0
 73
     1
 44
1.0
  0
MTEXT
  5
3634
330
1F
100
AcDbEntity
  8
図枠
  6
Continuous
 62
     7
100
AcDbMText
 10
6.2220924864
 20
26.528893971
 30
0.0
 40
3.5
 41
0.0
 46
0.0
 71
     2
 72
     1
  1
F
  7
SLDTEXTSTYLE0
 73
     1
 44
1.0
  0
MTEXT
  5
3636
330
1F
100
AcDbEntity
  8
図枠
  6
Continuous
 62
     7
100
AcDbMText
 10
333.037196794
 20
70.17363716918993
 30
0.0
 40
3.0
 41
76.36279484668655
 46
3.135
 71
     1
 72
     1
  1
\pi21.54190;品番 / PART　NO.
 73
     1
 44
1.0
1001
ACAD
1000
ACAD_MTEXT_DEFINED_HEIGHT_BEGIN
1070
    46
1040
3.135
1000
ACAD_MTEXT_DEFINED_HEIGHT_END
  0
MTEXT
  5
3637
330
1F
100
AcDbEntity
  8
図枠
  6
Continuous
 62
     7
100
AcDbMText
 10
397.3542845774397
 20
20.08716082696225
 30
0.0
 40
5.0
 41
0.0
 46
0.0
 71
     1
 72
     1
  1
1/1
 73
     1
 44
1.0
  0
MTEXT
  5
3638
330
1F
100
AcDbEntity
  8
図枠
  6
Continuous
 62
     7
100
AcDbMText
 10
263.2993902254761
 20
69.92326186523889
 30
0.0
 40
3.0
 41
0.0
 46
3.135
 71
     1
 72
     1
  1
{消費電力 / POWER CONSUMPTION}
 73
     1
 44
1.0
1001
ACAD
1000
ACAD_MTEXT_DEFINED_HEIGHT_BEGIN
1070
    46
1040
3.135
1000
ACAD_MTEXT_DEFINED_HEIGHT_END
  0
MTEXT
  5
3639
330
1F
100
AcDbEntity
  8
図枠
  6
Continuous
 62
     7
100
AcDbMText
 10
281.5612114284203
 20
54.13744695414645
 30
0.0
 40
3.0
 41
39.67985471429722
 46
2.6125
 71
     1
 72
     1
  1
\pi-15,l15;材質 / MATERIAL
 73
     1
 44
1.0
1001
ACAD
1000
ACAD_MTEXT_DEFINED_HEIGHT_BEGIN
1070
    46
1040
2.6125
1000
ACAD_MTEXT_DEFINED_HEIGHT_END
  0
MTEXT
  5
363A
330
1F
100
AcDbEntity
  8
図枠
  6
Continuous
 62
     7
100
AcDbMText
 10
305.4455204341592
 20
24.44963717470281
 30
0.0
 40
2.5
 41
0.0
 46
0.0
 71
     1
 72
     1
  1
尺度 / SCALE
 73
     1
 44
1.0
  0
MTEXT
  5
363B
330
1F
100
AcDbEntity
  8
図枠
  6
Continuous
 62
     7
100
AcDbMText
 10
265.8671245702735
 20
24.02284477705772
 30
0.0
 40
2.0
 41
0.0
 46
0.0
 71
     1
 72
     1
  1
投影法 / PROJECTION
 73
     1
 44
1.0
  0
MTEXT
  5
363C
330
1F
100
AcDbEntity
  8
図枠
  6
Continuous
 62
     7
100
AcDbMText
 10
223.1312639247744
 20
69.79519406910282
 30
0.0
 40
3.0
 41
0.0
 46
0.0
 71
     1
 72
     1
  1
名前 / NAME
 73
     1
 44
1.0
  0
MTEXT
  5
363D
330
1F
100
AcDbEntity
  8
図枠
  6
Continuous
 62
     7
100
AcDbMText
 10
214.7675905005141
 20
59.18450447790281
 30
0.0
 40
3.0
 41
0.0
 46
0.0
 71
     1
 72
     1
  1
検認
 73
     1
 44
1.0
  0
MTEXT
  5
363E
330
1F
100
AcDbEntity
  8
図枠
  6
Continuous
 62
     7
100
AcDbMText
 10
214.7599347962141
 20
45.95046291400281
 30
0.0
 40
3.0
 41
0.0
 46
0.0
 71
     1
 72
     1
  1
検認
 73
     1
 44
1.0
  0
MTEXT
  5
363F
330
1F
100
AcDbEntity
  8
図枠
  6
Continuous
 62
     7
100
AcDbMText
 10
215.2387911698057
 20
32.24519521030282
 30
0.0
 40
3.0
 41
0.0
 46
0.0
 71
     1
 72
     1
  1
設計
 73
     1
 44
1.0
  0
MTEXT
  5
3640
330
1F
100
AcDbEntity
  8
図枠
  6
Continuous
 62
     7
100
AcDbMText
 10
215.9287392775202
 20
15.36715446382124
 30
0.0
 40
3.0
 41
0.0
 46
0.0
 71
     1
 72
     1
  1
日付
 73
     1
 44
1.0
  0
MTEXT
  5
3641
330
1F
100
AcDbEntity
  8
図枠
  6
Continuous
 62
     7
100
AcDbMText
 10
215.2370364233136
 20
22.27188726750282
 30
0.0
 40
3.0
 41
0.0
 46
0.0
 71
     1
 72
     1
  1
製図
 73
     1
 44
1.0
  0
MTEXT
  5
3642
330
1F
100
AcDbEntity
  8
図枠
  6
Continuous
 62
     7
100
AcDbMText
 10
13.11759169921057
 20
14.92326126600705
 30
0.0
 40
3.0
 41
0.0
 46
0.0
 71
     1
 72
     1
  1
NO.
 73
     1
 44
1.0
  0
MTEXT
  5
3643
330
1F
100
AcDbEntity
  8
図枠
  6
Continuous
 62
     7
100
AcDbMText
 10
58.1737779039
 20
15.335323283
 30
0.0
 40
3.0
 41
0.0
 46
0.0
 71
     1
 72
     1
  1
改定履歴 / REVISION HISTORY
 73
     1
 44
1.0
  0
MTEXT
  5
3644
330
1F
100
AcDbEntity
  8
図枠
  6
Continuous
 62
     7
100
AcDbMText
 10
161.5043909192069
 20
15.27561285357811
 30
0.0
 40
3.0
 41
0.0
 46
0.0
 71
     1
 72
     1
  1
日付
 73
     1
 44
1.0
  0
MTEXT
  5
3645
330
1F
100
AcDbEntity
  8
図枠
  6
Continuous
 62
     7
100
AcDbMText
 10
177.9232773753317
 20
15.12929227450352
 30
0.0
 40
3.0
 41
0.0
 46
0.0
 71
     1
 72
     1
  1
名前 / NAME
 73
     1
 44
1.0
  0
MTEXT
  5
3646
330
1F
100
AcDbEntity
  8
図枠
  6
Continuous
 62
     7
100
AcDbMText
 10
348.7024716211732
 20
39.48099416630564
 30
0.0
 40
3.0
 41
0.0
 46
0.0
 71
     1
 72
     1
  1
品名 / DRAWING NAME
 73
     1
 44
1.0
  0
LINE
  5
365B
330
1F
100
AcDbEntity
  8
図枠
  6
Continuous
 62
     7
100
AcDbLine
 10
287.9944275431
 20
17.83094703369149
 30
0.0
 11
287.9944275431
 21
11.83092899747479
 31
0.0
  0
LINE
  5
7723
330
1F
100
AcDbEntity
  8
図枠
 62
     7
100
AcDbLine
 10
333.037196794
 20
34.24034514150001
 30
0.0
 11
260.0
 21
34.24034514150001
 31
0.0
  0
LINE
  5
7724
330
1F
100
AcDbEntity
  8
図枠
 62
     7
100
AcDbLine
 10
333.037196794
 20
34.24034514150001
 30
0.0
 11
410.0
 21
34.24034514150001
 31
0.0
  0
LINE
  5
7729
330
1F
100
AcDbEntity
  8
図枠
 62
     7
100
AcDbLine
 10
260.0
 20
56.44486011875
 30
0.0
 11
410.0
 21
56.44486011875
 31
0.0
  0
LINE
  5
772A
330
1F
100
AcDbEntity
  8
図枠
 62
     7
100
AcDbLine
 10
260.0
 20
41.37017257075
 30
0.0
 11
410.0
 21
41.37017257074999
 31
0.0
  0
MTEXT
  5
7753
330
1F
100
AcDbEntity
  8
図枠
  6
Continuous
 62
     7
100
AcDbMText
 10
262.6666105622659
 20
39.95857322602303
 30
0.0
 40
3.0
 41
72.17167895256382
 46
2.6125
 71
     1
 72
     1
  1
\pi21.96034;重量 / WEIGHT
 73
     1
 44
1.0
1001
ACAD
1000
ACAD_MTEXT_DEFINED_HEIGHT_BEGIN
1070
    46
1040
2.6125
1000
ACAD_MTEXT_DEFINED_HEIGHT_END
  0
LINE
  5
777D
330
1F
100
AcDbEntity
  8
図枠
 62
     7
100
AcDbLine
 10
260.0
 20
49.12840495985001
 30
0.0
 11
410.0
 21
49.12840495984999
 31
0.0
  0
MTEXT
  5
77FD
330
1F
100
AcDbEntity
  8
図枠
  6
Continuous
 62
     7
100
AcDbMText
 10
340.9002610607948
 20
54.91232189153995
 30
0.0
 40
3.0
 41
76.36279484668654
 46
3.135
 71
     1
 72
     1
  1
{\pxi7.18063;色 / COLOR}
 73
     1
 44
1.0
1001
ACAD
1000
ACAD_MTEXT_DEFINED_HEIGHT_BEGIN
1070
    46
1040
3.135
1000
ACAD_MTEXT_DEFINED_HEIGHT_END
  0
CIRCLE
  5
79A6
330
1F
100
AcDbEntity
  8
レイヤー_1
 62
     7
370
    15
100
AcDbCircle
 10
168.2017507438975
 20
111.8687489029596
 30
0.0
 40
17.00002781818182
  0
CIRCLE
  5
79A7
330
1F
100
AcDbEntity
  8
レイヤー_1
 62
     7
370
    15
100
AcDbCircle
 10
168.2014849257157
 20
111.8687489029596
 30
0.0
 40
12.05460881818182
  0
SPLINE
  5
79A8
330
1F
100
AcDbEntity
  8
レイヤー_1
 62
     7
370
    15
100
AcDbSpline
210
0.0
220
0.0
230
1.0
 70
    11
 71
     3
 72
    14
 73
    10
 74
     0
 42
0.000000001
 43
0.00000001
 40
0.0
 40
0.0
 40
0.0
 40
0.0
 40
1.0
 40
1.0
 40
1.0
 40
2.0
 40
2.0
 40
2.0
 40
3.0
 40
3.0
 40
3.0
 40
3.0
 10
161.7229510506762
 20
122.0029051796326
 30
0.0
 10
160.9291070935266
 20
121.4971025241717
 30
0.0
 10
160.197024302728
 20
120.9061120530543
 30
0.0
 10
159.5437402414117
 20
120.2341931570631
 30
0.0
 10
159.5437402414117
 20
120.2341931570631
 30
0.0
 10
167.1137425101933
 20
112.6652557359773
 30
0.0
 10
167.1137425101933
 20
112.6652557359773
 30
0.0
 10
167.1137425101933
 20
112.6652557359773
 30
0.0
 10
161.7229510506762
 20
122.0029051796326
 30
0.0
 10
161.7229510506762
 20
122.0029051796326
 30
0.0
  0
SPLINE
  5
79A9
330
1F
100
AcDbEntity
  8
レイヤー_1
 62
     7
370
    15
100
AcDbSpline
210
0.0
220
0.0
230
1.0
 70
    11
 71
     3
 72
    14
 73
    10
 74
     0
 42
0.000000001
 43
0.00000001
 40
0.0
 40
0.0
 40
0.0
 40
0.0
 40
1.0
 40
1.0
 40
1.0
 40
2.0
 40
2.0
 40
2.0
 40
3.0
 40
3.0
 40
3.0
 40
3.0
 10
164.5304220004079
 20
123.324381170005
 30
0.0
 10
163.6183799490348
 20
123.0347425967727
 30
0.0
 10
162.7595802824471
 20
122.6311653200997
 30
0.0
 10
161.9561526960361
 20
122.1445299231616
 30
0.0
 10
161.9561526960361
 20
122.1445299231616
 30
0.0
 10
167.3501386986403
 20
112.8015562410278
 30
0.0
 10
167.3501386986403
 20
112.8015562410278
 30
0.0
 10
167.3501386986403
 20
112.8015562410278
 30
0.0
 10
164.5304220004079
 20
123.324381170005
 30
0.0
 10
164.5304220004079
 20
123.324381170005
 30
0.0
  0
SPLINE
  5
79AA
330
1F
100
AcDbEntity
  8
レイヤー_1
 62
     7
370
    15
100
AcDbSpline
210
0.0
220
0.0
230
1.0
 70
    11
 71
     3
 72
    14
 73
    10
 74
     0
 42
0.000000001
 43
0.00000001
 40
0.0
 40
0.0
 40
0.0
 40
0.0
 40
1.0
 40
1.0
 40
1.0
 40
2.0
 40
2.0
 40
2.0
 40
3.0
 40
3.0
 40
3.0
 40
3.0
 10
157.5695126135708
 20
117.5561012023598
 30
0.0
 10
157.1334574821788
 20
116.7489466490138
 30
0.0
 10
156.7990953057267
 20
115.8821606247083
 30
0.0
 10
156.5547127595619
 20
114.9770400833573
 30
0.0
 10
156.5547127595619
 20
114.9770400833573
 30
0.0
 10
166.7847045722198
 20
112.2361221146074
 30
0.0
 10
166.7847045722198
 20
112.2361221146074
 30
0.0
 10
166.7847045722198
 20
112.2361221146074
 30
0.0
 10
157.5695126135708
 20
117.5561012023598
 30
0.0
 10
157.5695126135708
 20
117.5561012023598
 30
0.0
  0
SPLINE
  5
79AB
330
1F
100
AcDbEntity
  8
レイヤー_1
 62
     7
370
    15
100
AcDbSpline
210
0.0
220
0.0
230
1.0
 70
    11
 71
     3
 72
    14
 73
    10
 74
     0
 42
0.000000001
 43
0.00000001
 40
0.0
 40
0.0
 40
0.0
 40
0.0
 40
1.0
 40
1.0
 40
1.0
 40
2.0
 40
2.0
 40
2.0
 40
3.0
 40
3.0
 40
3.0
 40
3.0
 10
156.4870949308846
 20
114.712957854822
 30
0.0
 10
156.2709308486561
 20
113.8323288104723
 30
0.0
 10
156.1447463967148
 20
112.9176246398599
 30
0.0
 10
156.1340979197577
 20
111.9731047337677
 30
0.0
 10
156.1340979197577
 20
111.9731047337677
 30
0.0
 10
166.7138922004553
 20
111.9731047337677
 30
0.0
 10
166.7138922004553
 20
111.9731047337677
 30
0.0
 10
166.7138922004553
 20
111.9731047337677
 30
0.0
 10
156.4870949308846
 20
114.712957854822
 30
0.0
 10
156.4870949308846
 20
114.712957854822
 30
0.0
  0
SPLINE
  5
79AC
330
1F
100
AcDbEntity
  8
レイヤー_1
 62
     7
370
    15
100
AcDbSpline
210
0.0
220
0.0
230
1.0
 70
    11
 71
     3
 72
    14
 73
    10
 74
     0
 42
0.000000001
 43
0.00000001
 40
0.0
 40
0.0
 40
0.0
 40
0.0
 40
1.0
 40
1.0
 40
1.0
 40
2.0
 40
2.0
 40
2.0
 40
3.0
 40
3.0
 40
3.0
 40
3.0
 10
167.6131560794799
 20
123.8621292563372
 30
0.0
 10
166.63828801406
 20
123.8163408054217
 30
0.0
 10
165.6932356841201
 20
123.6630027372399
 30
0.0
 10
164.7923745335518
 20
123.3989205087045
 30
0.0
 10
164.7923745335518
 20
123.3989205087045
 30
0.0
 10
167.6131560794799
 20
112.8718361889445
 30
0.0
 10
167.6131560794799
 20
112.8718361889445
 30
0.0
 10
167.6131560794799
 20
112.8718361889445
 30
0.0
 10
167.6131560794799
 20
123.8621292563372
 30
0.0
 10
167.6131560794799
 20
123.8621292563372
 30
0.0
  0
SPLINE
  5
79AD
330
1F
100
AcDbEntity
  8
レイヤー_1
 62
     7
370
    15
100
AcDbSpline
210
0.0
220
0.0
230
1.0
 70
    11
 71
     3
 72
    14
 73
    10
 74
     0
 42
0.000000001
 43
0.00000001
 40
0.0
 40
0.0
 40
0.0
 40
0.0
 40
1.0
 40
1.0
 40
1.0
 40
2.0
 40
2.0
 40
2.0
 40
3.0
 40
3.0
 40
3.0
 40
3.0
 10
159.3605864377501
 20
120.0329369425745
 30
0.0
 10
158.7280669065001
 20
119.3524992650177
 30
0.0
 10
158.1716839854932
 20
118.6028464872399
 30
0.0
 10
157.7090076617084
 20
117.7903676954154
 30
0.0
 10
157.7090076617084
 20
117.7903676954154
 30
0.0
 10
166.9210050772703
 20
112.4725183030543
 30
0.0
 10
166.9210050772703
 20
112.4725183030543
 30
0.0
 10
166.9210050772703
 20
112.4725183030543
 30
0.0
 10
159.3605864377501
 20
120.0329369425745
 30
0.0
 10
159.3605864377501
 20
120.0329369425745
 30
0.0
  0
SPLINE
  5
79AE
330
1F
100
AcDbEntity
  8
レイヤー_1
 62
     7
370
    15
100
AcDbSpline
210
0.0
220
0.0
230
1.0
 70
    11
 71
     3
 72
    14
 73
    10
 74
     0
 42
0.000000001
 43
0.00000001
 40
0.0
 40
0.0
 40
0.0
 40
0.0
 40
1.0
 40
1.0
 40
1.0
 40
2.0
 40
2.0
 40
2.0
 40
3.0
 40
3.0
 40
3.0
 40
3.0
 10
176.3779174628448
 20
120.6580025399546
 30
0.0
 10
175.6591452682425
 20
121.3256620451628
 30
0.0
 10
174.8658337349407
 20
121.9134579731932
 30
0.0
 10
174.0001125583309
 20
122.3915745885657
 30
0.0
 10
174.0001125583309
 20
122.3915745885657
 30
0.0
 10
168.3851706588675
 20
112.666320583673
 30
0.0
 10
168.3851706588675
 20
112.666320583673
 30
0.0
 10
168.3851706588675
 20
112.666320583673
 30
0.0
 10
176.3779174628448
 20
120.6580025399546
 30
0.0
 10
176.3779174628448
 20
120.6580025399546
 30
0.0
  0
SPLINE
  5
79AF
330
1F
100
AcDbEntity
  8
レイヤー_1
 62
     7
370
    15
100
AcDbSpline
210
0.0
220
0.0
230
1.0
 70
    11
 71
     3
 72
    14
 73
    10
 74
     0
 42
0.000000001
 43
0.00000001
 40
0.0
 40
0.0
 40
0.0
 40
0.0
 40
1.0
 40
1.0
 40
1.0
 40
2.0
 40
2.0
 40
2.0
 40
3.0
 40
3.0
 40
3.0
 40
3.0
 10
179.7524198105405
 20
115.1942690132815
 30
0.0
 10
179.4723648665695
 20
116.1622155686793
 30
0.0
 10
179.0714497091358
 20
117.0769197392917
 30
0.0
 10
178.5715037160014
 20
117.9277330481616
 30
0.0
 10
178.5715037160014
 20
117.9277330481616
 30
0.0
 10
168.714208596841
 20
112.2371869623031
 30
0.0
 10
168.714208596841
 20
112.2371869623031
 30
0.0
 10
168.714208596841
 20
112.2371869623031
 30
0.0
 10
179.7524198105405
 20
115.1942690132815
 30
0.0
 10
179.7524198105405
 20
115.1942690132815
 30
0.0
  0
SPLINE
  5
79B0
330
1F
100
AcDbEntity
  8
レイヤー_1
 62
     7
370
    15
100
AcDbSpline
210
0.0
220
0.0
230
1.0
 70
    11
 71
     3
 72
    17
 73
    13
 74
     0
 42
0.000000001
 43
0.00000001
 40
0.0
 40
0.0
 40
0.0
 40
0.0
 40
1.0
 40
1.0
 40
1.0
 40
2.0
 40
2.0
 40
2.0
 40
3.0
 40
3.0
 40
3.0
 40
4.0
 40
4.0
 40
4.0
 40
4.0
 10
170.7619107156857
 20
123.6065658093674
 30
0.0
 10
169.9297322414906
 20
123.7886547653333
 30
0.0
 10
169.0682704556636
 20
123.8908801441212
 30
0.0
 10
168.1817847489875
 20
123.8908801441212
 30
0.0
 10
168.081689065591
 20
123.8908801441212
 30
0.0
 10
167.9853203491295
 20
123.8781019717727
 30
0.0
 10
167.8857570895809
 20
123.8759722763814
 30
0.0
 10
167.8857570895809
 20
123.8759722763814
 30
0.0
 10
167.8857570895809
 20
112.8718361889445
 30
0.0
 10
167.8857570895809
 20
112.8718361889445
 30
0.0
 10
167.8857570895809
 20
112.8718361889445
 30
0.0
 10
170.7619107156857
 20
123.6065658093674
 30
0.0
 10
170.7619107156857
 20
123.6065658093674
 30
0.0
  0
SPLINE
  5
79B1
330
1F
100
AcDbEntity
  8
レイヤー_1
 62
     7
370
    15
100
AcDbSpline
210
0.0
220
0.0
230
1.0
 70
    11
 71
     3
 72
    14
 73
    10
 74
     0
 42
0.000000001
 43
0.00000001
 40
0.0
 40
0.0
 40
0.0
 40
0.0
 40
1.0
 40
1.0
 40
1.0
 40
2.0
 40
2.0
 40
2.0
 40
3.0
 40
3.0
 40
3.0
 40
3.0
 10
180.2294715782173
 20
111.9731047337677
 30
0.0
 10
180.2182906774123
 20
112.9953585216465
 30
0.0
 10
180.0718741192526
 20
113.9846020309584
 30
0.0
 10
179.8205700630658
 20
114.9301867847462
 30
0.0
 10
179.8205700630658
 20
114.9301867847462
 30
0.0
 10
168.7834236970619
 20
111.9731047337677
 30
0.0
 10
168.7834236970619
 20
111.9731047337677
 30
0.0
 10
168.7834236970619
 20
111.9731047337677
 30
0.0
 10
180.2294715782173
 20
111.9731047337677
 30
0.0
 10
180.2294715782173
 20
111.9731047337677
 30
0.0
  0
SPLINE
  5
79B2
330
1F
100
AcDbEntity
  8
レイヤー_1
 62
     7
370
    15
100
AcDbSpline
210
0.0
220
0.0
230
1.0
 70
    11
 71
     3
 72
    14
 73
    10
 74
     0
 42
0.000000001
 43
0.00000001
 40
0.0
 40
0.0
 40
0.0
 40
0.0
 40
1.0
 40
1.0
 40
1.0
 40
2.0
 40
2.0
 40
2.0
 40
3.0
 40
3.0
 40
3.0
 40
3.0
 10
178.4298789724723
 20
118.1609346935215
 30
0.0
 10
177.9070387538802
 20
119.0064237639129
 30
0.0
 10
177.2888946665222
 20
119.7848274294748
 30
0.0
 10
176.5797061011813
 20
120.474848736293
 30
0.0
 10
176.5797061011813
 20
120.474848736293
 30
0.0
 10
168.5779080917904
 20
112.47358315075
 30
0.0
 10
168.5779080917904
 20
112.47358315075
 30
0.0
 10
168.5779080917904
 20
112.47358315075
 30
0.0
 10
178.4298789724723
 20
118.1609346935215
 30
0.0
 10
178.4298789724723
 20
118.1609346935215
 30
0.0
  0
SPLINE
  5
79B3
330
1F
100
AcDbEntity
  8
レイヤー_1
 62
     7
370
    15
100
AcDbSpline
210
0.0
220
0.0
230
1.0
 70
    11
 71
     3
 72
    14
 73
    10
 74
     0
 42
0.000000001
 43
0.00000001
 40
0.0
 40
0.0
 40
0.0
 40
0.0
 40
1.0
 40
1.0
 40
1.0
 40
2.0
 40
2.0
 40
2.0
 40
3.0
 40
3.0
 40
3.0
 40
3.0
 10
156.1340979197577
 20
111.7005037236666
 30
0.0
 10
156.1447463967148
 20
110.7549189698788
 30
0.0
 10
156.2709308486561
 20
109.8402147992665
 30
0.0
 10
156.4870949308846
 20
108.9595857549167
 30
0.0
 10
156.4870949308846
 20
108.9595857549167
 30
0.0
 10
166.7144246243031
 20
111.7005037236666
 30
0.0
 10
166.7144246243031
 20
111.7005037236666
 30
0.0
 10
166.7144246243031
 20
111.7005037236666
 30
0.0
 10
156.1340979197577
 20
111.7005037236666
 30
0.0
 10
156.1340979197577
 20
111.7005037236666
 30
0.0
  0
SPLINE
  5
79B4
330
1F
100
AcDbEntity
  8
レイヤー_1
 62
     7
370
    15
100
AcDbSpline
210
0.0
220
0.0
230
1.0
 70
    11
 71
     3
 72
    14
 73
    10
 74
     0
 42
0.000000001
 43
0.00000001
 40
0.0
 40
0.0
 40
0.0
 40
0.0
 40
1.0
 40
1.0
 40
1.0
 40
2.0
 40
2.0
 40
2.0
 40
3.0
 40
3.0
 40
3.0
 40
3.0
 10
173.7578597075575
 20
122.5172266166591
 30
0.0
 10
172.9027870079048
 20
122.964462648856
 30
0.0
 10
171.985953141901
 20
123.3062787591781
 30
0.0
 10
171.0254605203732
 20
123.5394804045379
 30
0.0
 10
171.0254605203732
 20
123.5394804045379
 30
0.0
 10
168.1487744704205
 20
112.8015562410278
 30
0.0
 10
168.1487744704205
 20
112.8015562410278
 30
0.0
 10
168.1487744704205
 20
112.8015562410278
 30
0.0
 10
173.7578597075575
 20
122.5172266166591
 30
0.0
 10
173.7578597075575
 20
122.5172266166591
 30
0.0
  0
SPLINE
  5
79B5
330
1F
100
AcDbEntity
  8
レイヤー_1
 62
     7
370
    15
100
AcDbSpline
210
0.0
220
0.0
230
1.0
 70
    11
 71
     3
 72
    17
 73
    13
 74
     0
 42
0.000000001
 43
0.00000001
 40
0.0
 40
0.0
 40
0.0
 40
0.0
 40
1.0
 40
1.0
 40
1.0
 40
2.0
 40
2.0
 40
2.0
 40
3.0
 40
3.0
 40
3.0
 40
4.0
 40
4.0
 40
4.0
 40
4.0
 10
167.8857570895809
 20
99.79657133335738
 30
0.0
 10
167.9853203491295
 20
99.79444163796595
 30
0.0
 10
168.081689065591
 20
99.78166346561747
 30
0.0
 10
168.1817847489875
 20
99.78166346561747
 30
0.0
 10
169.0688028795115
 20
99.78166346561747
 30
0.0
 10
169.9302646653385
 20
99.88388884440528
 30
0.0
 10
170.7624431395336
 20
100.0649129526755
 30
0.0
 10
170.7624431395336
 20
100.0649129526755
 30
0.0
 10
167.8857570895809
 20
110.8017722684899
 30
0.0
 10
167.8857570895809
 20
110.8017722684899
 30
0.0
 10
167.8857570895809
 20
110.8017722684899
 30
0.0
 10
167.8857570895809
 20
99.79657133335738
 30
0.0
 10
167.8857570895809
 20
99.79657133335738
 30
0.0
  0
SPLINE
  5
79B6
330
1F
100
AcDbEntity
  8
レイヤー_1
 62
     7
370
    15
100
AcDbSpline
210
0.0
220
0.0
230
1.0
 70
    11
 71
     3
 72
    14
 73
    10
 74
     0
 42
0.000000001
 43
0.00000001
 40
0.0
 40
0.0
 40
0.0
 40
0.0
 40
1.0
 40
1.0
 40
1.0
 40
2.0
 40
2.0
 40
2.0
 40
3.0
 40
3.0
 40
3.0
 40
3.0
 10
174.0011774060266
 20
101.280969021173
 30
0.0
 10
174.8663661587886
 20
101.7590856365454
 30
0.0
 10
175.6596776920904
 20
102.3468815645758
 30
0.0
 10
176.3784498866926
 20
103.0145410697841
 30
0.0
 10
176.3784498866926
 20
103.0145410697841
 30
0.0
 10
168.3857030827153
 20
111.0072878737613
 30
0.0
 10
168.3857030827153
 20
111.0072878737613
 30
0.0
 10
168.3857030827153
 20
111.0072878737613
 30
0.0
 10
174.0011774060266
 20
101.280969021173
 30
0.0
 10
174.0011774060266
 20
101.280969021173
 30
0.0
  0
SPLINE
  5
79B7
330
1F
100
AcDbEntity
  8
レイヤー_1
 62
     7
370
    15
100
AcDbSpline
210
0.0
220
0.0
230
1.0
 70
    11
 71
     3
 72
    14
 73
    10
 74
     0
 42
0.000000001
 43
0.00000001
 40
0.0
 40
0.0
 40
0.0
 40
0.0
 40
1.0
 40
1.0
 40
1.0
 40
2.0
 40
2.0
 40
2.0
 40
3.0
 40
3.0
 40
3.0
 40
3.0
 10
171.0265253680689
 20
100.1330632052007
 30
0.0
 10
171.9870179895967
 20
100.3662648505606
 30
0.0
 10
172.9038518556005
 20
100.7080809608826
 30
0.0
 10
173.7589245552533
 20
101.1553169930796
 30
0.0
 10
173.7589245552533
 20
101.1553169930796
 30
0.0
 10
168.1487744704205
 20
110.8731170641023
 30
0.0
 10
168.1487744704205
 20
110.8731170641023
 30
0.0
 10
168.1487744704205
 20
110.8731170641023
 30
0.0
 10
171.0265253680689
 20
100.1330632052007
 30
0.0
 10
171.0265253680689
 20
100.1330632052007
 30
0.0
  0
SPLINE
  5
79B8
330
1F
100
AcDbEntity
  8
レイヤー_1
 62
     7
370
    15
100
AcDbSpline
210
0.0
220
0.0
230
1.0
 70
    11
 71
     3
 72
    14
 73
    10
 74
     0
 42
0.000000001
 43
0.00000001
 40
0.0
 40
0.0
 40
0.0
 40
0.0
 40
1.0
 40
1.0
 40
1.0
 40
2.0
 40
2.0
 40
2.0
 40
3.0
 40
3.0
 40
3.0
 40
3.0
 10
176.5802385250291
 20
103.1987597211414
 30
0.0
 10
177.2894270903701
 20
103.8877161802639
 30
0.0
 10
177.907571177728
 20
104.6671846935214
 30
0.0
 10
178.4304113963202
 20
105.5126737639128
 30
0.0
 10
178.4304113963202
 20
105.5126737639128
 30
0.0
 10
168.5784405156383
 20
111.20109015438
 30
0.0
 10
168.5784405156383
 20
111.20109015438
 30
0.0
 10
168.5784405156383
 20
111.20109015438
 30
0.0
 10
176.5802385250291
 20
103.1987597211414
 30
0.0
 10
176.5802385250291
 20
103.1987597211414
 30
0.0
  0
SPLINE
  5
79B9
330
1F
100
AcDbEntity
  8
レイヤー_1
 62
     7
370
    15
100
AcDbSpline
210
0.0
220
0.0
230
1.0
 70
    11
 71
     3
 72
    14
 73
    10
 74
     0
 42
0.000000001
 43
0.00000001
 40
0.0
 40
0.0
 40
0.0
 40
0.0
 40
1.0
 40
1.0
 40
1.0
 40
2.0
 40
2.0
 40
2.0
 40
3.0
 40
3.0
 40
3.0
 40
3.0
 10
178.5720361398492
 20
105.7458754092728
 30
0.0
 10
179.0719821329837
 20
106.5966887181426
 30
0.0
 10
179.4723648665695
 20
107.511392888755
 30
0.0
 10
179.7529522343884
 20
108.4793394441528
 30
0.0
 10
179.7529522343884
 20
108.4793394441528
 30
0.0
 10
168.7136761729932
 20
111.437486342827
 30
0.0
 10
168.7136761729932
 20
111.437486342827
 30
0.0
 10
168.7136761729932
 20
111.437486342827
 30
0.0
 10
178.5720361398492
 20
105.7458754092728
 30
0.0
 10
178.5720361398492
 20
105.7458754092728
 30
0.0
  0
SPLINE
  5
79BA
330
1F
100
AcDbEntity
  8
レイヤー_1
 62
     7
370
    15
100
AcDbSpline
210
0.0
220
0.0
230
1.0
 70
    11
 71
     3
 72
    14
 73
    10
 74
     0
 42
0.000000001
 43
0.00000001
 40
0.0
 40
0.0
 40
0.0
 40
0.0
 40
1.0
 40
1.0
 40
1.0
 40
2.0
 40
2.0
 40
2.0
 40
3.0
 40
3.0
 40
3.0
 40
3.0
 10
164.7923745335518
 20
100.2736231010341
 30
0.0
 10
165.6932356841201
 20
100.0095408724987
 30
0.0
 10
166.63828801406
 20
99.8562028043169
 30
0.0
 10
167.6131560794799
 20
99.81041435340146
 30
0.0
 10
167.6131560794799
 20
99.81041435340146
 30
0.0
 10
167.6131560794799
 20
110.8028371161856
 30
0.0
 10
167.6131560794799
 20
110.8028371161856
 30
0.0
 10
167.6131560794799
 20
110.8028371161856
 30
0.0
 10
164.7923745335518
 20
100.2736231010341
 30
0.0
 10
164.7923745335518
 20
100.2736231010341
 30
0.0
  0
SPLINE
  5
79BB
330
1F
100
AcDbEntity
  8
レイヤー_1
 62
     7
370
    15
100
AcDbSpline
210
0.0
220
0.0
230
1.0
 70
    11
 71
     3
 72
    14
 73
    10
 74
     0
 42
0.000000001
 43
0.00000001
 40
0.0
 40
0.0
 40
0.0
 40
0.0
 40
1.0
 40
1.0
 40
1.0
 40
2.0
 40
2.0
 40
2.0
 40
3.0
 40
3.0
 40
3.0
 40
3.0
 10
156.5547127595619
 20
108.6955035263813
 30
0.0
 10
156.7985628818789
 20
107.791447832726
 30
0.0
 10
157.1334574821788
 20
106.9235969607248
 30
0.0
 10
157.5695126135708
 20
106.1164424073788
 30
0.0
 10
157.5695126135708
 20
106.1164424073788
 30
0.0
 10
166.7852369960676
 20
111.437486342827
 30
0.0
 10
166.7852369960676
 20
111.437486342827
 30
0.0
 10
166.7852369960676
 20
111.437486342827
 30
0.0
 10
156.5547127595619
 20
108.6955035263813
 30
0.0
 10
156.5547127595619
 20
108.6955035263813
 30
0.0
  0
SPLINE
  5
79BC
330
1F
100
AcDbEntity
  8
レイヤー_1
 62
     7
370
    15
100
AcDbSpline
210
0.0
220
0.0
230
1.0
 70
    11
 71
     3
 72
    14
 73
    10
 74
     0
 42
0.000000001
 43
0.00000001
 40
0.0
 40
0.0
 40
0.0
 40
0.0
 40
1.0
 40
1.0
 40
1.0
 40
2.0
 40
2.0
 40
2.0
 40
3.0
 40
3.0
 40
3.0
 40
3.0
 10
157.7090076617084
 20
105.8821759143233
 30
0.0
 10
158.1716839854932
 20
105.0696971224987
 30
0.0
 10
158.7280669065001
 20
104.3200443447209
 30
0.0
 10
159.3605864377501
 20
103.6396066671642
 30
0.0
 10
159.3605864377501
 20
103.6396066671642
 30
0.0
 10
166.9204726534225
 20
111.20109015438
 30
0.0
 10
166.9204726534225
 20
111.20109015438
 30
0.0
 10
166.9204726534225
 20
111.20109015438
 30
0.0
 10
157.7090076617084
 20
105.8821759143233
 30
0.0
 10
157.7090076617084
 20
105.8821759143233
 30
0.0
  0
SPLINE
  5
79BD
330
1F
100
AcDbEntity
  8
レイヤー_1
 62
     7
370
    15
100
AcDbSpline
210
0.0
220
0.0
230
1.0
 70
    11
 71
     3
 72
    14
 73
    10
 74
     0
 42
0.000000001
 43
0.00000001
 40
0.0
 40
0.0
 40
0.0
 40
0.0
 40
1.0
 40
1.0
 40
1.0
 40
2.0
 40
2.0
 40
2.0
 40
3.0
 40
3.0
 40
3.0
 40
3.0
 10
159.5437402414117
 20
103.4383504526755
 30
0.0
 10
160.197024302728
 20
102.7664315566843
 30
0.0
 10
160.9285746696788
 20
102.1754410855669
 30
0.0
 10
161.7224186268284
 20
101.6696384301061
 30
0.0
 10
161.7224186268284
 20
101.6696384301061
 30
0.0
 10
167.1132100863454
 20
111.008352721457
 30
0.0
 10
167.1132100863454
 20
111.008352721457
 30
0.0
 10
167.1132100863454
 20
111.008352721457
 30
0.0
 10
159.5437402414117
 20
103.4383504526755
 30
0.0
 10
159.5437402414117
 20
103.4383504526755
 30
0.0
  0
SPLINE
  5
79BE
330
1F
100
AcDbEntity
  8
レイヤー_1
 62
     7
370
    15
100
AcDbSpline
210
0.0
220
0.0
230
1.0
 70
    11
 71
     3
 72
    14
 73
    10
 74
     0
 42
0.000000001
 43
0.00000001
 40
0.0
 40
0.0
 40
0.0
 40
0.0
 40
1.0
 40
1.0
 40
1.0
 40
2.0
 40
2.0
 40
2.0
 40
3.0
 40
3.0
 40
3.0
 40
3.0
 10
161.9556202721882
 20
101.5280136865771
 30
0.0
 10
162.7595802824471
 20
101.0413782896389
 30
0.0
 10
163.6183799490348
 20
100.6378010129659
 30
0.0
 10
164.5304220004079
 20
100.3481624397336
 30
0.0
 10
164.5304220004079
 20
100.3481624397336
 30
0.0
 10
167.3501386986403
 20
110.8720522164066
 30
0.0
 10
167.3501386986403
 20
110.8720522164066
 30
0.0
 10
167.3501386986403
 20
110.8720522164066
 30
0.0
 10
161.9556202721882
 20
101.5280136865771
 30
0.0
 10
161.9556202721882
 20
101.5280136865771
 30
0.0
  0
LINE
  5
79BF
330
1F
100
AcDbEntity
  8
レイヤー_1
 62
     7
370
    15
100
AcDbLine
 10
265.5369239257157
 20
239.2688124741511
 30
0.0
 11
273.5821465391422
 21
197.1714194665976
 31
0.0
  0
LINE
  5
79C0
330
1F
100
AcDbEntity
  8
レイヤー_1
 62
     7
370
    15
100
AcDbLine
 10
241.4433448586254
 20
197.2451204493276
 30
0.0
 11
249.5369239257157
 21
239.2688124741511
 31
0.0
  0
LINE
  5
79C1
330
1F
100
AcDbEntity
  8
レイヤー_1
 62
     7
370
    15
100
AcDbLine
 10
273.5821465391422
 20
197.1714194665976
 30
0.0
 11
241.4433448586254
 21
197.2451204493276
 31
0.0
  0
LINE
  5
79C2
330
1F
100
AcDbEntity
  8
レイヤー_1
 62
     7
370
    15
100
AcDbLine
 10
241.256613947699
 20
192.3209077420086
 30
0.0
 11
273.7605783336471
 21
192.3102989309259
 31
0.0
  0
LINE
  5
79C3
330
1F
100
AcDbEntity
  8
レイヤー_1
 62
     7
370
    15
100
AcDbLine
 10
182.4035731060728
 20
197.2082699579625
 30
0.0
 11
170.2017727599171
 21
197.2451204493276
 31
0.0
  0
LINE
  5
79C4
330
1F
100
AcDbEntity
  8
レイヤー_1
 62
     7
370
    15
100
AcDbLine
 10
166.1889257599171
 20
197.2451204493276
 30
0.0
 11
153.9871254137613
 21
197.2819709406925
 31
0.0
  0
SPLINE
  5
79C5
330
1F
100
AcDbEntity
  8
レイヤー_1
 62
     7
370
    15
100
AcDbSpline
210
0.0
220
0.0
230
1.0
 70
     8
 71
     3
 72
    14
 73
    10
 74
     0
 42
0.000000001
 43
0.00000001
 40
0.0
 40
0.0
 40
0.0
 40
0.0
 40
1.0
 40
1.0
 40
1.0
 40
2.0
 40
2.0
 40
2.0
 40
3.0
 40
3.0
 40
3.0
 40
3.0
 10
166.2016723909935
 20
239.2688124741511
 30
0.0
 10
166.2016723909935
 20
239.2688124741511
 30
0.0
 10
166.2016723909935
 20
192.8573089238663
 30
0.0
 10
166.2016723909935
 20
192.8573089238663
 30
0.0
 10
166.2016723909935
 20
192.6175302780329
 30
0.0
 10
165.9457017963754
 20
192.3209075566787
 30
0.0
 10
165.7252156852643
 20
192.3209075566787
 30
0.0
 10
165.7252156852643
 20
192.3209075566787
 30
0.0
 10
153.4329113123574
 20
192.3577582333736
 30
0.0
 10
153.4329113123574
 20
192.3577582333736
 30
0.0
  0
SPLINE
  5
79C6
330
1F
100
AcDbEntity
  8
レイヤー_1
 62
     7
370
    15
100
AcDbSpline
210
0.0
220
0.0
230
1.0
 70
     8
 71
     3
 72
    14
 73
    10
 74
     0
 42
0.000000001
 43
0.00000001
 40
0.0
 40
0.0
 40
0.0
 40
0.0
 40
1.0
 40
1.0
 40
1.0
 40
2.0
 40
2.0
 40
2.0
 40
3.0
 40
3.0
 40
3.0
 40
3.0
 10
170.2017727599171
 20
239.2688124741511
 30
0.0
 10
170.2017727599171
 20
239.2688124741511
 30
0.0
 10
170.2017727599171
 20
192.8573089238663
 30
0.0
 10
170.2017727599171
 20
192.8573089238663
 30
0.0
 10
170.2017727599171
 20
192.6175302780329
 30
0.0
 10
170.4002102599171
 20
192.3209075566787
 30
0.0
 10
170.6644490837018
 20
192.3209075566787
 30
0.0
 10
170.6644490837018
 20
192.3209075566787
 30
0.0
 10
182.9447796607112
 20
192.3471494222908
 30
0.0
 10
182.9447796607112
 20
192.3471494222908
 30
0.0
  0
LINE
  5
79C7
330
1F
100
AcDbEntity
  8
レイヤー_1
 62
     7
370
    15
100
AcDbLine
 10
240.4962190911194
 20
172.2688124741511
 30
0.0
 11
243.0369239257157
 21
239.2688124741511
 31
0.0
  0
LINE
  5
79C8
330
1F
100
AcDbEntity
  8
レイヤー_1
 62
     7
370
    15
100
AcDbLine
 10
243.0369239257157
 20
239.2688124741511
 30
0.0
 11
272.0369239257157
 21
239.2688124741511
 31
0.0
  0
LINE
  5
79C9
330
1F
100
AcDbEntity
  8
レイヤー_1
 62
     7
370
    15
100
AcDbLine
 10
272.0369239257157
 20
239.2688124741511
 30
0.0
 11
274.4962190911194
 21
172.2688124741511
 31
0.0
  0
LINE
  5
79CA
330
1F
100
AcDbEntity
  8
レイヤー_1
 62
     7
370
    15
100
AcDbLine
 10
274.4962190911194
 20
169.2688124741511
 30
0.0
 11
240.4962190911194
 21
169.2688124741511
 31
0.0
  0
LINE
  5
79CB
330
1F
100
AcDbEntity
  8
レイヤー_1
 62
     7
370
    15
100
AcDbLine
 10
240.4962190911194
 20
169.2688124741511
 30
0.0
 11
240.4962190911194
 21
172.2688124741511
 31
0.0
  0
LINE
  5
79CC
330
1F
100
AcDbEntity
  8
レイヤー_1
 62
     7
370
    15
100
AcDbLine
 10
240.4962190911194
 20
172.2688124741511
 30
0.0
 11
274.4962190911194
 21
172.2688124741511
 31
0.0
  0
LINE
  5
79CD
330
1F
100
AcDbEntity
  8
レイヤー_1
 62
     7
370
    15
100
AcDbLine
 10
274.4962190911194
 20
172.2688124741511
 30
0.0
 11
274.4962190911194
 21
169.2688124741511
 31
0.0
  0
LINE
  5
79CE
330
1F
100
AcDbEntity
  8
レイヤー_1
 62
     7
370
    15
100
AcDbLine
 10
179.2017404257157
 20
169.2688124741511
 30
0.0
 11
157.2017054257157
 21
169.2688124741511
 31
0.0
  0
LINE
  5
79CF
330
1F
100
AcDbEntity
  8
レイヤー_1
 62
     7
100
AcDbLine
 10
151.2017229257157
 20
169.2688124741511
 30
0.0
 11
151.2017229257157
 21
172.2688124741511
 31
0.0
  0
LINE
  5
79D0
330
1F
100
AcDbEntity
  8
レイヤー_1
 62
     7
370
    15
100
AcDbLine
 10
185.2017229257157
 20
172.2688124741511
 30
0.0
 11
185.2017229257157
 21
169.2688124741511
 31
0.0
  0
LINE
  5
79D1
330
1F
100
AcDbEntity
  8
レイヤー_1
 62
     7
370
    15
100
AcDbLine
 10
182.9447796607112
 20
192.3471494222908
 30
0.0
 11
182.4035731060728
 21
197.2082699579625
 31
0.0
  0
LINE
  5
79D2
330
1F
100
AcDbEntity
  8
レイヤー_1
 62
     7
370
    15
100
AcDbLine
 10
182.4035731060728
 20
197.2082699579625
 30
0.0
 11
176.1803629257157
 21
239.2688124741511
 31
0.0
  0
LINE
  5
79D3
330
1F
100
AcDbEntity
  8
レイヤー_1
 62
     7
370
    15
100
AcDbLine
 10
175.1802804257157
 20
239.2688124741511
 30
0.0
 11
161.1804454257157
 21
239.2688124741511
 31
0.0
  0
LINE
  5
79D4
330
1F
100
AcDbEntity
  8
レイヤー_1
 62
     7
370
    15
100
AcDbLine
 10
160.1803629257157
 20
239.2688124741511
 30
0.0
 11
153.9871254137613
 21
197.2819709406925
 31
0.0
  0
LINE
  5
79D5
330
1F
100
AcDbEntity
  8
レイヤー_1
 62
     7
370
    15
100
AcDbLine
 10
153.9871254137613
 20
197.2819709406925
 30
0.0
 11
153.4329113123574
 21
192.3577582333736
 31
0.0
  0
LINE
  5
79D6
330
1F
100
AcDbEntity
  8
レイヤー_1
 62
     7
370
    15
100
AcDbLine
 10
153.4329113123574
 20
192.3577582333736
 30
0.0
 11
151.2017229257157
 21
172.2688124741511
 31
0.0
  0
LINE
  5
79D7
330
1F
100
AcDbEntity
  8
レイヤー_1
 62
     7
370
    15
100
AcDbLine
 10
157.2017054257157
 20
172.2688124741511
 30
0.0
 11
179.2017404257157
 21
172.2688124741511
 31
0.0
  0
LINE
  5
79D8
330
1F
100
AcDbEntity
  8
レイヤー_1
 62
     7
370
    15
100
AcDbLine
 10
185.2017229257157
 20
172.2688124741511
 30
0.0
 11
182.9447796607112
 21
192.3471494222908
 31
0.0
  0
LINE
  5
79D9
330
1F
100
AcDbEntity
  8
レイヤー_1
 62
     7
370
    15
100
AcDbLine
 10
170.5116721075339
 20
127.5060381756868
 30
0.0
 11
170.8859657438975
 21
127.4261737211415
 31
0.0
  0
LINE
  5
79DA
330
1F
100
AcDbEntity
  8
レイヤー_1
 62
     7
370
    15
100
AcDbLine
 10
170.8859657438975
 20
127.4261737211415
 30
0.0
 11
171.6553177438975
 21
125.1474009938687
 31
0.0
  0
LINE
  5
79DB
330
1F
100
AcDbEntity
  8
レイヤー_1
 62
     7
370
    15
100
AcDbLine
 10
171.6553177438975
 20
125.1474009938687
 30
0.0
 11
172.0855166529884
 21
127.1716759938687
 31
0.0
  0
LINE
  5
79DC
330
1F
100
AcDbEntity
  8
レイヤー_1
 62
     7
370
    15
100
AcDbLine
 10
172.0855166529884
 20
127.1716759938687
 30
0.0
 11
172.4299953802611
 21
127.0982019938687
 31
0.0
  0
LINE
  5
79DD
330
1F
100
AcDbEntity
  8
レイヤー_1
 62
     7
370
    15
100
AcDbLine
 10
172.4299953802611
 20
127.0982019938687
 30
0.0
 11
171.8853246529885
 21
124.5340487211414
 31
0.0
  0
LINE
  5
79DE
330
1F
100
AcDbEntity
  8
レイヤー_1
 62
     7
370
    15
100
AcDbLine
 10
171.8853246529885
 20
124.5340487211414
 30
0.0
 11
171.509966198443
 21
124.6139116302323
 31
0.0
  0
LINE
  5
79DF
330
1F
100
AcDbEntity
  8
レイヤー_1
 62
     7
370
    15
100
AcDbLine
 10
171.509966198443
 20
124.6139116302323
 30
0.0
 11
170.7411458348066
 21
126.8926859029596
 31
0.0
  0
LINE
  5
79E0
330
1F
100
AcDbEntity
  8
レイヤー_1
 62
     7
370
    15
100
AcDbLine
 10
170.7411458348066
 20
126.8926859029596
 30
0.0
 11
170.3109484711702
 21
124.8684109029597
 31
0.0
  0
LINE
  5
79E1
330
1F
100
AcDbEntity
  8
レイヤー_1
 62
     7
370
    15
100
AcDbLine
 10
170.3109484711702
 20
124.8684109029597
 30
0.0
 11
169.9664697438975
 21
124.9418849029596
 31
0.0
  0
LINE
  5
79E2
330
1F
100
AcDbEntity
  8
レイヤー_1
 62
     7
370
    15
100
AcDbLine
 10
169.9664697438975
 20
124.9418849029596
 30
0.0
 11
170.5116721075339
 21
127.5060381756868
 31
0.0
  0
SPLINE
  5
79E3
330
1F
100
AcDbEntity
  8
レイヤー_1
 62
     7
370
    15
100
AcDbSpline
210
0.0
220
0.0
230
1.0
 70
     8
 71
     3
 72
     8
 73
     4
 74
     0
 42
0.000000001
 43
0.00000001
 40
0.0
 40
0.0
 40
0.0
 40
0.0
 40
1.0
 40
1.0
 40
1.0
 40
1.0
 10
174.1018055132709
 20
125.9918246477513
 30
0.0
 10
173.8728632586939
 20
125.9034422890075
 30
0.0
 10
173.683320368858
 20
125.6915375975619
 30
0.0
 10
173.5331768437633
 20
125.3561105734142
 30
0.0
  0
SPLINE
  5
79E4
330
1F
100
AcDbEntity
  8
レイヤー_1
 62
     7
370
    15
100
AcDbSpline
210
0.0
220
0.0
230
1.0
 70
     8
 71
     3
 72
     8
 73
     4
 74
     0
 42
0.000000001
 43
0.00000001
 40
1.0
 40
1.0
 40
1.0
 40
1.0
 40
2.0
 40
2.0
 40
2.0
 40
2.0
 10
173.5331768437633
 20
125.3561105734142
 30
0.0
 10
173.3835657425165
 20
125.0196187015707
 30
0.0
 10
173.3532175831888
 20
124.7374340622084
 30
0.0
 10
173.4410675180847
 20
124.5074269599356
 30
0.0
  0
SPLINE
  5
79E5
330
1F
100
AcDbEntity
  8
レイヤー_1
 62
     7
370
    15
100
AcDbSpline
210
0.0
220
0.0
230
1.0
 70
     8
 71
     3
 72
     8
 73
     4
 74
     0
 42
0.000000001
 43
0.00000001
 40
2.0
 40
2.0
 40
2.0
 40
2.0
 40
3.0
 40
3.0
 40
3.0
 40
3.0
 10
173.4410675180847
 20
124.5074269599356
 30
0.0
 10
173.5188013998713
 20
124.3051058977513
 30
0.0
 10
173.6465831233562
 20
124.164546001918
 30
0.0
 10
173.8238802646914
 20
124.0857472724356
 30
0.0
  0
SPLINE
  5
79E6
330
1F
100
AcDbEntity
  8
レイヤー_1
 62
     7
370
    15
100
AcDbSpline
210
0.0
220
0.0
230
1.0
 70
     8
 71
     3
 72
     8
 73
     4
 74
     0
 42
0.000000001
 43
0.00000001
 40
3.0
 40
3.0
 40
3.0
 40
3.0
 40
4.0
 40
4.0
 40
4.0
 40
4.0
 10
173.8238802646914
 20
124.0857472724356
 30
0.0
 10
174.0017098298745
 20
124.0069485429533
 30
0.0
 10
174.1912527197103
 20
124.0069485429533
 30
0.0
 10
174.3935737818946
 20
124.0836175770442
 30
0.0
  0
SPLINE
  5
79E7
330
1F
100
AcDbEntity
  8
レイヤー_1
 62
     7
370
    15
100
AcDbSpline
210
0.0
220
0.0
230
1.0
 70
     8
 71
     3
 72
     8
 73
     4
 74
     0
 42
0.000000001
 43
0.00000001
 40
4.0
 40
4.0
 40
4.0
 40
4.0
 40
5.0
 40
5.0
 40
5.0
 40
5.0
 10
174.3935737818946
 20
124.0836175770442
 30
0.0
 10
174.6230484603195
 20
124.1719999357879
 30
0.0
 10
174.8120589263075
 20
124.3839046272336
 30
0.0
 10
174.9622024514022
 20
124.7203964990771
 30
0.0
  0
SPLINE
  5
79E8
330
1F
100
AcDbEntity
  8
レイヤー_1
 62
     7
370
    15
100
AcDbSpline
210
0.0
220
0.0
230
1.0
 70
     8
 71
     3
 72
     8
 73
     4
 74
     0
 42
0.000000001
 43
0.00000001
 40
5.0
 40
5.0
 40
5.0
 40
5.0
 40
6.0
 40
6.0
 40
6.0
 40
6.0
 10
174.9622024514022
 20
124.7203964990771
 30
0.0
 10
175.111813552649
 20
125.0558235232248
 30
0.0
 10
175.1421617119767
 20
125.3380081625871
 30
0.0
 10
175.0543117770809
 20
125.5680152648599
 30
0.0
  0
SPLINE
  5
79E9
330
1F
100
AcDbEntity
  8
レイヤー_1
 62
     7
370
    15
100
AcDbSpline
210
0.0
220
0.0
230
1.0
 70
     8
 71
     3
 72
     8
 73
     4
 74
     0
 42
0.000000001
 43
0.00000001
 40
6.0
 40
6.0
 40
6.0
 40
6.0
 40
7.0
 40
7.0
 40
7.0
 40
7.0
 10
175.0543117770809
 20
125.5680152648599
 30
0.0
 10
174.9765778952943
 20
125.7703363270442
 30
0.0
 10
174.8493285956573
 20
125.9108962228775
 30
0.0
 10
174.6714990304742
 20
125.9896949523598
 30
0.0
  0
SPLINE
  5
79EA
330
1F
100
AcDbEntity
  8
レイヤー_1
 62
     7
370
    15
100
AcDbSpline
210
0.0
220
0.0
230
1.0
 70
     8
 71
     3
 72
     8
 73
     4
 74
     0
 42
0.000000001
 43
0.00000001
 40
7.0
 40
7.0
 40
7.0
 40
7.0
 40
8.0
 40
8.0
 40
8.0
 40
8.0
 10
174.6714990304742
 20
125.9896949523598
 30
0.0
 10
174.494201889139
 20
126.0684936818421
 30
0.0
 10
174.3041265754553
 20
126.0695585295378
 30
0.0
 10
174.1018055132709
 20
125.9918246477513
 30
0.0
  0
SPLINE
  5
79EB
330
1F
100
AcDbEntity
  8
レイヤー_1
 62
     7
370
    15
100
AcDbSpline
210
0.0
220
0.0
230
1.0
 70
     8
 71
     3
 72
     8
 73
     4
 74
     0
 42
0.000000001
 43
0.00000001
 40
0.0
 40
0.0
 40
0.0
 40
0.0
 40
1.0
 40
1.0
 40
1.0
 40
1.0
 10
173.9447404781541
 20
126.2803983732879
 30
0.0
 10
174.2285223890601
 20
126.38901283825
 30
0.0
 10
174.5096421807268
 20
126.3804940566843
 30
0.0
 10
174.7902295485455
 20
126.2559068762866
 30
0.0
  0
SPLINE
  5
79EC
330
1F
100
AcDbEntity
  8
レイヤー_1
 62
     7
370
    15
100
AcDbSpline
210
0.0
220
0.0
230
1.0
 70
     8
 71
     3
 72
     8
 73
     4
 74
     0
 42
0.000000001
 43
0.00000001
 40
1.0
 40
1.0
 40
1.0
 40
1.0
 40
2.0
 40
2.0
 40
2.0
 40
2.0
 10
174.7902295485455
 20
126.2559068762866
 30
0.0
 10
175.0697520686686
 20
126.1313196958889
 30
0.0
 10
175.264619196983
 20
125.9268689383132
 30
0.0
 10
175.3732336619452
 20
125.643619451255
 30
0.0
  0
SPLINE
  5
79ED
330
1F
100
AcDbEntity
  8
レイヤー_1
 62
     7
370
    15
100
AcDbSpline
210
0.0
220
0.0
230
1.0
 70
     8
 71
     3
 72
     8
 73
     4
 74
     0
 42
0.000000001
 43
0.00000001
 40
2.0
 40
2.0
 40
2.0
 40
2.0
 40
3.0
 40
3.0
 40
3.0
 40
3.0
 10
175.3732336619452
 20
125.643619451255
 30
0.0
 10
175.4978208423429
 20
125.3199057517602
 30
0.0
 10
175.4722644976459
 20
124.9621169260025
 30
0.0
 10
175.2981618993978
 20
124.5702529739824
 30
0.0
  0
SPLINE
  5
79EE
330
1F
100
AcDbEntity
  8
レイヤー_1
 62
     7
370
    15
100
AcDbSpline
210
0.0
220
0.0
230
1.0
 70
     8
 71
     3
 72
     8
 73
     4
 74
     0
 42
0.000000001
 43
0.00000001
 40
3.0
 40
3.0
 40
3.0
 40
3.0
 40
4.0
 40
4.0
 40
4.0
 40
4.0
 10
175.2981618993978
 20
124.5702529739824
 30
0.0
 10
175.1235268773019
 20
124.1783890219621
 30
0.0
 10
174.8738200926585
 20
123.9196310319053
 30
0.0
 10
174.5506388170115
 20
123.7961086992032
 30
0.0
  0
SPLINE
  5
79EF
330
1F
100
AcDbEntity
  8
レイヤー_1
 62
     7
370
    15
100
AcDbSpline
210
0.0
220
0.0
230
1.0
 70
     8
 71
     3
 72
     8
 73
     4
 74
     0
 42
0.000000001
 43
0.00000001
 40
4.0
 40
4.0
 40
4.0
 40
4.0
 40
5.0
 40
5.0
 40
5.0
 40
5.0
 10
174.5506388170115
 20
123.7961086992032
 30
0.0
 10
174.2673893299533
 20
123.6874942342411
 30
0.0
 10
173.985204690591
 20
123.6949481681112
 30
0.0
 10
173.7056821704679
 20
123.8206001962046
 30
0.0
  0
SPLINE
  5
79F0
330
1F
100
AcDbEntity
  8
レイヤー_1
 62
     7
370
    15
100
AcDbSpline
210
0.0
220
0.0
230
1.0
 70
     8
 71
     3
 72
     8
 73
     4
 74
     0
 42
0.000000001
 43
0.00000001
 40
5.0
 40
5.0
 40
5.0
 40
5.0
 40
6.0
 40
6.0
 40
6.0
 40
6.0
 10
173.7056821704679
 20
123.8206001962046
 30
0.0
 10
173.4256272264969
 20
123.9441225289066
 30
0.0
 10
173.2307600981825
 20
124.1485732864823
 30
0.0
 10
173.1221456332204
 20
124.4318227735405
 30
0.0
  0
SPLINE
  5
79F1
330
1F
100
AcDbEntity
  8
レイヤー_1
 62
     7
370
    15
100
AcDbSpline
210
0.0
220
0.0
230
1.0
 70
     8
 71
     3
 72
    11
 73
     7
 74
     0
 42
0.000000001
 43
0.00000001
 40
6.0
 40
6.0
 40
6.0
 40
6.0
 40
7.0
 40
7.0
 40
7.0
 40
8.0
 40
8.0
 40
8.0
 40
8.0
 10
173.1221456332204
 20
124.4318227735405
 30
0.0
 10
172.9980908766706
 20
124.7544716253396
 30
0.0
 10
173.0231147975197
 20
125.1133252987929
 30
0.0
 10
173.1977498196156
 20
125.5051892508131
 30
0.0
 10
173.3723848417116
 20
125.8970532028333
 30
0.0
 10
173.6215592025071
 20
126.1558111928901
 30
0.0
 10
173.9447404781541
 20
126.2803983732879
 30
0.0
  0
LINE
  5
79F2
330
1F
100
AcDbEntity
  8
レイヤー_1
 62
     7
370
    15
100
AcDbLine
 10
176.7069558348066
 20
125.2379120847778
 30
0.0
 11
178.4059203802611
 21
124.0037538120506
 31
0.0
  0
LINE
  5
79F3
330
1F
100
AcDbEntity
  8
レイヤー_1
 62
     7
370
    15
100
AcDbLine
 10
178.4059203802611
 20
124.0037538120506
 30
0.0
 11
178.2344800166248
 21
123.7673579938687
 31
0.0
  0
LINE
  5
79F4
330
1F
100
AcDbEntity
  8
レイヤー_1
 62
     7
370
    15
100
AcDbLine
 10
178.2344800166248
 20
123.7673579938687
 30
0.0
 11
177.5274206529884
 21
124.280614266596
 31
0.0
  0
LINE
  5
79F5
330
1F
100
AcDbEntity
  8
レイヤー_1
 62
     7
370
    15
100
AcDbLine
 10
177.5274206529884
 20
124.280614266596
 30
0.0
 11
176.1585590166248
 21
122.396898357505
 31
0.0
  0
LINE
  5
79F6
330
1F
100
AcDbEntity
  8
レイヤー_1
 62
     7
370
    15
100
AcDbLine
 10
176.1585590166248
 20
122.396898357505
 30
0.0
 11
175.8731800166248
 21
122.6045440847778
 31
0.0
  0
LINE
  5
79F7
330
1F
100
AcDbEntity
  8
レイヤー_1
 62
     7
370
    15
100
AcDbLine
 10
175.8731800166248
 20
122.6045440847778
 30
0.0
 11
177.242573289352
 21
124.4882599938687
 31
0.0
  0
LINE
  5
79F8
330
1F
100
AcDbEntity
  8
レイヤー_1
 62
     7
370
    15
100
AcDbLine
 10
177.242573289352
 20
124.4882599938687
 30
0.0
 11
176.5355154711702
 21
125.001516266596
 31
0.0
  0
LINE
  5
79F9
330
1F
100
AcDbEntity
  8
レイヤー_1
 62
     7
370
    15
100
AcDbLine
 10
176.5355154711702
 20
125.001516266596
 30
0.0
 11
176.7069558348066
 21
125.2379120847778
 31
0.0
  0
LINE
  5
79FA
330
1F
100
AcDbEntity
  8
レイヤー_1
 62
     7
370
    15
100
AcDbLine
 10
181.4444632893521
 20
120.6462893575051
 30
0.0
 11
182.325624289352
 21
119.1192983575051
 31
0.0
  0
LINE
  5
79FB
330
1F
100
AcDbEntity
  8
レイヤー_1
 62
     7
370
    15
100
AcDbLine
 10
182.325624289352
 20
119.1192983575051
 30
0.0
 11
182.0732546529884
 21
118.9744784484141
 31
0.0
  0
LINE
  5
79FC
330
1F
100
AcDbEntity
  8
レイヤー_1
 62
     7
370
    15
100
AcDbLine
 10
182.0732546529884
 20
118.9744784484141
 30
0.0
 11
181.3677932893521
 21
120.1947940847778
 31
0.0
  0
LINE
  5
79FD
330
1F
100
AcDbEntity
  8
レイヤー_1
 62
     7
370
    15
100
AcDbLine
 10
181.3677932893521
 20
120.1947940847778
 30
0.0
 11
180.6250617438976
 21
119.7656599938688
 31
0.0
  0
LINE
  5
79FE
330
1F
100
AcDbEntity
  8
レイヤー_1
 62
     7
370
    15
100
AcDbLine
 10
180.6250617438976
 20
119.7656599938688
 30
0.0
 11
181.1771861984429
 21
118.8094269938688
 31
0.0
  0
LINE
  5
79FF
330
1F
100
AcDbEntity
  8
レイヤー_1
 62
     7
370
    15
100
AcDbLine
 10
181.1771861984429
 20
118.8094269938688
 30
0.0
 11
180.9253497438975
 21
118.6646070847778
 31
0.0
  0
LINE
  5
7A00
330
1F
100
AcDbEntity
  8
レイヤー_1
 62
     7
370
    15
100
AcDbLine
 10
180.9253497438975
 20
118.6646070847778
 30
0.0
 11
180.3732252893521
 21
119.619775266596
 31
0.0
  0
LINE
  5
7A01
330
1F
100
AcDbEntity
  8
レイヤー_1
 62
     7
370
    15
100
AcDbLine
 10
180.3732252893521
 20
119.619775266596
 30
0.0
 11
179.3520368348066
 21
119.0298505393233
 31
0.0
  0
LINE
  5
7A02
330
1F
100
AcDbEntity
  8
レイヤー_1
 62
     7
370
    15
100
AcDbLine
 10
179.3520368348066
 20
119.0298505393233
 30
0.0
 11
179.1742075620793
 21
119.3354610847778
 31
0.0
  0
LINE
  5
7A03
330
1F
100
AcDbEntity
  8
レイヤー_1
 62
     7
370
    15
100
AcDbLine
 10
179.1742075620793
 20
119.3354610847778
 30
0.0
 11
181.4444632893521
 21
120.6462893575051
 31
0.0
  0
SPLINE
  5
7A04
330
1F
100
AcDbEntity
  8
レイヤー_1
 62
     7
370
    15
100
AcDbSpline
210
0.0
220
0.0
230
1.0
 70
     8
 71
     3
 72
     8
 73
     4
 74
     0
 42
0.000000001
 43
0.00000001
 40
0.0
 40
0.0
 40
0.0
 40
0.0
 40
1.0
 40
1.0
 40
1.0
 40
1.0
 10
182.7222800338675
 20
116.9651107312424
 30
0.0
 10
182.5039862562476
 20
117.075854891596
 30
0.0
 10
182.2191394976459
 20
117.0747900439003
 30
0.0
 10
181.8693370296061
 20
116.9619161881553
 30
0.0
  0
SPLINE
  5
7A05
330
1F
100
AcDbEntity
  8
レイヤー_1
 62
     7
370
    15
100
AcDbSpline
210
0.0
220
0.0
230
1.0
 70
     8
 71
     3
 72
     8
 73
     4
 74
     0
 42
0.000000001
 43
0.00000001
 40
1.0
 40
1.0
 40
1.0
 40
1.0
 40
2.0
 40
2.0
 40
2.0
 40
2.0
 10
181.8693370296061
 20
116.9619161881553
 30
0.0
 10
181.5190021377185
 20
116.8479774847146
 30
0.0
 10
181.2889950354458
 20
116.6807963964886
 30
0.0
 10
181.1766536035487
 20
116.4625026188687
 30
0.0
  0
SPLINE
  5
7A06
330
1F
100
AcDbEntity
  8
レイヤー_1
 62
     7
370
    15
100
AcDbSpline
210
0.0
220
0.0
230
1.0
 70
     8
 71
     3
 72
     8
 73
     4
 74
     0
 42
0.000000001
 43
0.00000001
 40
2.0
 40
2.0
 40
2.0
 40
2.0
 40
3.0
 40
3.0
 40
3.0
 40
3.0
 10
181.1766536035487
 20
116.4625026188687
 30
0.0
 10
181.0792200393915
 20
116.2697651859457
 30
0.0
 10
181.0589879331731
 20
116.0802222961099
 30
0.0
 10
181.1191518279805
 20
115.8949387970568
 30
0.0
  0
SPLINE
  5
7A07
330
1F
100
AcDbEntity
  8
レイヤー_1
 62
     7
370
    15
100
AcDbSpline
210
0.0
220
0.0
230
1.0
 70
     8
 71
     3
 72
     8
 73
     4
 74
     0
 42
0.000000001
 43
0.00000001
 40
3.0
 40
3.0
 40
3.0
 40
3.0
 40
4.0
 40
4.0
 40
4.0
 40
4.0
 10
181.1191518279805
 20
115.8949387970568
 30
0.0
 10
181.179315722788
 20
115.7107201456995
 30
0.0
 10
181.306565022425
 20
115.5701602498661
 30
0.0
 10
181.4987700315001
 20
115.4711294141655
 30
0.0
  0
SPLINE
  5
7A08
330
1F
100
AcDbEntity
  8
レイヤー_1
 62
     7
370
    15
100
AcDbSpline
210
0.0
220
0.0
230
1.0
 70
     8
 71
     3
 72
    11
 73
     7
 74
     0
 42
0.000000001
 43
0.00000001
 40
4.0
 40
4.0
 40
4.0
 40
4.0
 40
5.0
 40
5.0
 40
5.0
 40
6.0
 40
6.0
 40
6.0
 40
6.0
 10
181.4987700315001
 20
115.4711294141655
 30
0.0
 10
181.7186610806636
 20
115.3603852538118
 30
0.0
 10
182.0013781438739
 20
115.3603852538118
 30
0.0
 10
182.3517130357614
 20
115.4743239572525
 30
0.0
 10
182.7020479276491
 20
115.5882626606932
 30
0.0
 10
182.9320550299218
 20
115.7533140535278
 30
0.0
 10
183.043864037971
 20
115.9726726788434
 30
0.0
  0
SPLINE
  5
7A09
330
1F
100
AcDbEntity
  8
レイヤー_1
 62
     7
370
    15
100
AcDbSpline
210
0.0
220
0.0
230
1.0
 70
     8
 71
     3
 72
     8
 73
     4
 74
     0
 42
0.000000001
 43
0.00000001
 40
6.0
 40
6.0
 40
6.0
 40
6.0
 40
7.0
 40
7.0
 40
7.0
 40
7.0
 10
183.043864037971
 20
115.9726726788434
 30
0.0
 10
183.141830025976
 20
116.1664749594621
 30
0.0
 10
183.1615297083467
 20
116.3549530016023
 30
0.0
 10
183.1013658135392
 20
116.5402365006553
 30
0.0
  0
SPLINE
  5
7A0A
330
1F
100
AcDbEntity
  8
レイヤー_1
 62
     7
370
    15
100
AcDbSpline
210
0.0
220
0.0
230
1.0
 70
     8
 71
     3
 72
     8
 73
     4
 74
     0
 42
0.000000001
 43
0.00000001
 40
7.0
 40
7.0
 40
7.0
 40
7.0
 40
8.0
 40
8.0
 40
8.0
 40
8.0
 10
183.1013658135392
 20
116.5402365006553
 30
0.0
 10
183.0417343425796
 20
116.7244551520126
 30
0.0
 10
182.9150174667905
 20
116.8660798955417
 30
0.0
 10
182.7222800338675
 20
116.9651107312424
 30
0.0
  0
SPLINE
  5
7A0B
330
1F
100
AcDbEntity
  8
レイヤー_1
 62
     7
370
    15
100
AcDbSpline
210
0.0
220
0.0
230
1.0
 70
     8
 71
     3
 72
     8
 73
     4
 74
     0
 42
0.000000001
 43
0.00000001
 40
0.0
 40
0.0
 40
0.0
 40
0.0
 40
1.0
 40
1.0
 40
1.0
 40
1.0
 10
182.8314269226775
 20
117.2739165629974
 30
0.0
 10
183.101898237387
 20
117.1365512102512
 30
0.0
 10
183.2834547695051
 20
116.9214519757184
 30
0.0
 10
183.3787586382709
 20
116.6296837070947
 30
0.0
  0
SPLINE
  5
7A0C
330
1F
100
AcDbEntity
  8
レイヤー_1
 62
     7
370
    15
100
AcDbSpline
210
0.0
220
0.0
230
1.0
 70
     8
 71
     3
 72
     8
 73
     4
 74
     0
 42
0.000000001
 43
0.00000001
 40
1.0
 40
1.0
 40
1.0
 40
1.0
 40
2.0
 40
2.0
 40
2.0
 40
2.0
 10
183.3787586382709
 20
116.6296837070947
 30
0.0
 10
183.4735300831888
 20
116.337915438471
 30
0.0
 10
183.4517007054268
 20
116.0567956468043
 30
0.0
 10
183.3138029288328
 20
115.7873891797904
 30
0.0
  0
SPLINE
  5
7A0D
330
1F
100
AcDbEntity
  8
レイヤー_1
 62
     7
370
    15
100
AcDbSpline
210
0.0
220
0.0
230
1.0
 70
     8
 71
     3
 72
     8
 73
     4
 74
     0
 42
0.000000001
 43
0.00000001
 40
2.0
 40
2.0
 40
2.0
 40
2.0
 40
3.0
 40
3.0
 40
3.0
 40
3.0
 10
183.3138029288328
 20
115.7873891797904
 30
0.0
 10
183.156737893716
 20
115.4785833480354
 30
0.0
 10
182.8734884066579
 20
115.2570950273283
 30
0.0
 10
182.4656517392021
 20
115.123989065365
 30
0.0
  0
SPLINE
  5
7A0E
330
1F
100
AcDbEntity
  8
レイヤー_1
 62
     7
370
    15
100
AcDbSpline
210
0.0
220
0.0
230
1.0
 70
     8
 71
     3
 72
     8
 73
     4
 74
     0
 42
0.000000001
 43
0.00000001
 40
3.0
 40
3.0
 40
3.0
 40
3.0
 40
4.0
 40
4.0
 40
4.0
 40
4.0
 10
182.4656517392021
 20
115.123989065365
 30
0.0
 10
182.0572826478985
 20
114.9919479510972
 30
0.0
 10
181.6984289744452
 20
115.0047261234457
 30
0.0
 10
181.3901555665379
 20
115.1612587347147
 30
0.0
  0
SPLINE
  5
7A0F
330
1F
100
AcDbEntity
  8
レイヤー_1
 62
     7
370
    15
100
AcDbSpline
210
0.0
220
0.0
230
1.0
 70
     8
 71
     3
 72
     8
 73
     4
 74
     0
 42
0.000000001
 43
0.00000001
 40
4.0
 40
4.0
 40
4.0
 40
4.0
 40
5.0
 40
5.0
 40
5.0
 40
5.0
 10
181.3901555665379
 20
115.1612587347147
 30
0.0
 10
181.1202166756762
 20
115.2996889351566
 30
0.0
 10
180.9375952958624
 20
115.5147881696894
 30
0.0
 10
180.8422914270967
 20
115.8054915906174
 30
0.0
  0
SPLINE
  5
7A10
330
1F
100
AcDbEntity
  8
レイヤー_1
 62
     7
370
    15
100
AcDbSpline
210
0.0
220
0.0
230
1.0
 70
     8
 71
     3
 72
     8
 73
     4
 74
     0
 42
0.000000001
 43
0.00000001
 40
5.0
 40
5.0
 40
5.0
 40
5.0
 40
6.0
 40
6.0
 40
6.0
 40
6.0
 10
180.8422914270967
 20
115.8054915906174
 30
0.0
 10
180.7485848298745
 20
116.0961950115455
 30
0.0
 10
180.768284512245
 20
116.3783796509078
 30
0.0
 10
180.9072471365348
 20
116.6488509656175
 30
0.0
  0
SPLINE
  5
7A11
330
1F
100
AcDbEntity
  8
レイヤー_1
 62
     7
370
    15
100
AcDbSpline
210
0.0
220
0.0
230
1.0
 70
     8
 71
     3
 72
     8
 73
     4
 74
     0
 42
0.000000001
 43
0.00000001
 40
6.0
 40
6.0
 40
6.0
 40
6.0
 40
7.0
 40
7.0
 40
7.0
 40
7.0
 10
180.9072471365348
 20
116.6488509656175
 30
0.0
 10
181.0643121716516
 20
116.9576567973724
 30
0.0
 10
181.3470292348619
 20
117.1780802703838
 30
0.0
 10
181.7559307500133
 20
117.3111862323472
 30
0.0
  0
SPLINE
  5
7A12
330
1F
100
AcDbEntity
  8
レイヤー_1
 62
     7
370
    15
100
AcDbSpline
210
0.0
220
0.0
230
1.0
 70
     8
 71
     3
 72
     8
 73
     4
 74
     0
 42
0.000000001
 43
0.00000001
 40
7.0
 40
7.0
 40
7.0
 40
7.0
 40
8.0
 40
8.0
 40
8.0
 40
8.0
 10
181.7559307500133
 20
117.3111862323472
 30
0.0
 10
182.1637674174692
 20
117.4432273466149
 30
0.0
 10
182.5226210909224
 20
117.4315140219621
 30
0.0
 10
182.8314269226775
 20
117.2739165629974
 30
0.0
  0
SPLINE
  5
7A13
330
1F
100
AcDbEntity
  8
レイヤー_1
 62
     7
370
    15
100
AcDbSpline
210
0.0
220
0.0
230
1.0
 70
     8
 71
     3
 72
    11
 73
     7
 74
     0
 42
0.000000001
 43
0.00000001
 40
0.0
 40
0.0
 40
0.0
 40
0.0
 40
1.0
 40
1.0
 40
1.0
 40
2.0
 40
2.0
 40
2.0
 40
2.0
 10
183.6662675161118
 20
114.1443291853144
 30
0.0
 10
183.6662675161118
 20
114.1443291853144
 30
0.0
 10
182.7664712132394
 20
114.0506225880922
 30
0.0
 10
182.7664712132394
 20
114.0506225880922
 30
0.0
 10
182.7664712132394
 20
114.0506225880922
 30
0.0
 10
182.8612426581573
 20
113.1508262852197
 30
0.0
 10
182.8612426581573
 20
113.1508262852197
 30
0.0
  0
SPLINE
  5
7A14
330
1F
100
AcDbEntity
  8
レイヤー_1
 62
     7
370
    15
100
AcDbSpline
210
0.0
220
0.0
230
1.0
 70
     8
 71
     3
 72
     8
 73
     4
 74
     0
 42
0.000000001
 43
0.00000001
 40
2.0
 40
2.0
 40
2.0
 40
2.0
 40
3.0
 40
3.0
 40
3.0
 40
3.0
 10
182.8612426581573
 20
113.1508262852197
 30
0.0
 10
182.8729559828101
 20
113.0496657541275
 30
0.0
 10
182.9166147383341
 20
112.9655427861667
 30
0.0
 10
182.9954134678164
 20
112.9037816198157
 30
0.0
  0
SPLINE
  5
7A15
330
1F
100
AcDbEntity
  8
レイヤー_1
 62
     7
370
    15
100
AcDbSpline
210
0.0
220
0.0
230
1.0
 70
     8
 71
     3
 72
     8
 73
     4
 74
     0
 42
0.000000001
 43
0.00000001
 40
3.0
 40
3.0
 40
3.0
 40
3.0
 40
4.0
 40
4.0
 40
4.0
 40
4.0
 10
182.9954134678164
 20
112.9037816198157
 30
0.0
 10
183.0742121972987
 20
112.8388259103775
 30
0.0
 10
183.1892157484351
 20
112.8164641087677
 30
0.0
 10
183.3414889689212
 20
112.8324368242033
 30
0.0
  0
SPLINE
  5
7A16
330
1F
100
AcDbEntity
  8
レイヤー_1
 62
     7
370
    15
100
AcDbSpline
210
0.0
220
0.0
230
1.0
 70
     8
 71
     3
 72
     8
 73
     4
 74
     0
 42
0.000000001
 43
0.00000001
 40
4.0
 40
4.0
 40
4.0
 40
4.0
 40
5.0
 40
5.0
 40
5.0
 40
5.0
 10
183.3414889689212
 20
112.8324368242033
 30
0.0
 10
183.4836461362981
 20
112.8473446919432
 30
0.0
 10
183.5917281774123
 20
112.8984573813371
 30
0.0
 10
183.6641378207204
 20
112.9889694354722
 30
0.0
  0
SPLINE
  5
7A17
330
1F
100
AcDbEntity
  8
レイヤー_1
 62
     7
370
    15
100
AcDbSpline
210
0.0
220
0.0
230
1.0
 70
     8
 71
     3
 72
    11
 73
     7
 74
     0
 42
0.000000001
 43
0.00000001
 40
5.0
 40
5.0
 40
5.0
 40
5.0
 40
6.0
 40
6.0
 40
6.0
 40
7.0
 40
7.0
 40
7.0
 40
7.0
 10
183.6641378207204
 20
112.9889694354722
 30
0.0
 10
183.7365474640285
 20
113.0784166419116
 30
0.0
 10
183.7668956233561
 20
113.1795771730038
 30
0.0
 10
183.7551822987033
 20
113.2913861810531
 30
0.0
 10
183.7551822987033
 20
113.2913861810531
 30
0.0
 10
183.6662675161118
 20
114.1443291853144
 30
0.0
 10
183.6662675161118
 20
114.1443291853144
 30
0.0
  0
SPLINE
  5
7A18
330
1F
100
AcDbEntity
  8
レイヤー_1
 62
     7
370
    15
100
AcDbSpline
210
0.0
220
0.0
230
1.0
 70
    24
 71
     3
 72
     8
 73
     4
 74
     0
 42
0.000000001
 43
0.00000001
 40
0.0
 40
0.0
 40
0.0
 40
0.0
 40
1.0
 40
1.0
 40
1.0
 40
1.0
 10
183.9186364199944
 20
114.5266095080733
 30
0.0
 10
183.9186364199944
 20
114.5266095080733
 30
0.0
 10
184.0528072296535
 20
113.2455977301376
 30
0.0
 10
184.0528072296535
 20
113.2455977301376
 30
0.0
  0
SPLINE
  5
7A19
330
1F
100
AcDbEntity
  8
レイヤー_1
 62
     7
370
    15
100
AcDbSpline
210
0.0
220
0.0
230
1.0
 70
     8
 71
     3
 72
     8
 73
     4
 74
     0
 42
0.000000001
 43
0.00000001
 40
1.0
 40
1.0
 40
1.0
 40
1.0
 40
2.0
 40
2.0
 40
2.0
 40
2.0
 10
184.0528072296535
 20
113.2455977301376
 30
0.0
 10
184.0741041835676
 20
113.0432766679533
 30
0.0
 10
184.0267184611087
 20
112.8686416458573
 30
0.0
 10
183.9085203668852
 20
112.7216926638498
 30
0.0
  0
SPLINE
  5
7A1A
330
1F
100
AcDbEntity
  8
レイヤー_1
 62
     7
370
    15
100
AcDbSpline
210
0.0
220
0.0
230
1.0
 70
     8
 71
     3
 72
    11
 73
     7
 74
     0
 42
0.000000001
 43
0.00000001
 40
2.0
 40
2.0
 40
2.0
 40
2.0
 40
3.0
 40
3.0
 40
3.0
 40
4.0
 40
4.0
 40
4.0
 40
4.0
 10
183.9085203668852
 20
112.7216926638498
 30
0.0
 10
183.789257424966
 20
112.5758085295379
 30
0.0
 10
183.6140899790222
 20
112.4906207138813
 30
0.0
 10
183.3803559098145
 20
112.46612921688
 30
0.0
 10
183.1466218406068
 20
112.4416377198788
 30
0.0
 10
182.9560141030752
 20
112.48849101849
 30
0.0
 10
182.8106623926112
 20
112.6066891127134
 30
0.0
  0
SPLINE
  5
7A1B
330
1F
100
AcDbEntity
  8
レイヤー_1
 62
     7
370
    15
100
AcDbSpline
210
0.0
220
0.0
230
1.0
 70
     8
 71
     3
 72
    29
 73
    25
 74
     0
 42
0.000000001
 43
0.00000001
 40
4.0
 40
4.0
 40
4.0
 40
4.0
 40
5.0
 40
5.0
 40
5.0
 40
6.0
 40
6.0
 40
6.0
 40
7.0
 40
7.0
 40
7.0
 40
8.0
 40
8.0
 40
8.0
 40
9.0
 40
9.0
 40
9.0
 40
10.0
 40
10.0
 40
10.0
 40
11.0
 40
11.0
 40
11.0
 40
12.0
 40
12.0
 40
12.0
 40
12.0
 10
182.8106623926112
 20
112.6066891127134
 30
0.0
 10
182.7323960869767
 20
112.6705799744559
 30
0.0
 10
182.6748943114085
 20
112.7664162670695
 30
0.0
 10
182.6418840328416
 20
112.8963276859457
 30
0.0
 10
182.6418840328416
 20
112.8963276859457
 30
0.0
 10
181.5307154623713
 20
112.1786203390392
 30
0.0
 10
181.5307154623713
 20
112.1786203390392
 30
0.0
 10
181.5307154623713
 20
112.1786203390392
 30
0.0
 10
181.4902512499344
 20
112.5598358141022
 30
0.0
 10
181.4902512499344
 20
112.5598358141022
 30
0.0
 10
181.4902512499344
 20
112.5598358141022
 30
0.0
 10
182.5604231841201
 20
113.2274953193106
 30
0.0
 10
182.5604231841201
 20
113.2274953193106
 30
0.0
 10
182.5604231841201
 20
113.2274953193106
 30
0.0
 10
182.4773650638548
 20
114.0208068526124
 30
0.0
 10
182.4773650638548
 20
114.0208068526124
 30
0.0
 10
182.4773650638548
 20
114.0208068526124
 30
0.0
 10
181.3491589302532
 20
113.9015439106932
 30
0.0
 10
181.3491589302532
 20
113.9015439106932
 30
0.0
 10
181.3491589302532
 20
113.9015439106932
 30
0.0
 10
181.3118892609035
 20
114.2518788025809
 30
0.0
 10
181.3118892609035
 20
114.2518788025809
 30
0.0
 10
181.3118892609035
 20
114.2518788025809
 30
0.0
 10
183.9186364199944
 20
114.5266095080733
 30
0.0
 10
183.9186364199944
 20
114.5266095080733
 30
0.0
  0
SPLINE
  5
7A1C
330
1F
100
AcDbEntity
  8
レイヤー_1
 62
     7
370
    15
100
AcDbSpline
210
0.0
220
0.0
230
1.0
 70
     8
 71
     3
 72
    11
 73
     7
 74
     0
 42
0.000000001
 43
0.00000001
 40
0.0
 40
0.0
 40
0.0
 40
0.0
 40
1.0
 40
1.0
 40
1.0
 40
2.0
 40
2.0
 40
2.0
 40
2.0
 10
183.2903762795273
 20
107.6807036723725
 30
0.0
 10
183.2903762795273
 20
107.6807036723725
 30
0.0
 10
182.4299793413959
 20
107.9607586163434
 30
0.0
 10
182.4299793413959
 20
107.9607586163434
 30
0.0
 10
182.4299793413959
 20
107.9607586163434
 30
0.0
 10
182.1504568212728
 20
107.1024913736036
 30
0.0
 10
182.1504568212728
 20
107.1024913736036
 30
0.0
  0
SPLINE
  5
7A1D
330
1F
100
AcDbEntity
  8
レイヤー_1
 62
     7
370
    15
100
AcDbSpline
210
0.0
220
0.0
230
1.0
 70
     8
 71
     3
 72
     8
 73
     4
 74
     0
 42
0.000000001
 43
0.00000001
 40
2.0
 40
2.0
 40
2.0
 40
2.0
 40
3.0
 40
3.0
 40
3.0
 40
3.0
 10
182.1504568212728
 20
107.1024913736036
 30
0.0
 10
182.1201086619452
 20
107.0034605379028
 30
0.0
 10
182.1259653242716
 20
106.9108187883763
 30
0.0
 10
182.1728186228826
 20
106.8203067342411
 30
0.0
  0
SPLINE
  5
7A1E
330
1F
100
AcDbEntity
  8
レイヤー_1
 62
     7
370
    15
100
AcDbSpline
210
0.0
220
0.0
230
1.0
 70
     8
 71
     3
 72
     8
 73
     4
 74
     0
 42
0.000000001
 43
0.00000001
 40
3.0
 40
3.0
 40
3.0
 40
3.0
 40
4.0
 40
4.0
 40
4.0
 40
4.0
 10
182.1728186228826
 20
106.8203067342411
 30
0.0
 10
182.2175422261024
 20
106.7297946801061
 30
0.0
 10
182.3139109425638
 20
106.6616444275809
 30
0.0
 10
182.4592626530279
 20
106.6147911289697
 30
0.0
  0
SPLINE
  5
7A1F
330
1F
100
AcDbEntity
  8
レイヤー_1
 62
     7
370
    15
100
AcDbSpline
210
0.0
220
0.0
230
1.0
 70
     8
 71
     3
 72
     8
 73
     4
 74
     0
 42
0.000000001
 43
0.00000001
 40
4.0
 40
4.0
 40
4.0
 40
4.0
 40
5.0
 40
5.0
 40
5.0
 40
5.0
 10
182.4592626530279
 20
106.6147911289697
 30
0.0
 10
182.5960955819262
 20
106.5711323734457
 30
0.0
 10
182.7158909476933
 20
106.5743269165328
 30
0.0
 10
182.818648750329
 20
106.6265044536225
 30
0.0
  0
SPLINE
  5
7A20
330
1F
100
AcDbEntity
  8
レイヤー_1
 62
     7
370
    15
100
AcDbSpline
210
0.0
220
0.0
230
1.0
 70
     8
 71
     3
 72
    11
 73
     7
 74
     0
 42
0.000000001
 43
0.00000001
 40
5.0
 40
5.0
 40
5.0
 40
5.0
 40
6.0
 40
6.0
 40
6.0
 40
7.0
 40
7.0
 40
7.0
 40
7.0
 10
182.818648750329
 20
106.6265044536225
 30
0.0
 10
182.9208741291168
 20
106.6808116861035
 30
0.0
 10
182.9900892293379
 20
106.7585455678902
 30
0.0
 10
183.0241643556005
 20
106.8650303374609
 30
0.0
 10
183.0241643556005
 20
106.8650303374609
 30
0.0
 10
183.2903762795273
 20
107.6807036723725
 30
0.0
 10
183.2903762795273
 20
107.6807036723725
 30
0.0
  0
SPLINE
  5
7A21
330
1F
100
AcDbEntity
  8
レイヤー_1
 62
     7
370
    15
100
AcDbSpline
210
0.0
220
0.0
230
1.0
 70
    24
 71
     3
 72
     8
 73
     4
 74
     0
 42
0.000000001
 43
0.00000001
 40
0.0
 40
0.0
 40
0.0
 40
0.0
 40
1.0
 40
1.0
 40
1.0
 40
1.0
 10
183.6758511453732
 20
107.9277483377765
 30
0.0
 10
183.6758511453732
 20
107.9277483377765
 30
0.0
 10
183.2775981071788
 20
106.7031734877134
 30
0.0
 10
183.2775981071788
 20
106.7031734877134
 30
0.0
  0
SPLINE
  5
7A22
330
1F
100
AcDbEntity
  8
レイヤー_1
 62
     7
370
    15
100
AcDbSpline
210
0.0
220
0.0
230
1.0
 70
     8
 71
     3
 72
     8
 73
     4
 74
     0
 42
0.000000001
 43
0.00000001
 40
1.0
 40
1.0
 40
1.0
 40
1.0
 40
2.0
 40
2.0
 40
2.0
 40
2.0
 10
183.2775981071788
 20
106.7031734877134
 30
0.0
 10
183.214772093132
 20
106.5093712070947
 30
0.0
 10
183.0997685419957
 20
106.3688113112614
 30
0.0
 10
182.9331198776175
 20
106.2836234956048
 30
0.0
  0
SPLINE
  5
7A23
330
1F
100
AcDbEntity
  8
レイヤー_1
 62
     7
370
    15
100
AcDbSpline
210
0.0
220
0.0
230
1.0
 70
     8
 71
     3
 72
     8
 73
     4
 74
     0
 42
0.000000001
 43
0.00000001
 40
2.0
 40
2.0
 40
2.0
 40
2.0
 40
3.0
 40
3.0
 40
3.0
 40
3.0
 10
182.9331198776175
 20
106.2836234956048
 30
0.0
 10
182.7643415178479
 20
106.1984356799482
 30
0.0
 10
182.5694743895336
 20
106.1920465937739
 30
0.0
 10
182.3463887972829
 20
106.2655210847778
 30
0.0
  0
SPLINE
  5
7A24
330
1F
100
AcDbEntity
  8
レイヤー_1
 62
     7
370
    15
100
AcDbSpline
210
0.0
220
0.0
230
1.0
 70
     8
 71
     3
 72
     8
 73
     4
 74
     0
 42
0.000000001
 43
0.00000001
 40
3.0
 40
3.0
 40
3.0
 40
3.0
 40
4.0
 40
4.0
 40
4.0
 40
4.0
 10
182.3463887972829
 20
106.2655210847778
 30
0.0
 10
182.1222383573366
 20
106.3379307280859
 30
0.0
 10
181.9673030176112
 20
106.4582585177007
 30
0.0
 10
181.8831800496503
 20
106.624374758231
 30
0.0
  0
SPLINE
  5
7A25
330
1F
100
AcDbEntity
  8
レイヤー_1
 62
     7
370
    15
100
AcDbSpline
210
0.0
220
0.0
230
1.0
 70
     8
 71
     3
 72
    29
 73
    25
 74
     0
 42
0.000000001
 43
0.00000001
 40
4.0
 40
4.0
 40
4.0
 40
4.0
 40
5.0
 40
5.0
 40
5.0
 40
6.0
 40
6.0
 40
6.0
 40
7.0
 40
7.0
 40
7.0
 40
8.0
 40
8.0
 40
8.0
 40
9.0
 40
9.0
 40
9.0
 40
10.0
 40
10.0
 40
10.0
 40
11.0
 40
11.0
 40
11.0
 40
12.0
 40
12.0
 40
12.0
 40
12.0
 10
181.8831800496503
 20
106.624374758231
 30
0.0
 10
181.8368591748871
 20
106.7138219646705
 30
0.0
 10
181.8246134263864
 20
106.8256309727197
 30
0.0
 10
181.8464428041485
 20
106.9587369346831
 30
0.0
 10
181.8464428041485
 20
106.9587369346831
 30
0.0
 10
180.539342257668
 20
106.7542861771073
 30
0.0
 10
180.539342257668
 20
106.7542861771073
 30
0.0
 10
180.539342257668
 20
106.7542861771073
 30
0.0
 10
180.6575403518915
 20
107.1184640890392
 30
0.0
 10
180.6575403518915
 20
107.1184640890392
 30
0.0
 10
180.6575403518915
 20
107.1184640890392
 30
0.0
 10
181.9066066989559
 20
107.2930991111351
 30
0.0
 10
181.9066066989559
 20
107.2930991111351
 30
0.0
 10
181.9066066989559
 20
107.2930991111351
 30
0.0
 10
182.1536513643599
 20
108.0512706704785
 30
0.0
 10
182.1536513643599
 20
108.0512706704785
 30
0.0
 10
182.1536513643599
 20
108.0512706704785
 30
0.0
 10
181.0744282247608
 20
108.4016055623661
 30
0.0
 10
181.0744282247608
 20
108.4016055623661
 30
0.0
 10
181.0744282247608
 20
108.4016055623661
 30
0.0
 10
181.1825102658751
 20
108.7370325865139
 30
0.0
 10
181.1825102658751
 20
108.7370325865139
 30
0.0
 10
181.1825102658751
 20
108.7370325865139
 30
0.0
 10
183.6758511453732
 20
107.9277483377765
 30
0.0
 10
183.6758511453732
 20
107.9277483377765
 30
0.0
  0
LINE
  5
7A26
330
1F
100
AcDbEntity
  8
レイヤー_1
 62
     7
370
    15
100
AcDbLine
 10
182.5215554711702
 20
104.8162633575051
 30
0.0
 11
181.6792611075339
 21
103.3552926302324
 31
0.0
  0
LINE
  5
7A27
330
1F
100
AcDbEntity
  8
レイヤー_1
 62
     7
370
    15
100
AcDbLine
 10
181.6792611075339
 20
103.3552926302324
 30
0.0
 11
181.4268930166248
 21
103.5011758120505
 31
0.0
  0
LINE
  5
7A28
330
1F
100
AcDbEntity
  8
レイヤー_1
 62
     7
370
    15
100
AcDbLine
 10
181.4268930166248
 20
103.5011758120505
 30
0.0
 11
182.0929545620793
 21
104.6576008120505
 31
0.0
  0
LINE
  5
7A29
330
1F
100
AcDbEntity
  8
レイヤー_1
 62
     7
370
    15
100
AcDbLine
 10
182.0929545620793
 20
104.6576008120505
 30
0.0
 11
181.3906876529884
 21
105.0633073575051
 31
0.0
  0
LINE
  5
7A2A
330
1F
100
AcDbEntity
  8
レイヤー_1
 62
     7
370
    15
100
AcDbLine
 10
181.3906876529884
 20
105.0633073575051
 30
0.0
 11
180.7693500166248
 21
103.9878116302324
 31
0.0
  0
LINE
  5
7A2B
330
1F
100
AcDbEntity
  8
レイヤー_1
 62
     7
370
    15
100
AcDbLine
 10
180.7693500166248
 20
103.9878116302324
 30
0.0
 11
180.5175135620793
 21
104.133696357505
 31
0.0
  0
LINE
  5
7A2C
330
1F
100
AcDbEntity
  8
レイヤー_1
 62
     7
370
    15
100
AcDbLine
 10
180.5175135620793
 20
104.133696357505
 30
0.0
 11
181.1383195620793
 21
105.2081272665959
 31
0.0
  0
LINE
  5
7A2D
330
1F
100
AcDbEntity
  8
レイヤー_1
 62
     7
370
    15
100
AcDbLine
 10
181.1383195620793
 20
105.2081272665959
 30
0.0
 11
180.3285029257157
 21
105.6766596302324
 31
0.0
  0
LINE
  5
7A2E
330
1F
100
AcDbEntity
  8
レイヤー_1
 62
     7
370
    15
100
AcDbLine
 10
180.3285029257157
 20
105.6766596302324
 30
0.0
 11
179.623573198443
 21
104.4552807211414
 31
0.0
  0
LINE
  5
7A2F
330
1F
100
AcDbEntity
  8
レイヤー_1
 62
     7
370
    15
100
AcDbLine
 10
179.623573198443
 20
104.4552807211414
 30
0.0
 11
179.3717367438975
 21
104.6000990847778
 31
0.0
  0
LINE
  5
7A30
330
1F
100
AcDbEntity
  8
レイヤー_1
 62
     7
370
    15
100
AcDbLine
 10
179.3717367438975
 20
104.6000990847778
 30
0.0
 11
180.2518329257157
 21
106.1270916302323
 31
0.0
  0
LINE
  5
7A31
330
1F
100
AcDbEntity
  8
レイヤー_1
 62
     7
370
    15
100
AcDbLine
 10
180.2518329257157
 20
106.1270916302323
 30
0.0
 11
182.5215554711702
 21
104.8162633575051
 31
0.0
  0
SPLINE
  5
7A32
330
1F
100
AcDbEntity
  8
レイヤー_1
 62
     7
370
    15
100
AcDbSpline
210
0.0
220
0.0
230
1.0
 70
     8
 71
     3
 72
    11
 73
     7
 74
     0
 42
0.000000001
 43
0.00000001
 40
0.0
 40
0.0
 40
0.0
 40
0.0
 40
1.0
 40
1.0
 40
1.0
 40
2.0
 40
2.0
 40
2.0
 40
2.0
 10
180.7587008829836
 20
102.0061303019495
 30
0.0
 10
180.7587008829836
 20
102.0061303019495
 30
0.0
 10
180.5239019660802
 20
101.7452426165013
 30
0.0
 10
180.5239019660802
 20
101.7452426165013
 30
0.0
 10
180.5239019660802
 20
101.7452426165013
 30
0.0
 10
179.1571699486403
 20
102.9751417050429
 30
0.0
 10
179.1571699486403
 20
102.9751417050429
 30
0.0
  0
SPLINE
  5
7A33
330
1F
100
AcDbEntity
  8
レイヤー_1
 62
     7
370
    15
100
AcDbSpline
210
0.0
220
0.0
230
1.0
 70
     8
 71
     3
 72
     8
 73
     4
 74
     0
 42
0.000000001
 43
0.00000001
 40
2.0
 40
2.0
 40
2.0
 40
2.0
 40
3.0
 40
3.0
 40
3.0
 40
3.0
 10
179.1571699486403
 20
102.9751417050429
 30
0.0
 10
179.0501527552216
 20
103.0720428453522
 30
0.0
 10
178.9330195086939
 20
103.1157016008762
 30
0.0
 10
178.8031080898176
 20
103.1082476670063
 30
0.0
  0
SPLINE
  5
7A34
330
1F
100
AcDbEntity
  8
レイヤー_1
 62
     7
370
    15
100
AcDbSpline
210
0.0
220
0.0
230
1.0
 70
     8
 71
     3
 72
     8
 73
     4
 74
     0
 42
0.000000001
 43
0.00000001
 40
3.0
 40
3.0
 40
3.0
 40
3.0
 40
4.0
 40
4.0
 40
4.0
 40
4.0
 10
178.8031080898176
 20
103.1082476670063
 30
0.0
 10
178.6439133593095
 20
103.101858580832
 30
0.0
 10
178.4921725626712
 20
103.0166707651756
 30
0.0
 10
178.3494829714464
 20
102.8569436108195
 30
0.0
  0
SPLINE
  5
7A35
330
1F
100
AcDbEntity
  8
レイヤー_1
 62
     7
370
    15
100
AcDbSpline
210
0.0
220
0.0
230
1.0
 70
     8
 71
     3
 72
     8
 73
     4
 74
     0
 42
0.000000001
 43
0.00000001
 40
4.0
 40
4.0
 40
4.0
 40
4.0
 40
5.0
 40
5.0
 40
5.0
 40
5.0
 10
178.3494829714464
 20
102.8569436108195
 30
0.0
 10
178.2057285325259
 20
102.6972164564633
 30
0.0
 10
178.1375782800007
 20
102.5396189974988
 30
0.0
 10
178.1471619092621
 20
102.3798918431426
 30
0.0
  0
SPLINE
  5
7A36
330
1F
100
AcDbEntity
  8
レイヤー_1
 62
     7
370
    15
100
AcDbSpline
210
0.0
220
0.0
230
1.0
 70
     8
 71
     3
 72
    17
 73
    13
 74
     0
 42
0.000000001
 43
0.00000001
 40
5.0
 40
5.0
 40
5.0
 40
5.0
 40
6.0
 40
6.0
 40
6.0
 40
7.0
 40
7.0
 40
7.0
 40
8.0
 40
8.0
 40
8.0
 40
9.0
 40
9.0
 40
9.0
 40
9.0
 10
178.1471619092621
 20
102.3798918431426
 30
0.0
 10
178.1530185715885
 20
102.2499804242665
 30
0.0
 10
178.2099879233088
 20
102.1381714162172
 30
0.0
 10
178.3159402690316
 20
102.0412702759079
 30
0.0
 10
178.3159402690316
 20
102.0412702759079
 30
0.0
 10
179.6832047103196
 20
100.8103063396705
 30
0.0
 10
179.6832047103196
 20
100.8103063396705
 30
0.0
 10
179.6832047103196
 20
100.8103063396705
 30
0.0
 10
179.4468085218726
 20
100.5494186542222
 30
0.0
 10
179.4468085218726
 20
100.5494186542222
 30
0.0
 10
179.4468085218726
 20
100.5494186542222
 30
0.0
 10
178.0683631797797
 20
101.7889013720253
 30
0.0
 10
178.0683631797797
 20
101.7889013720253
 30
0.0
  0
SPLINE
  5
7A37
330
1F
100
AcDbEntity
  8
レイヤー_1
 62
     7
370
    15
100
AcDbSpline
210
0.0
220
0.0
230
1.0
 70
     8
 71
     3
 72
     8
 73
     4
 74
     0
 42
0.000000001
 43
0.00000001
 40
9.0
 40
9.0
 40
9.0
 40
9.0
 40
10.0
 40
10.0
 40
10.0
 40
10.0
 10
178.0683631797797
 20
101.7889013720253
 30
0.0
 10
177.9022469392494
 20
101.9411745925114
 30
0.0
 10
177.8127997328101
 20
102.116874462303
 30
0.0
 10
177.8026836797008
 20
102.3181306767917
 30
0.0
  0
SPLINE
  5
7A38
330
1F
100
AcDbEntity
  8
レイヤー_1
 62
     7
370
    15
100
AcDbSpline
210
0.0
220
0.0
230
1.0
 70
     8
 71
     3
 72
     8
 73
     4
 74
     0
 42
0.000000001
 43
0.00000001
 40
10.0
 40
10.0
 40
10.0
 40
10.0
 40
11.0
 40
11.0
 40
11.0
 40
11.0
 10
177.8026836797008
 20
102.3181306767917
 30
0.0
 10
177.7904379312002
 20
102.5502674744558
 30
0.0
 10
177.9011820915537
 20
102.7941175967727
 30
0.0
 10
178.13278646537
 20
103.0507458914381
 30
0.0
  0
SPLINE
  5
7A39
330
1F
100
AcDbEntity
  8
レイヤー_1
 62
     7
370
    15
100
AcDbSpline
210
0.0
220
0.0
230
1.0
 70
     8
 71
     3
 72
     8
 73
     4
 74
     0
 42
0.000000001
 43
0.00000001
 40
11.0
 40
11.0
 40
11.0
 40
11.0
 40
12.0
 40
12.0
 40
12.0
 40
12.0
 10
178.13278646537
 20
103.0507458914381
 30
0.0
 10
178.3665205345778
 20
103.3105687291906
 30
0.0
 10
178.5970600606983
 20
103.4447395388498
 30
0.0
 10
178.8281320106667
 20
103.4575177111983
 30
0.0
  0
SPLINE
  5
7A3A
330
1F
100
AcDbEntity
  8
レイヤー_1
 62
     7
370
    15
100
AcDbSpline
210
0.0
220
0.0
230
1.0
 70
     8
 71
     3
 72
    11
 73
     7
 74
     0
 42
0.000000001
 43
0.00000001
 40
12.0
 40
12.0
 40
12.0
 40
12.0
 40
13.0
 40
13.0
 40
13.0
 40
14.0
 40
14.0
 40
14.0
 40
14.0
 10
178.8281320106667
 20
103.4575177111983
 30
0.0
 10
179.0299206490033
 20
103.4681661881553
 30
0.0
 10
179.2152041480563
 20
103.3978862402386
 30
0.0
 10
179.3807879647387
 20
103.2466778674483
 30
0.0
 10
179.3807879647387
 20
103.2466778674483
 30
0.0
 10
180.7587008829836
 20
102.0061303019495
 30
0.0
 10
180.7587008829836
 20
102.0061303019495
 30
0.0
  0
SPLINE
  5
7A3B
330
1F
100
AcDbEntity
  8
レイヤー_1
 62
     7
370
    15
100
AcDbSpline
210
0.0
220
0.0
230
1.0
 70
     8
 71
     3
 72
     8
 73
     4
 74
     0
 42
0.000000001
 43
0.00000001
 40
0.0
 40
0.0
 40
0.0
 40
0.0
 40
1.0
 40
1.0
 40
1.0
 40
1.0
 10
178.1178785976301
 20
99.61341752969574
 30
0.0
 10
178.0869980144547
 20
99.41322616290276
 30
0.0
 10
177.951229933252
 20
99.22581296845837
 30
0.0
 10
177.7116392017179
 20
99.05330764175378
 30
0.0
  0
SPLINE
  5
7A3C
330
1F
100
AcDbEntity
  8
レイヤー_1
 62
     7
370
    15
100
AcDbSpline
210
0.0
220
0.0
230
1.0
 70
     8
 71
     3
 72
     8
 73
     4
 74
     0
 42
0.000000001
 43
0.00000001
 40
1.0
 40
1.0
 40
1.0
 40
1.0
 40
2.0
 40
2.0
 40
2.0
 40
2.0
 10
177.7116392017179
 20
99.05330764175378
 30
0.0
 10
177.4550109070525
 20
98.8669592950051
 30
0.0
 10
177.213290480127
 20
98.79135510860985
 30
0.0
 10
176.9843482255499
 20
98.82755993026385
 30
0.0
  0
SPLINE
  5
7A3D
330
1F
100
AcDbEntity
  8
レイヤー_1
 62
     7
370
    15
100
AcDbSpline
210
0.0
220
0.0
230
1.0
 70
     8
 71
     3
 72
    11
 73
     7
 74
     0
 42
0.000000001
 43
0.00000001
 40
2.0
 40
2.0
 40
2.0
 40
2.0
 40
3.0
 40
3.0
 40
3.0
 40
4.0
 40
4.0
 40
4.0
 40
4.0
 10
176.9843482255499
 20
98.82755993026385
 30
0.0
 10
176.7852217064528
 20
98.85950536113509
 30
0.0
 10
176.6270918236402
 20
98.95321195835729
 30
0.0
 10
176.5136855440474
 20
99.10974456962626
 30
0.0
 10
176.5136855440474
 20
99.10974456962626
 30
0.0
 10
176.7995971503448
 20
99.31738987028913
 30
0.0
 10
176.7995971503448
 20
99.31738987028913
 30
0.0
  0
SPLINE
  5
7A3E
330
1F
100
AcDbEntity
  8
レイヤー_1
 62
     7
370
    15
100
AcDbSpline
210
0.0
220
0.0
230
1.0
 70
     8
 71
     3
 72
     8
 73
     4
 74
     0
 42
0.000000001
 43
0.00000001
 40
4.0
 40
4.0
 40
4.0
 40
4.0
 40
5.0
 40
5.0
 40
5.0
 40
5.0
 10
176.7995971503448
 20
99.31738987028913
 30
0.0
 10
176.8709419459572
 20
99.21835903458836
 30
0.0
 10
176.9641161193315
 20
99.15979241132456
 30
0.0
 10
177.07858724662
 20
99.1416900004975
 30
0.0
  0
SPLINE
  5
7A3F
330
1F
100
AcDbEntity
  8
レイヤー_1
 62
     7
370
    15
100
AcDbSpline
210
0.0
220
0.0
230
1.0
 70
     8
 71
     3
 72
     8
 73
     4
 74
     0
 42
0.000000001
 43
0.00000001
 40
5.0
 40
5.0
 40
5.0
 40
5.0
 40
6.0
 40
6.0
 40
6.0
 40
6.0
 10
177.07858724662
 20
99.1416900004975
 30
0.0
 10
177.2063689701048
 20
99.12145789427902
 30
0.0
 10
177.3495909851775
 20
99.16831119289017
 30
0.0
 10
177.5066560202943
 20
99.28224989633085
 30
0.0
  0
SPLINE
  5
7A40
330
1F
100
AcDbEntity
  8
レイヤー_1
 62
     7
370
    15
100
AcDbSpline
210
0.0
220
0.0
230
1.0
 70
     8
 71
     3
 72
     8
 73
     4
 74
     0
 42
0.000000001
 43
0.00000001
 40
6.0
 40
6.0
 40
6.0
 40
6.0
 40
7.0
 40
7.0
 40
7.0
 40
7.0
 10
177.5066560202943
 20
99.28224989633085
 30
0.0
 10
177.6802261946945
 20
99.4089667721199
 30
0.0
 10
177.7755300634603
 20
99.52822971403916
 30
0.0
 10
177.7936324742873
 20
99.64323326517555
 30
0.0
  0
SPLINE
  5
7A41
330
1F
100
AcDbEntity
  8
レイヤー_1
 62
     7
370
    15
100
AcDbSpline
210
0.0
220
0.0
230
1.0
 70
     8
 71
     3
 72
    11
 73
     7
 74
     0
 42
0.000000001
 43
0.00000001
 40
7.0
 40
7.0
 40
7.0
 40
7.0
 40
8.0
 40
8.0
 40
8.0
 40
9.0
 40
9.0
 40
9.0
 40
9.0
 10
177.7936324742873
 20
99.64323326517555
 30
0.0
 10
177.8101376135708
 20
99.74332894857193
 30
0.0
 10
177.7904379312002
 20
99.82958161192423
 30
0.0
 10
177.736663122567
 20
99.90412095062376
 30
0.0
 10
177.6828883139338
 20
99.97866028932319
 30
0.0
 10
177.627516233757
 20
100.0201893494559
 30
0.0
 10
177.569482034341
 20
100.0287081310215
 30
0.0
  0
SPLINE
  5
7A42
330
1F
100
AcDbEntity
  8
レイヤー_1
 62
     7
370
    15
100
AcDbSpline
210
0.0
220
0.0
230
1.0
 70
     8
 71
     3
 72
     8
 73
     4
 74
     0
 42
0.000000001
 43
0.00000001
 40
9.0
 40
9.0
 40
9.0
 40
9.0
 40
10.0
 40
10.0
 40
10.0
 40
10.0
 10
177.569482034341
 20
100.0287081310215
 30
0.0
 10
177.4970723910329
 20
100.0393566079785
 30
0.0
 10
177.3943145883972
 20
100.0276432833258
 30
0.0
 10
177.2564168118031
 20
99.99143846167178
 30
0.0
  0
SPLINE
  5
7A43
330
1F
100
AcDbEntity
  8
レイヤー_1
 62
     7
370
    15
100
AcDbSpline
210
0.0
220
0.0
230
1.0
 70
     8
 71
     3
 72
     8
 73
     4
 74
     0
 42
0.000000001
 43
0.00000001
 40
10.0
 40
10.0
 40
10.0
 40
10.0
 40
11.0
 40
11.0
 40
11.0
 40
11.0
 10
177.2564168118031
 20
99.99143846167178
 30
0.0
 10
177.006177603312
 20
99.9360663814949
 30
0.0
 10
176.722395692406
 20
99.87643491053538
 30
0.0
 10
176.4050710790853
 20
99.80828465801014
 30
0.0
  0
SPLINE
  5
7A44
330
1F
100
AcDbEntity
  8
レイヤー_1
 62
     7
370
    15
100
AcDbSpline
210
0.0
220
0.0
230
1.0
 70
     8
 71
     3
 72
     8
 73
     4
 74
     0
 42
0.000000001
 43
0.00000001
 40
11.0
 40
11.0
 40
11.0
 40
11.0
 40
12.0
 40
12.0
 40
12.0
 40
12.0
 10
176.4050710790853
 20
99.80828465801014
 30
0.0
 10
176.3204156872766
 20
99.78592285640022
 30
0.0
 10
176.228306361598
 20
99.78166346561747
 30
0.0
 10
176.1287431020493
 20
99.79657133335738
 30
0.0
  0
SPLINE
  5
7A45
330
1F
100
AcDbEntity
  8
レイヤー_1
 62
     7
370
    15
100
AcDbSpline
210
0.0
220
0.0
230
1.0
 70
     8
 71
     3
 72
     8
 73
     4
 74
     0
 42
0.000000001
 43
0.00000001
 40
12.0
 40
12.0
 40
12.0
 40
12.0
 40
13.0
 40
13.0
 40
13.0
 40
13.0
 10
176.1287431020493
 20
99.79657133335738
 30
0.0
 10
175.9732753384761
 20
99.82212767805433
 30
0.0
 10
175.8481557342305
 20
99.89560216905804
 30
0.0
 10
175.7576436800954
 20
100.0201893494559
 30
0.0
  0
SPLINE
  5
7A46
330
1F
100
AcDbEntity
  8
レイヤー_1
 62
     7
370
    15
100
AcDbSpline
210
0.0
220
0.0
230
1.0
 70
     8
 71
     3
 72
     8
 73
     4
 74
     0
 42
0.000000001
 43
0.00000001
 40
13.0
 40
13.0
 40
13.0
 40
13.0
 40
14.0
 40
14.0
 40
14.0
 40
14.0
 10
175.7576436800954
 20
100.0201893494559
 30
0.0
 10
175.638913162024
 20
100.1863055899862
 30
0.0
 10
175.5931247111087
 20
100.368394545952
 30
0.0
 10
175.6261349896756
 20
100.568585912745
 30
0.0
  0
SPLINE
  5
7A47
330
1F
100
AcDbEntity
  8
レイヤー_1
 62
     7
370
    15
100
AcDbSpline
210
0.0
220
0.0
230
1.0
 70
     8
 71
     3
 72
     8
 73
     4
 74
     0
 42
0.000000001
 43
0.00000001
 40
14.0
 40
14.0
 40
14.0
 40
14.0
 40
15.0
 40
15.0
 40
15.0
 40
15.0
 10
175.6261349896756
 20
100.568585912745
 30
0.0
 10
175.6586128443947
 20
100.7815554518864
 30
0.0
 10
175.8167427272072
 20
100.9902656002449
 30
0.0
 10
176.0973300950259
 20
101.1947163578207
 30
0.0
  0
SPLINE
  5
7A48
330
1F
100
AcDbEntity
  8
レイヤー_1
 62
     7
370
    15
100
AcDbSpline
210
0.0
220
0.0
230
1.0
 70
     8
 71
     3
 72
     8
 73
     4
 74
     0
 42
0.000000001
 43
0.00000001
 40
15.0
 40
15.0
 40
15.0
 40
15.0
 40
16.0
 40
16.0
 40
16.0
 40
16.0
 10
176.0973300950259
 20
101.1947163578207
 30
0.0
 10
176.3709959528227
 20
101.3927780292222
 30
0.0
 10
176.6356106052059
 20
101.4726416064003
 30
0.0
 10
176.8922388998713
 20
101.4311125462677
 30
0.0
  0
SPLINE
  5
7A49
330
1F
100
AcDbEntity
  8
レイヤー_1
 62
     7
370
    15
100
AcDbSpline
210
0.0
220
0.0
230
1.0
 70
     8
 71
     3
 72
    11
 73
     7
 74
     0
 42
0.000000001
 43
0.00000001
 40
16.0
 40
16.0
 40
16.0
 40
16.0
 40
17.0
 40
17.0
 40
17.0
 40
18.0
 40
18.0
 40
18.0
 40
18.0
 10
176.8922388998713
 20
101.4311125462677
 30
0.0
 10
177.07858724662
 20
101.4023616584836
 30
0.0
 10
177.245768334846
 20
101.2841635642601
 30
0.0
 10
177.3948470122451
 20
101.0775831112929
 30
0.0
 10
177.3948470122451
 20
101.0775831112929
 30
0.0
 10
177.1100002536434
 20
100.86993781063
 30
0.0
 10
177.1100002536434
 20
100.86993781063
 30
0.0
  0
SPLINE
  5
7A4A
330
1F
100
AcDbEntity
  8
レイヤー_1
 62
     7
370
    15
100
AcDbSpline
210
0.0
220
0.0
230
1.0
 70
     8
 71
     3
 72
     8
 73
     4
 74
     0
 42
0.000000001
 43
0.00000001
 40
18.0
 40
18.0
 40
18.0
 40
18.0
 40
19.0
 40
19.0
 40
19.0
 40
19.0
 10
177.1100002536434
 20
100.86993781063
 30
0.0
 10
177.0029830602248
 20
101.0200813357247
 30
0.0
 10
176.8917064760234
 20
101.1020746082941
 30
0.0
 10
176.7777677725828
 20
101.1212418668169
 30
0.0
  0
SPLINE
  5
7A4B
330
1F
100
AcDbEntity
  8
レイヤー_1
 62
     7
370
    15
100
AcDbSpline
210
0.0
220
0.0
230
1.0
 70
     8
 71
     3
 72
     8
 73
     4
 74
     0
 42
0.000000001
 43
0.00000001
 40
19.0
 40
19.0
 40
19.0
 40
19.0
 40
20.0
 40
20.0
 40
20.0
 40
20.0
 10
176.7777677725828
 20
101.1212418668169
 30
0.0
 10
176.6191054659225
 20
101.1457333638182
 30
0.0
 10
176.4466001392179
 20
101.0892964359457
 30
0.0
 10
176.2559924016863
 20
100.949801387808
 30
0.0
  0
SPLINE
  5
7A4C
330
1F
100
AcDbEntity
  8
レイヤー_1
 62
     7
370
    15
100
AcDbSpline
210
0.0
220
0.0
230
1.0
 70
     8
 71
     3
 72
     8
 73
     4
 74
     0
 42
0.000000001
 43
0.00000001
 40
20.0
 40
20.0
 40
20.0
 40
20.0
 40
21.0
 40
21.0
 40
21.0
 40
21.0
 10
176.2559924016863
 20
100.949801387808
 30
0.0
 10
176.0834870749817
 20
100.8241493597146
 30
0.0
 10
175.9833913915853
 20
100.6899785500555
 30
0.0
 10
175.9620944376712
 20
100.5472889588309
 30
0.0
  0
SPLINE
  5
7A4D
330
1F
100
AcDbEntity
  8
レイヤー_1
 62
     7
370
    15
100
AcDbSpline
210
0.0
220
0.0
230
1.0
 70
     8
 71
     3
 72
     8
 73
     4
 74
     0
 42
0.000000001
 43
0.00000001
 40
21.0
 40
21.0
 40
21.0
 40
21.0
 40
22.0
 40
22.0
 40
22.0
 40
22.0
 10
175.9620944376712
 20
100.5472889588309
 30
0.0
 10
175.9450568745398
 20
100.4344151030859
 30
0.0
 10
175.9583674707362
 20
100.3439030489508
 30
0.0
 10
176.0084153124345
 20
100.2778824918169
 30
0.0
  0
SPLINE
  5
7A4E
330
1F
100
AcDbEntity
  8
レイヤー_1
 62
     7
370
    15
100
AcDbSpline
210
0.0
220
0.0
230
1.0
 70
     8
 71
     3
 72
     8
 73
     4
 74
     0
 42
0.000000001
 43
0.00000001
 40
22.0
 40
22.0
 40
22.0
 40
22.0
 40
23.0
 40
23.0
 40
23.0
 40
23.0
 10
176.0084153124345
 20
100.2778824918169
 30
0.0
 10
176.0605928495241
 20
100.2033431531174
 30
0.0
 10
176.1319376451365
 20
100.1575547022021
 30
0.0
 10
176.2160606130973
 20
100.1447765298535
 30
0.0
  0
SPLINE
  5
7A4F
330
1F
100
AcDbEntity
  8
レイヤー_1
 62
     7
370
    15
100
AcDbSpline
210
0.0
220
0.0
230
1.0
 70
     8
 71
     3
 72
     8
 73
     4
 74
     0
 42
0.000000001
 43
0.00000001
 40
23.0
 40
23.0
 40
23.0
 40
23.0
 40
24.0
 40
24.0
 40
24.0
 40
24.0
 10
176.2160606130973
 20
100.1447765298535
 30
0.0
 10
176.2884702564054
 20
100.1330632052007
 30
0.0
 10
176.3837741251712
 20
100.1405171390707
 30
0.0
 10
176.5046343386339
 20
100.165008636072
 30
0.0
  0
SPLINE
  5
7A50
330
1F
100
AcDbEntity
  8
レイヤー_1
 62
     7
370
    15
100
AcDbSpline
210
0.0
220
0.0
230
1.0
 70
     8
 71
     3
 72
     8
 73
     4
 74
     0
 42
0.000000001
 43
0.00000001
 40
24.0
 40
24.0
 40
24.0
 40
24.0
 40
25.0
 40
25.0
 40
25.0
 40
25.0
 10
176.5046343386339
 20
100.165008636072
 30
0.0
 10
176.616975770531
 20
100.1841758945947
 30
0.0
 10
176.7612626332993
 20
100.2129267823788
 30
0.0
 10
176.9358976553953
 20
100.2512612994243
 30
0.0
  0
SPLINE
  5
7A51
330
1F
100
AcDbEntity
  8
レイヤー_1
 62
     7
370
    15
100
AcDbSpline
210
0.0
220
0.0
230
1.0
 70
     8
 71
     3
 72
     8
 73
     4
 74
     0
 42
0.000000001
 43
0.00000001
 40
25.0
 40
25.0
 40
25.0
 40
25.0
 40
26.0
 40
26.0
 40
26.0
 40
26.0
 10
176.9358976553953
 20
100.2512612994243
 30
0.0
 10
177.1312972075576
 20
100.2917255118611
 30
0.0
 10
177.2910243619136
 20
100.3247357904281
 30
0.0
 10
177.4113521515285
 20
100.350292135125
 30
0.0
  0
SPLINE
  5
7A52
330
1F
100
AcDbEntity
  8
レイヤー_1
 62
     7
370
    15
100
AcDbSpline
210
0.0
220
0.0
230
1.0
 70
     8
 71
     3
 72
     8
 73
     4
 74
     0
 42
0.000000001
 43
0.00000001
 40
26.0
 40
26.0
 40
26.0
 40
26.0
 40
27.0
 40
27.0
 40
27.0
 40
27.0
 10
177.4113521515285
 20
100.350292135125
 30
0.0
 10
177.4970723910329
 20
100.3747836321263
 30
0.0
 10
177.5811953589937
 20
100.3790430229091
 30
0.0
 10
177.667448022346
 20
100.3662648505606
 30
0.0
  0
SPLINE
  5
7A53
330
1F
100
AcDbEntity
  8
レイヤー_1
 62
     7
370
    15
100
AcDbSpline
210
0.0
220
0.0
230
1.0
 70
     8
 71
     3
 72
     8
 73
     4
 74
     0
 42
0.000000001
 43
0.00000001
 40
27.0
 40
27.0
 40
27.0
 40
27.0
 40
28.0
 40
28.0
 40
28.0
 40
28.0
 10
177.667448022346
 20
100.3662648505606
 30
0.0
 10
177.7952297458309
 20
100.3449678966465
 30
0.0
 10
177.9049090584887
 20
100.2725582533384
 30
0.0
 10
177.9943562649281
 20
100.1490359206364
 30
0.0
  0
SPLINE
  5
7A54
330
1F
100
AcDbEntity
  8
レイヤー_1
 62
     7
370
    15
100
AcDbSpline
210
0.0
220
0.0
230
1.0
 70
     8
 71
     3
 72
     8
 73
     4
 74
     0
 42
0.000000001
 43
0.00000001
 40
28.0
 40
28.0
 40
28.0
 40
28.0
 40
29.0
 40
29.0
 40
29.0
 40
29.0
 10
177.9943562649281
 20
100.1490359206364
 30
0.0
 10
178.1082949683687
 20
99.99143846167178
 30
0.0
 10
178.1492916046535
 20
99.8136088964886
 30
0.0
 10
178.1178785976301
 20
99.61341752969574
 30
0.0
  0
LINE
  5
7A55
330
1F
100
AcDbEntity
  8
レイヤー_1
 62
     7
370
    15
100
AcDbLine
 10
175.696947198443
 20
97.77549081205049
 30
0.0
 11
174.1571768348066
 21
97.08972781205054
 31
0.0
  0
LINE
  5
7A56
330
1F
100
AcDbEntity
  8
レイヤー_1
 62
     7
370
    15
100
AcDbLine
 10
174.1571768348066
 20
97.08972781205054
 30
0.0
 11
174.0389789257157
 21
97.35487526659594
 31
0.0
  0
LINE
  5
7A57
330
1F
100
AcDbEntity
  8
レイヤー_1
 62
     7
370
    15
100
AcDbLine
 10
174.0389789257157
 20
97.35487526659594
 30
0.0
 11
175.2571649257157
 21
97.89901281205059
 31
0.0
  0
LINE
  5
7A58
330
1F
100
AcDbEntity
  8
レイヤー_1
 62
     7
370
    15
100
AcDbLine
 10
175.2571649257157
 20
97.89901281205059
 30
0.0
 11
174.9275951984429
 21
98.64014635750513
 31
0.0
  0
LINE
  5
7A59
330
1F
100
AcDbEntity
  8
レイヤー_1
 62
     7
370
    15
100
AcDbLine
 10
174.9275951984429
 20
98.64014635750513
 30
0.0
 11
173.7919349257157
 21
98.1364734484142
 31
0.0
  0
LINE
  5
7A5A
330
1F
100
AcDbEntity
  8
レイヤー_1
 62
     7
370
    15
100
AcDbLine
 10
173.7919349257157
 20
98.1364734484142
 30
0.0
 11
173.6732038348066
 21
98.40162090295959
 31
0.0
  0
LINE
  5
7A5B
330
1F
100
AcDbEntity
  8
レイヤー_1
 62
     7
370
    15
100
AcDbLine
 10
173.6732038348066
 20
98.40162090295959
 30
0.0
 11
174.8083324711702
 21
98.90529381205053
 31
0.0
  0
LINE
  5
7A5C
330
1F
100
AcDbEntity
  8
レイヤー_1
 62
     7
370
    15
100
AcDbLine
 10
174.8083324711702
 20
98.90529381205053
 30
0.0
 11
174.4281815620793
 21
99.7603659938687
 31
0.0
  0
LINE
  5
7A5D
330
1F
100
AcDbEntity
  8
レイヤー_1
 62
     7
370
    15
100
AcDbLine
 10
174.4281815620793
 20
99.7603659938687
 30
0.0
 11
173.1402476529884
 21
99.1864135393233
 31
0.0
  0
LINE
  5
7A5E
330
1F
100
AcDbEntity
  8
レイヤー_1
 62
     7
370
    15
100
AcDbLine
 10
173.1402476529884
 20
99.1864135393233
 30
0.0
 11
173.0220497438975
 21
99.4515609938687
 31
0.0
  0
LINE
  5
7A5F
330
1F
100
AcDbEntity
  8
レイヤー_1
 62
     7
370
    15
100
AcDbLine
 10
173.0220497438975
 20
99.4515609938687
 30
0.0
 11
174.6310348348066
 21
100.1703333575051
 31
0.0
  0
LINE
  5
7A60
330
1F
100
AcDbEntity
  8
レイヤー_1
 62
     7
370
    15
100
AcDbLine
 10
174.6310348348066
 20
100.1703333575051
 30
0.0
 11
175.696947198443
 21
97.77549081205049
 31
0.0
  0
SPLINE
  5
7A61
330
1F
100
AcDbEntity
  8
レイヤー_1
 62
     7
370
    15
100
AcDbSpline
210
0.0
220
0.0
230
1.0
 70
     8
 71
     3
 72
    11
 73
     7
 74
     0
 42
0.000000001
 43
0.00000001
 40
0.0
 40
0.0
 40
0.0
 40
0.0
 40
1.0
 40
1.0
 40
1.0
 40
2.0
 40
2.0
 40
2.0
 40
2.0
 10
165.7528671550796
 20
96.44975502575002
 30
0.0
 10
165.7528671550796
 20
96.44975502575002
 30
0.0
 10
165.9631745749818
 20
97.43793368736621
 30
0.0
 10
165.9631745749818
 20
97.43793368736621
 30
0.0
 10
165.9631745749818
 20
97.43793368736621
 30
0.0
 10
165.1831736378763
 20
97.60404992789651
 30
0.0
 10
165.1831736378763
 20
97.60404992789651
 30
0.0
  0
SPLINE
  5
7A62
330
1F
100
AcDbEntity
  8
レイヤー_1
 62
     7
370
    15
100
AcDbSpline
210
0.0
220
0.0
230
1.0
 70
     8
 71
     3
 72
     8
 73
     4
 74
     0
 42
0.000000001
 43
0.00000001
 40
2.0
 40
2.0
 40
2.0
 40
2.0
 40
3.0
 40
3.0
 40
3.0
 40
3.0
 10
165.1831736378763
 20
97.60404992789651
 30
0.0
 10
165.0436785897387
 20
97.63386566337621
 30
0.0
 10
164.9249480716674
 20
97.61682810024499
 30
0.0
 10
164.8280469313581
 20
97.55400208619821
 30
0.0
  0
SPLINE
  5
7A63
330
1F
100
AcDbEntity
  8
レイヤー_1
 62
     7
370
    15
100
AcDbSpline
210
0.0
220
0.0
230
1.0
 70
     8
 71
     3
 72
     8
 73
     4
 74
     0
 42
0.000000001
 43
0.00000001
 40
3.0
 40
3.0
 40
3.0
 40
3.0
 40
4.0
 40
4.0
 40
4.0
 40
4.0
 10
164.8280469313581
 20
97.55400208619821
 30
0.0
 10
164.7189000425481
 20
97.48372213828154
 30
0.0
 10
164.6486200946314
 20
97.372977977928
 30
0.0
 10
164.6166746637602
 20
97.22283445283333
 30
0.0
  0
SPLINE
  5
7A64
330
1F
100
AcDbEntity
  8
レイヤー_1
 62
     7
370
    15
100
AcDbSpline
210
0.0
220
0.0
230
1.0
 70
     8
 71
     3
 72
     8
 73
     4
 74
     0
 42
0.000000001
 43
0.00000001
 40
4.0
 40
4.0
 40
4.0
 40
4.0
 40
5.0
 40
5.0
 40
5.0
 40
5.0
 10
164.6166746637602
 20
97.22283445283333
 30
0.0
 10
164.581002265954
 20
97.05352366921588
 30
0.0
 10
164.5937804383025
 20
96.92041770725254
 30
0.0
 10
164.6571388761971
 20
96.8235165669432
 30
0.0
  0
SPLINE
  5
7A65
330
1F
100
AcDbEntity
  8
レイヤー_1
 62
     7
370
    15
100
AcDbSpline
210
0.0
220
0.0
230
1.0
 70
     8
 71
     3
 72
    11
 73
     7
 74
     0
 42
0.000000001
 43
0.00000001
 40
5.0
 40
5.0
 40
5.0
 40
5.0
 40
6.0
 40
6.0
 40
6.0
 40
7.0
 40
7.0
 40
7.0
 40
7.0
 10
164.6571388761971
 20
96.8235165669432
 30
0.0
 10
164.7274188241137
 20
96.71383725428538
 30
0.0
 10
164.8333711698365
 20
96.64462215406442
 30
0.0
 10
164.973398641822
 20
96.6148064185846
 30
0.0
 10
164.973398641822
 20
96.6148064185846
 30
0.0
 10
165.7528671550796
 20
96.44975502575002
 30
0.0
 10
165.7528671550796
 20
96.44975502575002
 30
0.0
  0
SPLINE
  5
7A66
330
1F
100
AcDbEntity
  8
レイヤー_1
 62
     7
370
    15
100
AcDbSpline
210
0.0
220
0.0
230
1.0
 70
    24
 71
     3
 72
     8
 73
     4
 74
     0
 42
0.000000001
 43
0.00000001
 40
0.0
 40
0.0
 40
0.0
 40
0.0
 40
1.0
 40
1.0
 40
1.0
 40
1.0
 10
166.0371814898334
 20
96.09090135229675
 30
0.0
 10
166.0371814898334
 20
96.09090135229675
 30
0.0
 10
164.8376305606194
 20
96.34646479926639
 30
0.0
 10
164.8376305606194
 20
96.34646479926639
 30
0.0
  0
SPLINE
  5
7A67
330
1F
100
AcDbEntity
  8
レイヤー_1
 62
     7
370
    15
100
AcDbSpline
210
0.0
220
0.0
230
1.0
 70
     8
 71
     3
 72
     8
 73
     4
 74
     0
 42
0.000000001
 43
0.00000001
 40
1.0
 40
1.0
 40
1.0
 40
1.0
 40
2.0
 40
2.0
 40
2.0
 40
2.0
 10
164.8376305606194
 20
96.34646479926639
 30
0.0
 10
164.6182719353038
 20
96.39225325018182
 30
0.0
 10
164.4532205424692
 20
96.50086771514393
 30
0.0
 10
164.3430088059635
 20
96.67017849876137
 30
0.0
  0
SPLINE
  5
7A68
330
1F
100
AcDbEntity
  8
レイヤー_1
 62
     7
370
    15
100
AcDbSpline
210
0.0
220
0.0
230
1.0
 70
     8
 71
     3
 72
     8
 73
     4
 74
     0
 42
0.000000001
 43
0.00000001
 40
2.0
 40
2.0
 40
2.0
 40
2.0
 40
3.0
 40
3.0
 40
3.0
 40
3.0
 10
164.3430088059635
 20
96.67017849876137
 30
0.0
 10
164.23226464561
 20
96.84055413007454
 30
0.0
 10
164.2040461816737
 20
97.05032912612884
 30
0.0
 10
164.2572885664591
 20
97.2995034869243
 30
0.0
  0
SPLINE
  5
7A69
330
1F
100
AcDbEntity
  8
レイヤー_1
 62
     7
370
    15
100
AcDbSpline
210
0.0
220
0.0
230
1.0
 70
     8
 71
     3
 72
     8
 73
     4
 74
     0
 42
0.000000001
 43
0.00000001
 40
3.0
 40
3.0
 40
3.0
 40
3.0
 40
4.0
 40
4.0
 40
4.0
 40
4.0
 10
164.2572885664591
 20
97.2995034869243
 30
0.0
 10
164.3105309512444
 20
97.54974269541546
 30
0.0
 10
164.4148860254237
 20
97.72544256520709
 30
0.0
 10
164.573548332084
 20
97.82873279169061
 30
0.0
  0
SPLINE
  5
7A6A
330
1F
100
AcDbEntity
  8
レイヤー_1
 62
     7
370
    15
100
AcDbSpline
210
0.0
220
0.0
230
1.0
 70
     8
 71
     3
 72
    20
 73
    16
 74
     0
 42
0.000000001
 43
0.00000001
 40
4.0
 40
4.0
 40
4.0
 40
4.0
 40
5.0
 40
5.0
 40
5.0
 40
6.0
 40
6.0
 40
6.0
 40
7.0
 40
7.0
 40
7.0
 40
8.0
 40
8.0
 40
8.0
 40
9.0
 40
9.0
 40
9.0
 40
9.0
 10
164.573548332084
 20
97.82873279169061
 30
0.0
 10
164.7306133672009
 20
97.93095817047853
 30
0.0
 10
164.929739886298
 20
97.95651451517548
 30
0.0
 10
165.1693306178321
 20
97.90540182578158
 30
0.0
 10
165.1693306178321
 20
97.90540182578158
 30
0.0
 10
166.0238708936371
 20
97.72331286981566
 30
0.0
 10
166.0238708936371
 20
97.72331286981566
 30
0.0
 10
166.0238708936371
 20
97.72331286981566
 30
0.0
 10
166.2373728566263
 20
98.72852909456319
 30
0.0
 10
166.2373728566263
 20
98.72852909456319
 30
0.0
 10
166.2373728566263
 20
98.72852909456319
 30
0.0
 10
166.5818510861876
 20
98.65505460355936
 30
0.0
 10
166.5818510861876
 20
98.65505460355936
 30
0.0
 10
166.5818510861876
 20
98.65505460355936
 30
0.0
 10
166.0371814898334
 20
96.09090135229675
 30
0.0
 10
166.0371814898334
 20
96.09090135229675
 30
0.0
  0
LINE
  5
7A6B
330
1F
100
AcDbEntity
  8
レイヤー_1
 62
     7
370
    15
100
AcDbLine
 10
161.9226106529885
 20
97.8223443575051
 30
0.0
 11
162.7169866529884
 21
98.62523890295958
 31
0.0
  0
LINE
  5
7A6C
330
1F
100
AcDbEntity
  8
レイヤー_1
 62
     7
370
    15
100
AcDbLine
 10
162.7169866529884
 20
98.62523890295958
 30
0.0
 11
161.9880977438975
 21
98.95001772114139
 31
0.0
  0
LINE
  5
7A6D
330
1F
100
AcDbEntity
  8
レイヤー_1
 62
     7
370
    15
100
AcDbLine
 10
161.9880977438975
 20
98.95001772114139
 30
0.0
 11
161.9226106529885
 21
97.8223443575051
 31
0.0
  0
LINE
  5
7A6E
330
1F
100
AcDbEntity
  8
レイヤー_1
 62
     7
370
    15
100
AcDbLine
 10
163.887254289352
 20
99.29502808477784
 30
0.0
 11
161.8565888348066
 21
97.29737353932327
 31
0.0
  0
LINE
  5
7A6F
330
1F
100
AcDbEntity
  8
レイヤー_1
 62
     7
370
    15
100
AcDbLine
 10
161.8565888348066
 20
97.29737353932327
 30
0.0
 11
161.5765339257157
 21
97.42196035750507
 31
0.0
  0
LINE
  5
7A70
330
1F
100
AcDbEntity
  8
レイヤー_1
 62
     7
370
    15
100
AcDbLine
 10
161.5765339257157
 20
97.42196035750507
 30
0.0
 11
161.7032519257157
 21
100.2682981756869
 31
0.0
  0
LINE
  5
7A71
330
1F
100
AcDbEntity
  8
レイヤー_1
 62
     7
370
    15
100
AcDbLine
 10
161.7032519257157
 20
100.2682981756869
 30
0.0
 11
162.0392105620793
 21
100.1181557211414
 31
0.0
  0
LINE
  5
7A72
330
1F
100
AcDbEntity
  8
レイヤー_1
 62
     7
370
    15
100
AcDbLine
 10
162.0392105620793
 20
100.1181557211414
 30
0.0
 11
162.0093956529884
 21
99.25988753932322
 31
0.0
  0
LINE
  5
7A73
330
1F
100
AcDbEntity
  8
レイヤー_1
 62
     7
370
    15
100
AcDbLine
 10
162.0093956529884
 20
99.25988753932322
 30
0.0
 11
162.9331509257157
 21
98.84779208477775
 31
0.0
  0
LINE
  5
7A74
330
1F
100
AcDbEntity
  8
レイヤー_1
 62
     7
370
    15
100
AcDbLine
 10
162.9331509257157
 20
98.84779208477775
 30
0.0
 11
163.5507624711702
 21
99.4451720847778
 31
0.0
  0
LINE
  5
7A75
330
1F
100
AcDbEntity
  8
レイヤー_1
 62
     7
370
    15
100
AcDbLine
 10
163.5507624711702
 20
99.4451720847778
 30
0.0
 11
163.887254289352
 21
99.29502808477784
 31
0.0
  0
LINE
  5
7A76
330
1F
100
AcDbEntity
  8
レイヤー_1
 62
     7
370
    15
100
AcDbLine
 10
159.841897198443
 20
98.35902663023236
 30
0.0
 11
158.1429326529884
 21
99.59318490295956
 31
0.0
  0
LINE
  5
7A77
330
1F
100
AcDbEntity
  8
レイヤー_1
 62
     7
370
    15
100
AcDbLine
 10
158.1429326529884
 20
99.59318490295956
 30
0.0
 11
158.3143730166248
 21
99.8285174484142
 31
0.0
  0
LINE
  5
7A78
330
1F
100
AcDbEntity
  8
レイヤー_1
 62
     7
370
    15
100
AcDbLine
 10
158.3143730166248
 20
99.8285174484142
 30
0.0
 11
159.0214323802612
 21
99.31525963023236
 31
0.0
  0
LINE
  5
7A79
330
1F
100
AcDbEntity
  8
レイヤー_1
 62
     7
370
    15
100
AcDbLine
 10
159.0214323802612
 20
99.31525963023236
 30
0.0
 11
160.390827198443
 21
101.2000403575051
 31
0.0
  0
LINE
  5
7A7A
330
1F
100
AcDbEntity
  8
レイヤー_1
 62
     7
370
    15
100
AcDbLine
 10
160.390827198443
 20
101.2000403575051
 30
0.0
 11
160.6756730166248
 21
100.9934594484142
 31
0.0
  0
LINE
  5
7A7B
330
1F
100
AcDbEntity
  8
レイヤー_1
 62
     7
370
    15
100
AcDbLine
 10
160.6756730166248
 20
100.9934594484142
 30
0.0
 11
159.3062797438975
 21
99.10761544841418
 31
0.0
  0
LINE
  5
7A7C
330
1F
100
AcDbEntity
  8
レイヤー_1
 62
     7
370
    15
100
AcDbLine
 10
159.3062797438975
 20
99.10761544841418
 30
0.0
 11
160.0128059257157
 21
98.59435763023234
 31
0.0
  0
LINE
  5
7A7D
330
1F
100
AcDbEntity
  8
レイヤー_1
 62
     7
370
    15
100
AcDbLine
 10
160.0128059257157
 20
98.59435763023234
 30
0.0
 11
159.841897198443
 21
98.35902663023236
 31
0.0
  0
LINE
  5
7A7E
330
1F
100
AcDbEntity
  8
レイヤー_1
 62
     7
370
    15
100
AcDbLine
 10
155.5920903802611
 20
104.0112391756869
 30
0.0
 11
156.1958592893521
 21
104.2529590847778
 31
0.0
  0
LINE
  5
7A7F
330
1F
100
AcDbEntity
  8
レイヤー_1
 62
     7
370
    15
100
AcDbLine
 10
156.1958592893521
 20
104.2529590847778
 30
0.0
 11
155.9434896529884
 21
104.6916765393232
 31
0.0
  0
LINE
  5
7A80
330
1F
100
AcDbEntity
  8
レイヤー_1
 62
     7
370
    15
100
AcDbLine
 10
155.9434896529884
 20
104.6916765393232
 30
0.0
 11
155.3397222893521
 21
104.4499550847778
 31
0.0
  0
LINE
  5
7A81
330
1F
100
AcDbEntity
  8
レイヤー_1
 62
     7
370
    15
100
AcDbLine
 10
155.3397222893521
 20
104.4499550847778
 30
0.0
 11
155.5920903802611
 21
104.0112391756869
 31
0.0
  0
LINE
  5
7A82
330
1F
100
AcDbEntity
  8
レイヤー_1
 62
     7
370
    15
100
AcDbLine
 10
155.0644582893521
 20
104.3434717211414
 30
0.0
 11
154.4212911075339
 21
104.078324266596
 31
0.0
  0
LINE
  5
7A83
330
1F
100
AcDbEntity
  8
レイヤー_1
 62
     7
370
    15
100
AcDbLine
 10
154.4212911075339
 20
104.078324266596
 30
0.0
 11
154.299897198443
 21
104.290229266596
 31
0.0
  0
LINE
  5
7A84
330
1F
100
AcDbEntity
  8
レイヤー_1
 62
     7
370
    15
100
AcDbLine
 10
154.299897198443
 20
104.290229266596
 30
0.0
 11
154.9420011075339
 21
104.5553751756869
 31
0.0
  0
LINE
  5
7A85
330
1F
100
AcDbEntity
  8
レイヤー_1
 62
     7
370
    15
100
AcDbLine
 10
154.9420011075339
 20
104.5553751756869
 30
0.0
 11
154.7961163802611
 21
104.8066799938688
 31
0.0
  0
LINE
  5
7A86
330
1F
100
AcDbEntity
  8
レイヤー_1
 62
     7
370
    15
100
AcDbLine
 10
154.7961163802611
 20
104.8066799938688
 30
0.0
 11
155.0484860166248
 21
104.9536279938687
 31
0.0
  0
LINE
  5
7A87
330
1F
100
AcDbEntity
  8
レイヤー_1
 62
     7
370
    15
100
AcDbLine
 10
155.0484860166248
 20
104.9536279938687
 30
0.0
 11
155.2172635620793
 21
104.6618600847778
 31
0.0
  0
LINE
  5
7A88
330
1F
100
AcDbEntity
  8
レイヤー_1
 62
     7
370
    15
100
AcDbLine
 10
155.2172635620793
 20
104.6618600847778
 30
0.0
 11
155.8210324711702
 21
104.9035815393232
 31
0.0
  0
LINE
  5
7A89
330
1F
100
AcDbEntity
  8
レイヤー_1
 62
     7
370
    15
100
AcDbLine
 10
155.8210324711702
 20
104.9035815393232
 30
0.0
 11
155.6059330166248
 21
105.2752123575051
 31
0.0
  0
LINE
  5
7A8A
330
1F
100
AcDbEntity
  8
レイヤー_1
 62
     7
370
    15
100
AcDbLine
 10
155.6059330166248
 20
105.2752123575051
 30
0.0
 11
155.8583026529884
 21
105.4210970847778
 31
0.0
  0
LINE
  5
7A8B
330
1F
100
AcDbEntity
  8
レイヤー_1
 62
     7
370
    15
100
AcDbLine
 10
155.8583026529884
 20
105.4210970847778
 30
0.0
 11
156.0872447438975
 21
105.022844266596
 31
0.0
  0
LINE
  5
7A8C
330
1F
100
AcDbEntity
  8
レイヤー_1
 62
     7
370
    15
100
AcDbLine
 10
156.0872447438975
 20
105.022844266596
 30
0.0
 11
156.7522414711702
 21
105.2826660847778
 31
0.0
  0
LINE
  5
7A8D
330
1F
100
AcDbEntity
  8
レイヤー_1
 62
     7
370
    15
100
AcDbLine
 10
156.7522414711702
 20
105.2826660847778
 30
0.0
 11
156.874700198443
 21
105.0707626302323
 31
0.0
  0
LINE
  5
7A8E
330
1F
100
AcDbEntity
  8
レイヤー_1
 62
     7
370
    15
100
AcDbLine
 10
156.874700198443
 20
105.0707626302323
 30
0.0
 11
156.2102351075338
 21
104.8098744484142
 31
0.0
  0
LINE
  5
7A8F
330
1F
100
AcDbEntity
  8
レイヤー_1
 62
     7
370
    15
100
AcDbLine
 10
156.2102351075338
 20
104.8098744484142
 30
0.0
 11
156.4631363802611
 21
104.3711569938687
 31
0.0
  0
LINE
  5
7A90
330
1F
100
AcDbEntity
  8
レイヤー_1
 62
     7
370
    15
100
AcDbLine
 10
156.4631363802611
 20
104.3711569938687
 30
0.0
 11
157.1276014711702
 21
104.6320451756869
 31
0.0
  0
LINE
  5
7A91
330
1F
100
AcDbEntity
  8
レイヤー_1
 62
     7
370
    15
100
AcDbLine
 10
157.1276014711702
 20
104.6320451756869
 30
0.0
 11
157.2500586529884
 21
104.4201401756869
 31
0.0
  0
LINE
  5
7A92
330
1F
100
AcDbEntity
  8
レイヤー_1
 62
     7
370
    15
100
AcDbLine
 10
157.2500586529884
 20
104.4201401756869
 30
0.0
 11
156.5850603802612
 21
104.1592519938688
 31
0.0
  0
LINE
  5
7A93
330
1F
100
AcDbEntity
  8
レイヤー_1
 62
     7
370
    15
100
AcDbLine
 10
156.5850603802612
 20
104.1592519938688
 30
0.0
 11
156.7394636529884
 21
103.8941045393233
 31
0.0
  0
LINE
  5
7A94
330
1F
100
AcDbEntity
  8
レイヤー_1
 62
     7
370
    15
100
AcDbLine
 10
156.7394636529884
 20
103.8941045393233
 30
0.0
 11
156.487627198443
 21
103.7492861756869
 31
0.0
  0
LINE
  5
7A95
330
1F
100
AcDbEntity
  8
レイヤー_1
 62
     7
370
    15
100
AcDbLine
 10
156.487627198443
 20
103.7492861756869
 30
0.0
 11
156.3183164711702
 21
104.0410540847778
 31
0.0
  0
LINE
  5
7A96
330
1F
100
AcDbEntity
  8
レイヤー_1
 62
     7
370
    15
100
AcDbLine
 10
156.3183164711702
 20
104.0410540847778
 30
0.0
 11
155.7150807438975
 21
103.7993341756869
 31
0.0
  0
LINE
  5
7A97
330
1F
100
AcDbEntity
  8
レイヤー_1
 62
     7
370
    15
100
AcDbLine
 10
155.7150807438975
 20
103.7993341756869
 30
0.0
 11
155.9296470166248
 21
103.4266369938688
 31
0.0
  0
LINE
  5
7A98
330
1F
100
AcDbEntity
  8
レイヤー_1
 62
     7
370
    15
100
AcDbLine
 10
155.9296470166248
 20
103.4266369938688
 30
0.0
 11
155.6772789257157
 21
103.2818170847778
 31
0.0
  0
LINE
  5
7A99
330
1F
100
AcDbEntity
  8
レイヤー_1
 62
     7
370
    15
100
AcDbLine
 10
155.6772789257157
 20
103.2818170847778
 30
0.0
 11
155.4398167438976
 21
103.6917844484142
 31
0.0
  0
LINE
  5
7A9A
330
1F
100
AcDbEntity
  8
レイヤー_1
 62
     7
370
    15
100
AcDbLine
 10
155.4398167438976
 20
103.6917844484142
 30
0.0
 11
154.797181198443
 21
103.4277018120506
 31
0.0
  0
LINE
  5
7A9B
330
1F
100
AcDbEntity
  8
レイヤー_1
 62
     7
370
    15
100
AcDbLine
 10
154.797181198443
 20
103.4277018120506
 30
0.0
 11
154.6747240166248
 21
103.6406716302324
 31
0.0
  0
LINE
  5
7A9C
330
1F
100
AcDbEntity
  8
レイヤー_1
 62
     7
370
    15
100
AcDbLine
 10
154.6747240166248
 20
103.6406716302324
 30
0.0
 11
155.3168279257157
 21
103.904754266596
 31
0.0
  0
LINE
  5
7A9D
330
1F
100
AcDbEntity
  8
レイヤー_1
 62
     7
370
    15
100
AcDbLine
 10
155.3168279257157
 20
103.904754266596
 30
0.0
 11
155.0644582893521
 21
104.3434717211414
 31
0.0
  0
SPLINE
  5
7A9E
330
1F
100
AcDbEntity
  8
レイヤー_1
 62
     7
370
    15
100
AcDbSpline
210
0.0
220
0.0
230
1.0
 70
     8
 71
     3
 72
    17
 73
    13
 74
     0
 42
0.000000001
 43
0.00000001
 40
0.0
 40
0.0
 40
0.0
 40
0.0
 40
1.0
 40
1.0
 40
1.0
 40
2.0
 40
2.0
 40
2.0
 40
3.0
 40
3.0
 40
3.0
 40
4.0
 40
4.0
 40
4.0
 40
4.0
 10
152.6264896100985
 20
109.2545485666276
 30
0.0
 10
152.6264896100985
 20
109.2545485666276
 30
0.0
 10
152.4885918335045
 20
110.5664409277386
 30
0.0
 10
152.4885918335045
 20
110.5664409277386
 30
0.0
 10
152.4885918335045
 20
110.5664409277386
 30
0.0
 10
152.777697982889
 20
110.5962566632184
 30
0.0
 10
152.777697982889
 20
110.5962566632184
 30
0.0
 10
152.777697982889
 20
110.5962566632184
 30
0.0
 10
152.8857800240032
 20
109.5750677230354
 30
0.0
 10
152.8857800240032
 20
109.5750677230354
 30
0.0
 10
152.8857800240032
 20
109.5750677230354
 30
0.0
 10
152.9310360510707
 20
109.5803919615139
 30
0.0
 10
152.9310360510707
 20
109.5803919615139
 30
0.0
  0
SPLINE
  5
7A9F
330
1F
100
AcDbEntity
  8
レイヤー_1
 62
     7
370
    15
100
AcDbSpline
210
0.0
220
0.0
230
1.0
 70
     8
 71
     3
 72
     8
 73
     4
 74
     0
 42
0.000000001
 43
0.00000001
 40
4.0
 40
4.0
 40
4.0
 40
4.0
 40
5.0
 40
5.0
 40
5.0
 40
5.0
 10
152.9310360510707
 20
109.5803919615139
 30
0.0
 10
153.1248383316895
 20
109.5910404384709
 30
0.0
 10
153.3143812215254
 20
109.5952998292538
 30
0.0
 10
153.5001971444262
 20
109.5942349815581
 30
0.0
  0
SPLINE
  5
7AA0
330
1F
100
AcDbEntity
  8
レイヤー_1
 62
     7
370
    15
100
AcDbSpline
210
0.0
220
0.0
230
1.0
 70
     8
 71
     3
 72
     8
 73
     4
 74
     0
 42
0.000000001
 43
0.00000001
 40
5.0
 40
5.0
 40
5.0
 40
5.0
 40
6.0
 40
6.0
 40
6.0
 40
6.0
 10
153.5001971444262
 20
109.5942349815581
 30
0.0
 10
153.530012879906
 20
109.5867810476882
 30
0.0
 10
153.5619583107772
 20
109.583586504601
 30
0.0
 10
153.5928388939528
 20
109.5867810476882
 30
0.0
  0
SPLINE
  5
7AA1
330
1F
100
AcDbEntity
  8
レイヤー_1
 62
     7
370
    15
100
AcDbSpline
210
0.0
220
0.0
230
1.0
 70
     8
 71
     3
 72
     8
 73
     4
 74
     0
 42
0.000000001
 43
0.00000001
 40
6.0
 40
6.0
 40
6.0
 40
6.0
 40
7.0
 40
7.0
 40
7.0
 40
7.0
 10
153.5928388939528
 20
109.5867810476882
 30
0.0
 10
153.4570708127501
 20
109.707108837303
 30
0.0
 10
153.3798693548113
 20
109.8434093423535
 30
0.0
 10
153.3649614870714
 20
109.9956825628396
 30
0.0
  0
SPLINE
  5
7AA2
330
1F
100
AcDbEntity
  8
レイヤー_1
 62
     7
370
    15
100
AcDbSpline
210
0.0
220
0.0
230
1.0
 70
     8
 71
     3
 72
     8
 73
     4
 74
     0
 42
0.000000001
 43
0.00000001
 40
7.0
 40
7.0
 40
7.0
 40
7.0
 40
8.0
 40
8.0
 40
8.0
 40
8.0
 10
153.3649614870714
 20
109.9956825628396
 30
0.0
 10
153.3436645331573
 20
110.1990684727197
 30
0.0
 10
153.3921151033119
 20
110.3726386471199
 30
0.0
 10
153.5097807736876
 20
110.5185227814319
 30
0.0
  0
SPLINE
  5
7AA3
330
1F
100
AcDbEntity
  8
レイヤー_1
 62
     7
370
    15
100
AcDbSpline
210
0.0
220
0.0
230
1.0
 70
     8
 71
     3
 72
     8
 73
     4
 74
     0
 42
0.000000001
 43
0.00000001
 40
8.0
 40
8.0
 40
8.0
 40
8.0
 40
9.0
 40
9.0
 40
9.0
 40
9.0
 10
153.5097807736876
 20
110.5185227814319
 30
0.0
 10
153.6370300733246
 20
110.6761202403964
 30
0.0
 10
153.8388187116611
 20
110.7698268376186
 30
0.0
 10
154.1119521456099
 20
110.7985777254027
 30
0.0
  0
SPLINE
  5
7AA4
330
1F
100
AcDbEntity
  8
レイヤー_1
 62
     7
370
    15
100
AcDbSpline
210
0.0
220
0.0
230
1.0
 70
     8
 71
     3
 72
     8
 73
     4
 74
     0
 42
0.000000001
 43
0.00000001
 40
9.0
 40
9.0
 40
9.0
 40
9.0
 40
10.0
 40
10.0
 40
10.0
 40
10.0
 10
154.1119521456099
 20
110.7985777254027
 30
0.0
 10
154.4585600705626
 20
110.8347825470568
 30
0.0
 10
154.7316935045114
 20
110.7719565330101
 30
0.0
 10
154.9345469905437
 20
110.6069051401755
 30
0.0
  0
SPLINE
  5
7AA5
330
1F
100
AcDbEntity
  8
レイヤー_1
 62
     7
370
    15
100
AcDbSpline
210
0.0
220
0.0
230
1.0
 70
     8
 71
     3
 72
     8
 73
     4
 74
     0
 42
0.000000001
 43
0.00000001
 40
10.0
 40
10.0
 40
10.0
 40
10.0
 40
11.0
 40
11.0
 40
11.0
 40
11.0
 10
154.9345469905437
 20
110.6069051401755
 30
0.0
 10
155.0910796018126
 20
110.4801882643863
 30
0.0
 10
155.1794619605562
 20
110.3098126330733
 30
0.0
 10
155.2034210337097
 20
110.0957782462361
 30
0.0
  0
SPLINE
  5
7AA6
330
1F
100
AcDbEntity
  8
レイヤー_1
 62
     7
370
    15
100
AcDbSpline
210
0.0
220
0.0
230
1.0
 70
     8
 71
     3
 72
     8
 73
     4
 74
     0
 42
0.000000001
 43
0.00000001
 40
11.0
 40
11.0
 40
11.0
 40
11.0
 40
12.0
 40
12.0
 40
12.0
 40
12.0
 10
155.2034210337097
 20
110.0957782462361
 30
0.0
 10
155.2247179876238
 20
109.8934571840518
 30
0.0
 10
155.176799841317
 20
109.7188221619558
 30
0.0
 10
155.0575368993978
 20
109.572938027644
 30
0.0
  0
SPLINE
  5
7AA7
330
1F
100
AcDbEntity
  8
レイヤー_1
 62
     7
370
    15
100
AcDbSpline
210
0.0
220
0.0
230
1.0
 70
     8
 71
     3
 72
    11
 73
     7
 74
     0
 42
0.000000001
 43
0.00000001
 40
12.0
 40
12.0
 40
12.0
 40
12.0
 40
13.0
 40
13.0
 40
13.0
 40
14.0
 40
14.0
 40
14.0
 40
14.0
 10
155.0575368993978
 20
109.572938027644
 30
0.0
 10
154.94040365287
 20
109.427053893332
 30
0.0
 10
154.7503283391863
 20
109.3237636668485
 30
0.0
 10
154.4894406537381
 20
109.2651970435846
 30
0.0
 10
154.4894406537381
 20
109.2651970435846
 30
0.0
 10
154.4527034082362
 20
109.616596783168
 30
0.0
 10
154.4527034082362
 20
109.616596783168
 30
0.0
  0
SPLINE
  5
7AA8
330
1F
100
AcDbEntity
  8
レイヤー_1
 62
     7
370
    15
100
AcDbSpline
210
0.0
220
0.0
230
1.0
 70
     8
 71
     3
 72
     8
 73
     4
 74
     0
 42
0.000000001
 43
0.00000001
 40
14.0
 40
14.0
 40
14.0
 40
14.0
 40
15.0
 40
15.0
 40
15.0
 40
15.0
 10
154.4527034082362
 20
109.616596783168
 30
0.0
 10
154.6443759934635
 20
109.6570609956048
 30
0.0
 10
154.7748198361876
 20
109.7220167050429
 30
0.0
 10
154.8477619033435
 20
109.8125287591781
 30
0.0
  0
SPLINE
  5
7AA9
330
1F
100
AcDbEntity
  8
レイヤー_1
 62
     7
370
    15
100
AcDbSpline
210
0.0
220
0.0
230
1.0
 70
     8
 71
     3
 72
     8
 73
     4
 74
     0
 42
0.000000001
 43
0.00000001
 40
15.0
 40
15.0
 40
15.0
 40
15.0
 40
16.0
 40
16.0
 40
16.0
 40
16.0
 10
154.8477619033435
 20
109.8125287591781
 30
0.0
 10
154.9020691358245
 20
109.8796141640076
 30
0.0
 10
154.9249633612823
 20
109.9594777411856
 30
0.0
 10
154.9159121558687
 20
110.0510546430164
 30
0.0
  0
SPLINE
  5
7AAA
330
1F
100
AcDbEntity
  8
レイヤー_1
 62
     7
370
    15
100
AcDbSpline
210
0.0
220
0.0
230
1.0
 70
     8
 71
     3
 72
     8
 73
     4
 74
     0
 42
0.000000001
 43
0.00000001
 40
16.0
 40
16.0
 40
16.0
 40
16.0
 40
17.0
 40
17.0
 40
17.0
 40
17.0
 10
154.9159121558687
 20
110.0510546430164
 30
0.0
 10
154.9020691358245
 20
110.1724472803271
 30
0.0
 10
154.8562806849092
 20
110.2661538775493
 30
0.0
 10
154.7785468031225
 20
110.3289798915959
 30
0.0
  0
SPLINE
  5
7AAB
330
1F
100
AcDbEntity
  8
レイヤー_1
 62
     7
370
    15
100
AcDbSpline
210
0.0
220
0.0
230
1.0
 70
     8
 71
     3
 72
     8
 73
     4
 74
     0
 42
0.000000001
 43
0.00000001
 40
17.0
 40
17.0
 40
17.0
 40
17.0
 40
18.0
 40
18.0
 40
18.0
 40
18.0
 10
154.7785468031225
 20
110.3289798915959
 30
0.0
 10
154.6550244704205
 20
110.4290755749924
 30
0.0
 10
154.4612221898018
 20
110.4652803966464
 30
0.0
 10
154.1966075374186
 20
110.437594356558
 30
0.0
  0
SPLINE
  5
7AAC
330
1F
100
AcDbEntity
  8
レイヤー_1
 62
     7
370
    15
100
AcDbSpline
210
0.0
220
0.0
230
1.0
 70
     8
 71
     3
 72
     8
 73
     4
 74
     0
 42
0.000000001
 43
0.00000001
 40
18.0
 40
18.0
 40
18.0
 40
18.0
 40
19.0
 40
19.0
 40
19.0
 40
19.0
 10
154.1966075374186
 20
110.437594356558
 30
0.0
 10
153.9426413619925
 20
110.4109731641654
 30
0.0
 10
153.7749278499186
 20
110.3460174547273
 30
0.0
 10
153.6929345773492
 20
110.2448569236351
 30
0.0
  0
SPLINE
  5
7AAD
330
1F
100
AcDbEntity
  8
レイヤー_1
 62
     7
370
    15
100
AcDbSpline
210
0.0
220
0.0
230
1.0
 70
     8
 71
     3
 72
     8
 73
     4
 74
     0
 42
0.000000001
 43
0.00000001
 40
19.0
 40
19.0
 40
19.0
 40
19.0
 40
20.0
 40
20.0
 40
20.0
 40
20.0
 10
153.6929345773492
 20
110.2448569236351
 30
0.0
 10
153.6386273448682
 20
110.1777715188055
 30
0.0
 10
153.6152006955626
 20
110.1042970278018
 30
0.0
 10
153.6231870532804
 20
110.0223037552323
 30
0.0
  0
SPLINE
  5
7AAE
330
1F
100
AcDbEntity
  8
レイヤー_1
 62
     7
370
    15
100
AcDbSpline
210
0.0
220
0.0
230
1.0
 70
     8
 71
     3
 72
     8
 73
     4
 74
     0
 42
0.000000001
 43
0.00000001
 40
20.0
 40
20.0
 40
20.0
 40
20.0
 40
21.0
 40
21.0
 40
21.0
 40
21.0
 10
153.6231870532804
 20
110.0223037552323
 30
0.0
 10
153.6359652256289
 20
109.9009111179217
 30
0.0
 10
153.6939994250449
 20
109.7986857391338
 30
0.0
 10
153.7951599561371
 20
109.7166924665644
 30
0.0
  0
SPLINE
  5
7AAF
330
1F
100
AcDbEntity
  8
レイヤー_1
 62
     7
370
    15
100
AcDbSpline
210
0.0
220
0.0
230
1.0
 70
     8
 71
     3
 72
    11
 73
     7
 74
     0
 42
0.000000001
 43
0.00000001
 40
21.0
 40
21.0
 40
21.0
 40
21.0
 40
22.0
 40
22.0
 40
22.0
 40
23.0
 40
23.0
 40
23.0
 40
23.0
 10
153.7951599561371
 20
109.7166924665644
 30
0.0
 10
153.8622453609666
 20
109.663450081779
 30
0.0
 10
153.9122932026648
 20
109.627245260125
 30
0.0
 10
153.9447710573839
 20
109.6102076969937
 30
0.0
 10
153.9447710573839
 20
109.6102076969937
 30
0.0
 10
153.9767164882551
 20
109.3045964083258
 30
0.0
 10
153.9767164882551
 20
109.3045964083258
 30
0.0
  0
SPLINE
  5
7AB0
330
1F
100
AcDbEntity
  8
レイヤー_1
 62
     7
370
    15
100
AcDbSpline
210
0.0
220
0.0
230
1.0
 70
     8
 71
     3
 72
    14
 73
    10
 74
     0
 42
0.000000001
 43
0.00000001
 40
23.0
 40
23.0
 40
23.0
 40
23.0
 40
24.0
 40
24.0
 40
24.0
 40
25.0
 40
25.0
 40
25.0
 40
26.0
 40
26.0
 40
26.0
 40
26.0
 10
153.9767164882551
 20
109.3045964083258
 30
0.0
 10
153.9351874281226
 20
109.3099206468043
 30
0.0
 10
153.8989826064686
 20
109.3120503421958
 30
0.0
 10
153.8686344471409
 20
109.3088557991086
 30
0.0
 10
153.8686344471409
 20
109.3088557991086
 30
0.0
 10
152.686653504906
 20
109.2620025004975
 30
0.0
 10
152.686653504906
 20
109.2620025004975
 30
0.0
 10
152.686653504906
 20
109.2620025004975
 30
0.0
 10
152.6264896100985
 20
109.2545485666276
 30
0.0
 10
152.6264896100985
 20
109.2545485666276
 30
0.0
  0
SPLINE
  5
7AB1
330
1F
100
AcDbEntity
  8
レイヤー_1
 62
     7
370
    15
100
AcDbSpline
210
0.0
220
0.0
230
1.0
 70
     8
 71
     3
 72
    26
 73
    22
 74
     0
 42
0.000000001
 43
0.00000001
 40
0.0
 40
0.0
 40
0.0
 40
0.0
 40
1.0
 40
1.0
 40
1.0
 40
2.0
 40
2.0
 40
2.0
 40
3.0
 40
3.0
 40
3.0
 40
4.0
 40
4.0
 40
4.0
 40
5.0
 40
5.0
 40
5.0
 40
6.0
 40
6.0
 40
6.0
 40
7.0
 40
7.0
 40
7.0
 40
7.0
 10
152.4428033825891
 20
113.0102663893864
 30
0.0
 10
152.4428033825891
 20
113.0102663893864
 30
0.0
 10
152.4625030649597
 20
113.1944850407437
 30
0.0
 10
152.4625030649597
 20
113.1944850407437
 30
0.0
 10
152.4625030649597
 20
113.1944850407437
 30
0.0
 10
155.0985335356825
 20
112.9165597921642
 30
0.0
 10
155.0985335356825
 20
112.9165597921642
 30
0.0
 10
155.0985335356825
 20
112.9165597921642
 30
0.0
 10
155.0623287140285
 20
112.5672897479722
 30
0.0
 10
155.0623287140285
 20
112.5672897479722
 30
0.0
 10
155.0623287140285
 20
112.5672897479722
 30
0.0
 10
153.0353911252501
 20
112.779194439418
 30
0.0
 10
153.0353911252501
 20
112.779194439418
 30
0.0
 10
153.0353911252501
 20
112.779194439418
 30
0.0
 10
152.9874729789432
 20
112.3213099302639
 30
0.0
 10
152.9874729789432
 20
112.3213099302639
 30
0.0
 10
152.9874729789432
 20
112.3213099302639
 30
0.0
 10
152.8048515991295
 20
112.3404771887866
 30
0.0
 10
152.8048515991295
 20
112.3404771887866
 30
0.0
 10
152.8048515991295
 20
112.3404771887866
 30
0.0
 10
152.8197594668694
 20
112.4778425415328
 30
0.0
 10
152.8197594668694
 20
112.4778425415328
 30
0.0
  0
SPLINE
  5
7AB2
330
1F
100
AcDbEntity
  8
レイヤー_1
 62
     7
370
    15
100
AcDbSpline
210
0.0
220
0.0
230
1.0
 70
     8
 71
     3
 72
     8
 73
     4
 74
     0
 42
0.000000001
 43
0.00000001
 40
7.0
 40
7.0
 40
7.0
 40
7.0
 40
8.0
 40
8.0
 40
8.0
 40
8.0
 10
152.8197594668694
 20
112.4778425415328
 30
0.0
 10
152.8346673346093
 20
112.6215969804533
 30
0.0
 10
152.8043191752816
 20
112.7366005315897
 30
0.0
 10
152.7319095319736
 20
112.8271125857247
 30
0.0
  0
SPLINE
  5
7AB3
330
1F
100
AcDbEntity
  8
レイヤー_1
 62
     7
370
    15
100
AcDbSpline
210
0.0
220
0.0
230
1.0
 70
     8
 71
     3
 72
     8
 73
     4
 74
     0
 42
0.000000001
 43
0.00000001
 40
8.0
 40
8.0
 40
8.0
 40
8.0
 40
9.0
 40
9.0
 40
9.0
 40
9.0
 10
152.7319095319736
 20
112.8271125857247
 30
0.0
 10
152.650448683252
 20
112.9282731168169
 30
0.0
 10
152.5540799667905
 20
112.9900342831679
 30
0.0
 10
152.4428033825891
 20
113.0102663893864
 30
0.0
  0
SPLINE
  5
7AB4
330
1F
100
AcDbEntity
  8
レイヤー_1
 62
     7
370
    15
100
AcDbSpline
210
0.0
220
0.0
230
1.0
 70
     8
 71
     3
 72
    26
 73
    22
 74
     0
 42
0.000000001
 43
0.00000001
 40
0.0
 40
0.0
 40
0.0
 40
0.0
 40
1.0
 40
1.0
 40
1.0
 40
2.0
 40
2.0
 40
2.0
 40
3.0
 40
3.0
 40
3.0
 40
4.0
 40
4.0
 40
4.0
 40
5.0
 40
5.0
 40
5.0
 40
6.0
 40
6.0
 40
6.0
 40
7.0
 40
7.0
 40
7.0
 40
7.0
 10
153.0412477875765
 20
116.2750894244243
 30
0.0
 10
153.0412477875765
 20
116.2750894244243
 30
0.0
 10
153.0982171392968
 20
116.4507892942159
 30
0.0
 10
153.0982171392968
 20
116.4507892942159
 30
0.0
 10
153.0982171392968
 20
116.4507892942159
 30
0.0
 10
155.6187116350354
 20
115.6308565685215
 30
0.0
 10
155.6187116350354
 20
115.6308565685215
 30
0.0
 10
155.6187116350354
 20
115.6308565685215
 30
0.0
 10
155.5106295939212
 20
115.2964943920694
 30
0.0
 10
155.5106295939212
 20
115.2964943920694
 30
0.0
 10
155.5106295939212
 20
115.2964943920694
 30
0.0
 10
153.5726067877343
 20
115.9268842279281
 30
0.0
 10
153.5726067877343
 20
115.9268842279281
 30
0.0
 10
153.5726067877343
 20
115.9268842279281
 30
0.0
 10
153.4304496203574
 20
115.4881669772967
 30
0.0
 10
153.4304496203574
 20
115.4881669772967
 30
0.0
 10
153.4304496203574
 20
115.4881669772967
 30
0.0
 10
153.2558145982615
 20
115.5456687528649
 30
0.0
 10
153.2558145982615
 20
115.5456687528649
 30
0.0
 10
153.2558145982615
 20
115.5456687528649
 30
0.0
 10
153.2989409299376
 20
115.6755801717412
 30
0.0
 10
153.2989409299376
 20
115.6755801717412
 30
0.0
  0
SPLINE
  5
7AB5
330
1F
100
AcDbEntity
  8
レイヤー_1
 62
     7
370
    15
100
AcDbSpline
210
0.0
220
0.0
230
1.0
 70
     8
 71
     3
 72
     8
 73
     4
 74
     0
 42
0.000000001
 43
0.00000001
 40
7.0
 40
7.0
 40
7.0
 40
7.0
 40
8.0
 40
8.0
 40
8.0
 40
8.0
 10
153.2989409299376
 20
115.6755801717412
 30
0.0
 10
153.3425996854616
 20
115.8129455244874
 30
0.0
 10
153.3378078708309
 20
115.9332733141023
 30
0.0
 10
153.2856303337413
 20
116.0354986928902
 30
0.0
  0
SPLINE
  5
7AB6
330
1F
100
AcDbEntity
  8
レイヤー_1
 62
     7
370
    15
100
AcDbSpline
210
0.0
220
0.0
230
1.0
 70
     8
 71
     3
 72
     8
 73
     4
 74
     0
 42
0.000000001
 43
0.00000001
 40
8.0
 40
8.0
 40
8.0
 40
8.0
 40
9.0
 40
9.0
 40
9.0
 40
9.0
 10
153.2856303337413
 20
116.0354986928902
 30
0.0
 10
153.2259988627816
 20
116.1515670917222
 30
0.0
 10
153.1445380140601
 20
116.2314306689003
 30
0.0
 10
153.0412477875765
 20
116.2750894244243
 30
0.0
  0
SPLINE
  5
7AB7
330
1F
100
AcDbEntity
  8
レイヤー_1
 62
     7
370
    15
100
AcDbSpline
210
0.0
220
0.0
230
1.0
 70
     8
 71
     3
 72
     8
 73
     4
 74
     0
 42
0.000000001
 43
0.00000001
 40
0.0
 40
0.0
 40
0.0
 40
0.0
 40
1.0
 40
1.0
 40
1.0
 40
1.0
 10
154.711461398293
 20
118.4580272006237
 30
0.0
 10
154.5070106407173
 20
118.5740955994558
 30
0.0
 10
154.3776316456888
 20
118.737017296899
 30
0.0
 10
154.3222595655121
 20
118.9467922929533
 30
0.0
  0
SPLINE
  5
7AB8
330
1F
100
AcDbEntity
  8
レイヤー_1
 62
     7
370
    15
100
AcDbSpline
210
0.0
220
0.0
230
1.0
 70
     8
 71
     3
 72
     8
 73
     4
 74
     0
 42
0.000000001
 43
0.00000001
 40
1.0
 40
1.0
 40
1.0
 40
1.0
 40
2.0
 40
2.0
 40
2.0
 40
2.0
 10
154.3222595655121
 20
118.9467922929533
 30
0.0
 10
154.2722117238139
 20
119.1267515535278
 30
0.0
 10
154.2977680685108
 20
119.3024514233194
 30
0.0
 10
154.3946692088202
 20
119.4706973592411
 30
0.0
  0
SPLINE
  5
7AB9
330
1F
100
AcDbEntity
  8
レイヤー_1
 62
     7
370
    15
100
AcDbSpline
210
0.0
220
0.0
230
1.0
 70
     8
 71
     3
 72
     8
 73
     4
 74
     0
 42
0.000000001
 43
0.00000001
 40
2.0
 40
2.0
 40
2.0
 40
2.0
 40
3.0
 40
3.0
 40
3.0
 40
3.0
 10
154.3946692088202
 20
119.4706973592411
 30
0.0
 10
154.5059457930216
 20
119.6655644875555
 30
0.0
 10
154.653427198877
 20
119.7869571248661
 30
0.0
 10
154.834983730995
 20
119.834875271173
 30
0.0
  0
SPLINE
  5
7ABA
330
1F
100
AcDbEntity
  8
レイヤー_1
 62
     7
370
    15
100
AcDbSpline
210
0.0
220
0.0
230
1.0
 70
     8
 71
     3
 72
     8
 73
     4
 74
     0
 42
0.000000001
 43
0.00000001
 40
3.0
 40
3.0
 40
3.0
 40
3.0
 40
4.0
 40
4.0
 40
4.0
 40
4.0
 10
154.834983730995
 20
119.834875271173
 30
0.0
 10
155.002164819221
 20
119.8795988743927
 30
0.0
 10
155.1741377220778
 20
119.8519128343043
 30
0.0
 10
155.3509024395651
 20
119.7496874555164
 30
0.0
  0
SPLINE
  5
7ABB
330
1F
100
AcDbEntity
  8
レイヤー_1
 62
     7
370
    15
100
AcDbSpline
210
0.0
220
0.0
230
1.0
 70
     8
 71
     3
 72
     8
 73
     4
 74
     0
 42
0.000000001
 43
0.00000001
 40
4.0
 40
4.0
 40
4.0
 40
4.0
 40
5.0
 40
5.0
 40
5.0
 40
5.0
 10
155.3509024395651
 20
119.7496874555164
 30
0.0
 10
155.5276671570525
 20
119.6485269244242
 30
0.0
 10
155.6362816220146
 20
119.5260694394179
 30
0.0
 10
155.6740837152122
 20
119.3865743912803
 30
0.0
  0
SPLINE
  5
7ABC
330
1F
100
AcDbEntity
  8
レイヤー_1
 62
     7
370
    15
100
AcDbSpline
210
0.0
220
0.0
230
1.0
 70
     8
 71
     3
 72
     8
 73
     4
 74
     0
 42
0.000000001
 43
0.00000001
 40
5.0
 40
5.0
 40
5.0
 40
5.0
 40
6.0
 40
6.0
 40
6.0
 40
6.0
 10
155.6740837152122
 20
119.3865743912803
 30
0.0
 10
155.6980427883656
 20
119.2896732509709
 30
0.0
 10
155.6959130929742
 20
119.2034205876186
 30
0.0
 10
155.6645000859508
 20
119.1267515535278
 30
0.0
  0
SPLINE
  5
7ABD
330
1F
100
AcDbEntity
  8
レイヤー_1
 62
     7
370
    15
100
AcDbSpline
210
0.0
220
0.0
230
1.0
 70
     8
 71
     3
 72
     8
 73
     4
 74
     0
 42
0.000000001
 43
0.00000001
 40
6.0
 40
6.0
 40
6.0
 40
6.0
 40
7.0
 40
7.0
 40
7.0
 40
7.0
 10
155.6645000859508
 20
119.1267515535278
 30
0.0
 10
155.7422339677375
 20
119.2002260445316
 30
0.0
 10
155.8306163264811
 20
119.2481441908384
 30
0.0
 10
155.9264526190948
 20
119.2758302309267
 30
0.0
  0
SPLINE
  5
7ABE
330
1F
100
AcDbEntity
  8
レイヤー_1
 62
     7
370
    15
100
AcDbSpline
210
0.0
220
0.0
230
1.0
 70
     8
 71
     3
 72
     8
 73
     4
 74
     0
 42
0.000000001
 43
0.00000001
 40
7.0
 40
7.0
 40
7.0
 40
7.0
 40
8.0
 40
8.0
 40
8.0
 40
8.0
 10
155.9264526190948
 20
119.2758302309267
 30
0.0
 10
156.0946985550165
 20
119.3216186818422
 30
0.0
 10
156.2672038817211
 20
119.2918029463624
 30
0.0
 10
156.4439685992084
 20
119.1885127198788
 30
0.0
  0
SPLINE
  5
7ABF
330
1F
100
AcDbEntity
  8
レイヤー_1
 62
     7
370
    15
100
AcDbSpline
210
0.0
220
0.0
230
1.0
 70
     8
 71
     3
 72
     8
 73
     4
 74
     0
 42
0.000000001
 43
0.00000001
 40
8.0
 40
8.0
 40
8.0
 40
8.0
 40
9.0
 40
9.0
 40
9.0
 40
9.0
 10
156.4439685992084
 20
119.1885127198788
 30
0.0
 10
156.6393681513707
 20
119.0767037118296
 30
0.0
 10
156.7623580602248
 20
118.9244304913435
 30
0.0
 10
156.8145355973145
 20
118.7284985153334
 30
0.0
  0
SPLINE
  5
7AC0
330
1F
100
AcDbEntity
  8
レイヤー_1
 62
     7
370
    15
100
AcDbSpline
210
0.0
220
0.0
230
1.0
 70
     8
 71
     3
 72
     8
 73
     4
 74
     0
 42
0.000000001
 43
0.00000001
 40
9.0
 40
9.0
 40
9.0
 40
9.0
 40
10.0
 40
10.0
 40
10.0
 40
10.0
 10
156.8145355973145
 20
118.7284985153334
 30
0.0
 10
156.8677779820998
 20
118.5325665393233
 30
0.0
 10
156.8289110412065
 20
118.3238563909647
 30
0.0
 10
156.7016617415695
 20
118.1023680702576
 30
0.0
  0
SPLINE
  5
7AC1
330
1F
100
AcDbEntity
  8
レイヤー_1
 62
     7
370
    15
100
AcDbSpline
210
0.0
220
0.0
230
1.0
 70
     8
 71
     3
 72
     8
 73
     4
 74
     0
 42
0.000000001
 43
0.00000001
 40
10.0
 40
10.0
 40
10.0
 40
10.0
 40
11.0
 40
11.0
 40
11.0
 40
11.0
 10
156.7016617415695
 20
118.1023680702576
 30
0.0
 10
156.5946445481509
 20
117.9170845712045
 30
0.0
 10
156.4423713276648
 20
117.7978216292854
 30
0.0
 10
156.2475041993504
 20
117.7456440921958
 30
0.0
  0
SPLINE
  5
7AC2
330
1F
100
AcDbEntity
  8
レイヤー_1
 62
     7
370
    15
100
AcDbSpline
210
0.0
220
0.0
230
1.0
 70
     8
 71
     3
 72
    17
 73
    13
 74
     0
 42
0.000000001
 43
0.00000001
 40
11.0
 40
11.0
 40
11.0
 40
11.0
 40
12.0
 40
12.0
 40
12.0
 40
13.0
 40
13.0
 40
13.0
 40
14.0
 40
14.0
 40
14.0
 40
15.0
 40
15.0
 40
15.0
 40
15.0
 10
156.2475041993504
 20
117.7456440921958
 30
0.0
 10
156.0521046471882
 20
117.6945314028017
 30
0.0
 10
155.8705481150702
 20
117.7147635090202
 30
0.0
 10
155.7028346029963
 20
117.8127294970253
 30
0.0
 10
155.7028346029963
 20
117.8127294970253
 30
0.0
 10
155.5968822572734
 20
117.8734258156805
 30
0.0
 10
155.5968822572734
 20
117.8734258156805
 30
0.0
 10
155.5968822572734
 20
117.8734258156805
 30
0.0
 10
155.7725821270651
 20
118.1801019520442
 30
0.0
 10
155.7725821270651
 20
118.1801019520442
 30
0.0
 10
155.7725821270651
 20
118.1801019520442
 30
0.0
 10
155.8652238765916
 20
118.1268595672588
 30
0.0
 10
155.8652238765916
 20
118.1268595672588
 30
0.0
  0
SPLINE
  5
7AC3
330
1F
100
AcDbEntity
  8
レイヤー_1
 62
     7
370
    15
100
AcDbSpline
210
0.0
220
0.0
230
1.0
 70
     8
 71
     3
 72
     8
 73
     4
 74
     0
 42
0.000000001
 43
0.00000001
 40
15.0
 40
15.0
 40
15.0
 40
15.0
 40
16.0
 40
16.0
 40
16.0
 40
16.0
 10
155.8652238765916
 20
118.1268595672588
 30
0.0
 10
155.9791625800323
 20
118.0587093147336
 30
0.0
 10
156.1005552173429
 20
118.042736599298
 30
0.0
 10
156.2256748215885
 20
118.0768117255606
 30
0.0
  0
SPLINE
  5
7AC4
330
1F
100
AcDbEntity
  8
レイヤー_1
 62
     7
370
    15
100
AcDbSpline
210
0.0
220
0.0
230
1.0
 70
     8
 71
     3
 72
     8
 73
     4
 74
     0
 42
0.000000001
 43
0.00000001
 40
16.0
 40
16.0
 40
16.0
 40
16.0
 40
17.0
 40
17.0
 40
17.0
 40
17.0
 10
156.2256748215885
 20
118.0768117255606
 30
0.0
 10
156.3241732334414
 20
118.1034329179533
 30
0.0
 10
156.3987125721409
 20
118.1598698458258
 30
0.0
 10
156.449292837687
 20
118.2482522045694
 30
0.0
  0
SPLINE
  5
7AC5
330
1F
100
AcDbEntity
  8
レイヤー_1
 62
     7
370
    15
100
AcDbSpline
210
0.0
220
0.0
230
1.0
 70
     8
 71
     3
 72
    11
 73
     7
 74
     0
 42
0.000000001
 43
0.00000001
 40
17.0
 40
17.0
 40
17.0
 40
17.0
 40
18.0
 40
18.0
 40
18.0
 40
19.0
 40
19.0
 40
19.0
 40
19.0
 10
156.449292837687
 20
118.2482522045694
 30
0.0
 10
156.5153133948208
 20
118.3632557557058
 30
0.0
 10
156.5339482294957
 20
118.4771944591465
 30
0.0
 10
156.503600070168
 20
118.5890034671957
 30
0.0
 10
156.4732519108404
 20
118.700812475245
 30
0.0
 10
156.3843371282488
 20
118.79877846325
 30
0.0
 10
156.2336611793062
 20
118.8860959742979
 30
0.0
  0
SPLINE
  5
7AC6
330
1F
100
AcDbEntity
  8
レイヤー_1
 62
     7
370
    15
100
AcDbSpline
210
0.0
220
0.0
230
1.0
 70
     8
 71
     3
 72
    20
 73
    16
 74
     0
 42
0.000000001
 43
0.00000001
 40
19.0
 40
19.0
 40
19.0
 40
19.0
 40
20.0
 40
20.0
 40
20.0
 40
21.0
 40
21.0
 40
21.0
 40
22.0
 40
22.0
 40
22.0
 40
23.0
 40
23.0
 40
23.0
 40
24.0
 40
24.0
 40
24.0
 40
24.0
 10
156.2336611793062
 20
118.8860959742979
 30
0.0
 10
156.1090739989085
 20
118.9585056176061
 30
0.0
 10
155.9908759046851
 20
118.9787377238245
 30
0.0
 10
155.8795993204837
 20
118.9489219883447
 30
0.0
 10
155.7683227362823
 20
118.9191062528649
 30
0.0
 10
155.6873943114086
 20
118.8594747819053
 30
0.0
 10
155.6362816220146
 20
118.7710924231617
 30
0.0
 10
155.6362816220146
 20
118.7710924231617
 30
0.0
 10
155.5750528795115
 20
118.6656725012866
 30
0.0
 10
155.5750528795115
 20
118.6656725012866
 30
0.0
 10
155.5750528795115
 20
118.6656725012866
 30
0.0
 10
155.3493051680215
 20
118.7955839201629
 30
0.0
 10
155.3493051680215
 20
118.7955839201629
 30
0.0
 10
155.3493051680215
 20
118.7955839201629
 30
0.0
 10
155.3956260427848
 20
118.8743826496452
 30
0.0
 10
155.3956260427848
 20
118.8743826496452
 30
0.0
  0
SPLINE
  5
7AC7
330
1F
100
AcDbEntity
  8
レイヤー_1
 62
     7
370
    15
100
AcDbSpline
210
0.0
220
0.0
230
1.0
 70
     8
 71
     3
 72
     8
 73
     4
 74
     0
 42
0.000000001
 43
0.00000001
 40
24.0
 40
24.0
 40
24.0
 40
24.0
 40
25.0
 40
25.0
 40
25.0
 40
25.0
 10
155.3956260427848
 20
118.8743826496452
 30
0.0
 10
155.4414144937002
 20
118.9542462268232
 30
0.0
 10
155.449400851418
 20
119.0500825194368
 30
0.0
 10
155.4185202682425
 20
119.1618915274862
 30
0.0
  0
SPLINE
  5
7AC8
330
1F
100
AcDbEntity
  8
レイヤー_1
 62
     7
370
    15
100
AcDbSpline
210
0.0
220
0.0
230
1.0
 70
     8
 71
     3
 72
     8
 73
     4
 74
     0
 42
0.000000001
 43
0.00000001
 40
25.0
 40
25.0
 40
25.0
 40
25.0
 40
26.0
 40
26.0
 40
26.0
 40
26.0
 10
155.4185202682425
 20
119.1618915274862
 30
0.0
 10
155.3887045327627
 20
119.2737005355353
 30
0.0
 10
155.307776107889
 20
119.3674071327576
 30
0.0
 10
155.1736052982299
 20
119.4451410145442
 30
0.0
  0
SPLINE
  5
7AC9
330
1F
100
AcDbEntity
  8
レイヤー_1
 62
     7
370
    15
100
AcDbSpline
210
0.0
220
0.0
230
1.0
 70
     8
 71
     3
 72
     8
 73
     4
 74
     0
 42
0.000000001
 43
0.00000001
 40
26.0
 40
26.0
 40
26.0
 40
26.0
 40
27.0
 40
27.0
 40
27.0
 40
27.0
 10
155.1736052982299
 20
119.4451410145442
 30
0.0
 10
155.0601990186371
 20
119.511161571678
 30
0.0
 10
154.9467927390443
 20
119.5292639825051
 30
0.0
 10
154.8344513071472
 20
119.4994482470252
 30
0.0
  0
SPLINE
  5
7ACA
330
1F
100
AcDbEntity
  8
レイヤー_1
 62
     7
370
    15
100
AcDbSpline
210
0.0
220
0.0
230
1.0
 70
     8
 71
     3
 72
     8
 73
     4
 74
     0
 42
0.000000001
 43
0.00000001
 40
27.0
 40
27.0
 40
27.0
 40
27.0
 40
28.0
 40
28.0
 40
28.0
 40
28.0
 10
154.8344513071472
 20
119.4994482470252
 30
0.0
 10
154.751393186882
 20
119.4770864454154
 30
0.0
 10
154.6843077820525
 20
119.420649517543
 30
0.0
 10
154.6321302449629
 20
119.3333320064949
 30
0.0
  0
SPLINE
  5
7ACB
330
1F
100
AcDbEntity
  8
レイヤー_1
 62
     7
370
    15
100
AcDbSpline
210
0.0
220
0.0
230
1.0
 70
     8
 71
     3
 72
     8
 73
     4
 74
     0
 42
0.000000001
 43
0.00000001
 40
28.0
 40
28.0
 40
28.0
 40
28.0
 40
29.0
 40
29.0
 40
29.0
 40
29.0
 10
154.6321302449629
 20
119.3333320064949
 30
0.0
 10
154.5874066417431
 20
119.2524035816212
 30
0.0
 10
154.5778230124818
 20
119.1640212228775
 30
0.0
 10
154.6033793571788
 20
119.0671200825682
 30
0.0
  0
SPLINE
  5
7ACC
330
1F
100
AcDbEntity
  8
レイヤー_1
 62
     7
370
    15
100
AcDbSpline
210
0.0
220
0.0
230
1.0
 70
     8
 71
     3
 72
    11
 73
     7
 74
     0
 42
0.000000001
 43
0.00000001
 40
29.0
 40
29.0
 40
29.0
 40
29.0
 40
30.0
 40
30.0
 40
30.0
 40
31.0
 40
31.0
 40
31.0
 40
31.0
 10
154.6033793571788
 20
119.0671200825682
 30
0.0
 10
154.6337275165064
 20
118.9542462268232
 30
0.0
 10
154.7247719944893
 20
118.8488263049482
 30
0.0
 10
154.8797073342147
 20
118.747665773856
 30
0.0
 10
154.8797073342147
 20
118.747665773856
 30
0.0
 10
154.711461398293
 20
118.4580272006237
 30
0.0
 10
154.711461398293
 20
118.4580272006237
 30
0.0
  0
SPLINE
  5
7ACD
330
1F
100
AcDbEntity
  8
レイヤー_1
 62
     7
370
    15
100
AcDbSpline
210
0.0
220
0.0
230
1.0
 70
     8
 71
     3
 72
    11
 73
     7
 74
     0
 42
0.000000001
 43
0.00000001
 40
0.0
 40
0.0
 40
0.0
 40
0.0
 40
1.0
 40
1.0
 40
1.0
 40
2.0
 40
2.0
 40
2.0
 40
2.0
 10
156.445565870752
 20
121.7622496004028
 30
0.0
 10
156.456214347709
 20
121.5748364059584
 30
0.0
 10
156.5973066673902
 20
121.3576074760341
 30
0.0
 10
156.8704401013391
 20
121.1116276583258
 30
0.0
 10
156.8704401013391
 20
121.1116276583258
 30
0.0
 10
157.1329250583309
 20
120.8752314698788
 30
0.0
 10
157.1329250583309
 20
120.8752314698788
 30
0.0
  0
SPLINE
  5
7ACE
330
1F
100
AcDbEntity
  8
レイヤー_1
 62
     7
370
    15
100
AcDbSpline
210
0.0
220
0.0
230
1.0
 70
     8
 71
     3
 72
     8
 73
     4
 74
     0
 42
0.000000001
 43
0.00000001
 40
2.0
 40
2.0
 40
2.0
 40
2.0
 40
3.0
 40
3.0
 40
3.0
 40
3.0
 10
157.1329250583309
 20
120.8752314698788
 30
0.0
 10
157.398072134562
 20
120.6367055860404
 30
0.0
 10
157.6334034753132
 20
120.5238317302954
 30
0.0
 10
157.834127265954
 20
120.5323505118612
 30
0.0
  0
SPLINE
  5
7ACF
330
1F
100
AcDbEntity
  8
レイヤー_1
 62
     7
370
    15
100
AcDbSpline
210
0.0
220
0.0
230
1.0
 70
     8
 71
     3
 72
     8
 73
     4
 74
     0
 42
0.000000001
 43
0.00000001
 40
3.0
 40
3.0
 40
3.0
 40
3.0
 40
4.0
 40
4.0
 40
4.0
 40
4.0
 10
157.834127265954
 20
120.5323505118612
 30
0.0
 10
157.9496632409382
 20
120.5387395980353
 30
0.0
 10
158.0385780235297
 20
120.5760092673852
 30
0.0
 10
158.1003391898808
 20
120.6441595199104
 30
0.0
  0
SPLINE
  5
7AD0
330
1F
100
AcDbEntity
  8
レイヤー_1
 62
     7
370
    15
100
AcDbSpline
210
0.0
220
0.0
230
1.0
 70
     8
 71
     3
 72
     8
 73
     4
 74
     0
 42
0.000000001
 43
0.00000001
 40
4.0
 40
4.0
 40
4.0
 40
4.0
 40
5.0
 40
5.0
 40
5.0
 40
5.0
 10
158.1003391898808
 20
120.6441595199104
 30
0.0
 10
158.168489442406
 20
120.7197637063055
 30
0.0
 10
158.1988376017337
 20
120.8166648466149
 30
0.0
 10
158.1929809394073
 20
120.9316683977513
 30
0.0
  0
SPLINE
  5
7AD1
330
1F
100
AcDbEntity
  8
レイヤー_1
 62
     7
370
    15
100
AcDbSpline
210
0.0
220
0.0
230
1.0
 70
     8
 71
     3
 72
    11
 73
     7
 74
     0
 42
0.000000001
 43
0.00000001
 40
5.0
 40
5.0
 40
5.0
 40
5.0
 40
6.0
 40
6.0
 40
6.0
 40
7.0
 40
7.0
 40
7.0
 40
7.0
 10
158.1929809394073
 20
120.9316683977513
 30
0.0
 10
158.1828648862981
 20
121.1180167445
 30
0.0
 10
158.0428374143126
 20
121.33631052212
 30
0.0
 10
157.768639132668
 20
121.5812254921326
 30
0.0
 10
157.768639132668
 20
121.5812254921326
 30
0.0
 10
157.5072190233719
 20
121.8176216805795
 30
0.0
 10
157.5072190233719
 20
121.8176216805795
 30
0.0
  0
SPLINE
  5
7AD2
330
1F
100
AcDbEntity
  8
レイヤー_1
 62
     7
370
    15
100
AcDbSpline
210
0.0
220
0.0
230
1.0
 70
     8
 71
     3
 72
     8
 73
     4
 74
     0
 42
0.000000001
 43
0.00000001
 40
7.0
 40
7.0
 40
7.0
 40
7.0
 40
8.0
 40
8.0
 40
8.0
 40
8.0
 10
157.5072190233719
 20
121.8176216805795
 30
0.0
 10
157.2335531655752
 20
122.0636014982879
 30
0.0
 10
157.0030136394547
 20
122.1828644402071
 30
0.0
 10
156.8150680211623
 20
122.1711511155544
 30
0.0
  0
SPLINE
  5
7AD3
330
1F
100
AcDbEntity
  8
レイヤー_1
 62
     7
370
    15
100
AcDbSpline
210
0.0
220
0.0
230
1.0
 70
     8
 71
     3
 72
     8
 73
     4
 74
     0
 42
0.000000001
 43
0.00000001
 40
8.0
 40
8.0
 40
8.0
 40
8.0
 40
9.0
 40
9.0
 40
9.0
 40
9.0
 10
156.8150680211623
 20
122.1711511155544
 30
0.0
 10
156.7005968938739
 20
122.1658268770758
 30
0.0
 10
156.6084875681951
 20
122.1242978169432
 30
0.0
 10
156.5387400441263
 20
122.0486936305479
 30
0.0
  0
SPLINE
  5
7AD4
330
1F
100
AcDbEntity
  8
レイヤー_1
 62
     7
370
    15
100
AcDbSpline
210
0.0
220
0.0
230
1.0
 70
     8
 71
     3
 72
     8
 73
     4
 74
     0
 42
0.000000001
 43
0.00000001
 40
9.0
 40
9.0
 40
9.0
 40
9.0
 40
10.0
 40
10.0
 40
10.0
 40
10.0
 10
156.5387400441263
 20
122.0486936305479
 30
0.0
 10
156.4711222154489
 20
121.9730894441528
 30
0.0
 10
156.4402416322735
 20
121.8783179992349
 30
0.0
 10
156.445565870752
 20
121.7622496004028
 30
0.0
  0
SPLINE
  5
7AD5
330
1F
100
AcDbEntity
  8
レイヤー_1
 62
     7
370
    15
100
AcDbSpline
210
0.0
220
0.0
230
1.0
 70
     8
 71
     3
 72
     8
 73
     4
 74
     0
 42
0.000000001
 43
0.00000001
 40
0.0
 40
0.0
 40
0.0
 40
0.0
 40
1.0
 40
1.0
 40
1.0
 40
1.0
 10
156.6468220852406
 20
120.8166648466149
 30
0.0
 10
156.3129923326364
 20
121.1190815921957
 30
0.0
 10
156.1388897343883
 20
121.4129795562108
 30
0.0
 10
156.1239818666484
 20
121.7015532817474
 30
0.0
  0
SPLINE
  5
7AD6
330
1F
100
AcDbEntity
  8
レイヤー_1
 62
     7
370
    15
100
AcDbSpline
210
0.0
220
0.0
230
1.0
 70
     8
 71
     3
 72
     8
 73
     4
 74
     0
 42
0.000000001
 43
0.00000001
 40
1.0
 40
1.0
 40
1.0
 40
1.0
 40
2.0
 40
2.0
 40
2.0
 40
2.0
 10
156.1239818666484
 20
121.7015532817474
 30
0.0
 10
156.1133333896914
 20
121.9038743439318
 30
0.0
 10
156.1788215229773
 20
122.0838336045063
 30
0.0
 10
156.3231083857457
 20
122.2446256065581
 30
0.0
  0
SPLINE
  5
7AD7
330
1F
100
AcDbEntity
  8
レイヤー_1
 62
     7
370
    15
100
AcDbSpline
210
0.0
220
0.0
230
1.0
 70
     8
 71
     3
 72
     8
 73
     4
 74
     0
 42
0.000000001
 43
0.00000001
 40
2.0
 40
2.0
 40
2.0
 40
2.0
 40
3.0
 40
3.0
 40
3.0
 40
3.0
 10
156.3231083857457
 20
122.2446256065581
 30
0.0
 10
156.4668628246661
 20
122.4032879132185
 30
0.0
 10
156.6404329990664
 20
122.488475728875
 30
0.0
 10
156.841689213555
 20
122.4991242058321
 30
0.0
  0
SPLINE
  5
7AD8
330
1F
100
AcDbEntity
  8
レイヤー_1
 62
     7
370
    15
100
AcDbSpline
210
0.0
220
0.0
230
1.0
 70
     8
 71
     3
 72
    11
 73
     7
 74
     0
 42
0.000000001
 43
0.00000001
 40
3.0
 40
3.0
 40
3.0
 40
3.0
 40
4.0
 40
4.0
 40
4.0
 40
5.0
 40
5.0
 40
5.0
 40
5.0
 10
156.841689213555
 20
122.4991242058321
 30
0.0
 10
157.1302629390917
 20
122.514032073572
 30
0.0
 10
157.4417308900859
 20
122.3713424823472
 30
0.0
 10
157.776093066538
 20
122.0710554321579
 30
0.0
 10
157.776093066538
 20
122.0710554321579
 30
0.0
 10
158.0034380495715
 20
121.8655398268864
 30
0.0
 10
158.0034380495715
 20
121.8655398268864
 30
0.0
  0
SPLINE
  5
7AD9
330
1F
100
AcDbEntity
  8
レイヤー_1
 62
     7
370
    15
100
AcDbSpline
210
0.0
220
0.0
230
1.0
 70
     8
 71
     3
 72
     8
 73
     4
 74
     0
 42
0.000000001
 43
0.00000001
 40
5.0
 40
5.0
 40
5.0
 40
5.0
 40
6.0
 40
6.0
 40
6.0
 40
6.0
 10
158.0034380495715
 20
121.8655398268864
 30
0.0
 10
158.3298138683056
 20
121.5716418628712
 30
0.0
 10
158.5001894996188
 20
121.2798735942475
 30
0.0
 10
158.5156297912065
 20
120.9912998687109
 30
0.0
  0
SPLINE
  5
7ADA
330
1F
100
AcDbEntity
  8
レイヤー_1
 62
     7
370
    15
100
AcDbSpline
210
0.0
220
0.0
230
1.0
 70
     8
 71
     3
 72
     8
 73
     4
 74
     0
 42
0.000000001
 43
0.00000001
 40
6.0
 40
6.0
 40
6.0
 40
6.0
 40
7.0
 40
7.0
 40
7.0
 40
7.0
 10
158.5156297912065
 20
120.9912998687109
 30
0.0
 10
158.5262782681636
 20
120.7900436542222
 30
0.0
 10
158.4597252871819
 20
120.609019545952
 30
0.0
 10
158.3170356959571
 20
120.4503572392917
 30
0.0
  0
SPLINE
  5
7ADB
330
1F
100
AcDbEntity
  8
レイヤー_1
 62
     7
370
    15
100
AcDbSpline
210
0.0
220
0.0
230
1.0
 70
     8
 71
     3
 72
     8
 73
     4
 74
     0
 42
0.000000001
 43
0.00000001
 40
7.0
 40
7.0
 40
7.0
 40
7.0
 40
8.0
 40
8.0
 40
8.0
 40
8.0
 10
158.3170356959571
 20
120.4503572392917
 30
0.0
 10
158.172216409341
 20
120.2895652372399
 30
0.0
 10
157.9997110826365
 20
120.2043774215833
 30
0.0
 10
157.7979224443
 20
120.194793792322
 30
0.0
  0
SPLINE
  5
7ADC
330
1F
100
AcDbEntity
  8
レイヤー_1
 62
     7
370
    15
100
AcDbSpline
210
0.0
220
0.0
230
1.0
 70
     8
 71
     3
 72
    11
 73
     7
 74
     0
 42
0.000000001
 43
0.00000001
 40
8.0
 40
8.0
 40
8.0
 40
8.0
 40
9.0
 40
9.0
 40
9.0
 40
10.0
 40
10.0
 40
10.0
 40
10.0
 10
157.7979224443
 20
120.194793792322
 30
0.0
 10
157.5098811426112
 20
120.1798859245821
 30
0.0
 10
157.2010753108561
 20
120.3193809727197
 30
0.0
 10
156.8746994921219
 20
120.6132789367349
 30
0.0
 10
156.8746994921219
 20
120.6132789367349
 30
0.0
 10
156.6468220852406
 20
120.8166648466149
 30
0.0
 10
156.6468220852406
 20
120.8166648466149
 30
0.0
  0
SPLINE
  5
7ADD
330
1F
100
AcDbEntity
  8
レイヤー_1
 62
     7
370
    15
100
AcDbSpline
210
0.0
220
0.0
230
1.0
 70
     8
 71
     3
 72
     8
 73
     4
 74
     0
 42
0.000000001
 43
0.00000001
 40
0.0
 40
0.0
 40
0.0
 40
0.0
 40
1.0
 40
1.0
 40
1.0
 40
1.0
 10
158.5907015537538
 20
123.3967908133131
 30
0.0
 10
158.4533362010076
 20
123.5873985508447
 30
0.0
 10
158.401158663918
 20
123.7897196130291
 30
0.0
 10
158.4347013663328
 20
124.0026891521705
 30
0.0
  0
SPLINE
  5
7ADE
330
1F
100
AcDbEntity
  8
レイヤー_1
 62
     7
370
    15
100
AcDbSpline
210
0.0
220
0.0
230
1.0
 70
     8
 71
     3
 72
     8
 73
     4
 74
     0
 42
0.000000001
 43
0.00000001
 40
1.0
 40
1.0
 40
1.0
 40
1.0
 40
2.0
 40
2.0
 40
2.0
 40
2.0
 10
158.4347013663328
 20
124.0026891521705
 30
0.0
 10
158.4639846779647
 20
124.1890374989192
 30
0.0
 10
158.5582236990348
 20
124.3381161763182
 30
0.0
 10
158.7142238864559
 20
124.4520548797588
 30
0.0
  0
SPLINE
  5
7ADF
330
1F
100
AcDbEntity
  8
レイヤー_1
 62
     7
370
    15
100
AcDbSpline
210
0.0
220
0.0
230
1.0
 70
     8
 71
     3
 72
     8
 73
     4
 74
     0
 42
0.000000001
 43
0.00000001
 40
2.0
 40
2.0
 40
2.0
 40
2.0
 40
3.0
 40
3.0
 40
3.0
 40
3.0
 10
158.7142238864559
 20
124.4520548797588
 30
0.0
 10
158.8963128424218
 20
124.5851608417222
 30
0.0
 10
159.0805314937791
 20
124.6362735311162
 30
0.0
 10
159.2658149928322
 20
124.6064577956364
 30
0.0
  0
SPLINE
  5
7AE0
330
1F
100
AcDbEntity
  8
レイヤー_1
 62
     7
370
    15
100
AcDbSpline
210
0.0
220
0.0
230
1.0
 70
     8
 71
     3
 72
     8
 73
     4
 74
     0
 42
0.000000001
 43
0.00000001
 40
3.0
 40
3.0
 40
3.0
 40
3.0
 40
4.0
 40
4.0
 40
4.0
 40
4.0
 10
159.2658149928322
 20
124.6064577956364
 30
0.0
 10
159.4367230479932
 20
124.5798366032437
 30
0.0
 10
159.582607182305
 20
124.4840003106301
 30
0.0
 10
159.7029349719199
 20
124.3189489177955
 30
0.0
  0
SPLINE
  5
7AE1
330
1F
100
AcDbEntity
  8
レイヤー_1
 62
     7
370
    15
100
AcDbSpline
210
0.0
220
0.0
230
1.0
 70
     8
 71
     3
 72
     8
 73
     4
 74
     0
 42
0.000000001
 43
0.00000001
 40
4.0
 40
4.0
 40
4.0
 40
4.0
 40
5.0
 40
5.0
 40
5.0
 40
5.0
 10
159.7029349719199
 20
124.3189489177955
 30
0.0
 10
159.8227303376869
 20
124.1538975249609
 30
0.0
 10
159.8711809078416
 20
123.9994946090834
 30
0.0
 10
159.8504163777753
 20
123.8557401701629
 30
0.0
  0
SPLINE
  5
7AE2
330
1F
100
AcDbEntity
  8
レイヤー_1
 62
     7
370
    15
100
AcDbSpline
210
0.0
220
0.0
230
1.0
 70
     8
 71
     3
 72
     8
 73
     4
 74
     0
 42
0.000000001
 43
0.00000001
 40
5.0
 40
5.0
 40
5.0
 40
5.0
 40
6.0
 40
6.0
 40
6.0
 40
6.0
 10
159.8504163777753
 20
123.8557401701629
 30
0.0
 10
159.8328463907962
 20
123.7567093344621
 30
0.0
 10
159.7955767214464
 20
123.6789754526755
 30
0.0
 10
159.735412826639
 20
123.6214736771073
 30
0.0
  0
SPLINE
  5
7AE3
330
1F
100
AcDbEntity
  8
レイヤー_1
 62
     7
370
    15
100
AcDbSpline
210
0.0
220
0.0
230
1.0
 70
     8
 71
     3
 72
     8
 73
     4
 74
     0
 42
0.000000001
 43
0.00000001
 40
6.0
 40
6.0
 40
6.0
 40
6.0
 40
7.0
 40
7.0
 40
7.0
 40
7.0
 10
159.735412826639
 20
123.6214736771073
 30
0.0
 10
159.8365733577311
 20
123.6576784987613
 30
0.0
 10
159.9366690411276
 20
123.6661972803271
 30
0.0
 10
160.0356998768283
 20
123.6512894125871
 30
0.0
  0
SPLINE
  5
7AE4
330
1F
100
AcDbEntity
  8
レイヤー_1
 62
     7
370
    15
100
AcDbSpline
210
0.0
220
0.0
230
1.0
 70
     8
 71
     3
 72
     8
 73
     4
 74
     0
 42
0.000000001
 43
0.00000001
 40
7.0
 40
7.0
 40
7.0
 40
7.0
 40
8.0
 40
8.0
 40
8.0
 40
8.0
 10
160.0356998768283
 20
123.6512894125871
 30
0.0
 10
160.2076727796851
 20
123.6246682201945
 30
0.0
 10
160.3530244901491
 20
123.5277670798851
 30
0.0
 10
160.4728198559161
 20
123.3616508393548
 30
0.0
  0
SPLINE
  5
7AE5
330
1F
100
AcDbEntity
  8
レイヤー_1
 62
     7
370
    15
100
AcDbSpline
210
0.0
220
0.0
230
1.0
 70
     8
 71
     3
 72
     8
 73
     4
 74
     0
 42
0.000000001
 43
0.00000001
 40
8.0
 40
8.0
 40
8.0
 40
8.0
 40
9.0
 40
9.0
 40
9.0
 40
9.0
 10
160.4728198559161
 20
123.3616508393548
 30
0.0
 10
160.6059258178795
 20
123.1806267310846
 30
0.0
 10
160.6543763880342
 20
122.9889541458574
 30
0.0
 10
160.6245606525544
 20
122.7908924744558
 30
0.0
  0
SPLINE
  5
7AE6
330
1F
100
AcDbEntity
  8
レイヤー_1
 62
     7
370
    15
100
AcDbSpline
210
0.0
220
0.0
230
1.0
 70
     8
 71
     3
 72
     8
 73
     4
 74
     0
 42
0.000000001
 43
0.00000001
 40
9.0
 40
9.0
 40
9.0
 40
9.0
 40
10.0
 40
10.0
 40
10.0
 40
10.0
 10
160.6245606525544
 20
122.7908924744558
 30
0.0
 10
160.5915503739874
 20
122.5907011076629
 30
0.0
 10
160.4728198559161
 20
122.4150012378712
 30
0.0
 10
160.2667718267968
 20
122.2648577127765
 30
0.0
  0
SPLINE
  5
7AE7
330
1F
100
AcDbEntity
  8
レイヤー_1
 62
     7
370
    15
100
AcDbSpline
210
0.0
220
0.0
230
1.0
 70
     8
 71
     3
 72
     8
 73
     4
 74
     0
 42
0.000000001
 43
0.00000001
 40
10.0
 40
10.0
 40
10.0
 40
10.0
 40
11.0
 40
11.0
 40
11.0
 40
11.0
 10
160.2667718267968
 20
122.2648577127765
 30
0.0
 10
160.0937340762444
 20
122.1381408369874
 30
0.0
 10
159.9057884579521
 20
122.0912875383762
 30
0.0
 10
159.706129515007
 20
122.1232329692475
 30
0.0
  0
SPLINE
  5
7AE8
330
1F
100
AcDbEntity
  8
レイヤー_1
 62
     7
370
    15
100
AcDbSpline
210
0.0
220
0.0
230
1.0
 70
     8
 71
     3
 72
    17
 73
    13
 74
     0
 42
0.000000001
 43
0.00000001
 40
11.0
 40
11.0
 40
11.0
 40
11.0
 40
12.0
 40
12.0
 40
12.0
 40
13.0
 40
13.0
 40
13.0
 40
14.0
 40
14.0
 40
14.0
 40
15.0
 40
15.0
 40
15.0
 40
15.0
 10
159.706129515007
 20
122.1232329692475
 30
0.0
 10
159.5070029959098
 20
122.1562432478144
 30
0.0
 10
159.349937960793
 20
122.2478201496452
 30
0.0
 10
159.2359992573524
 20
122.4054176086099
 30
0.0
 10
159.2359992573524
 20
122.4054176086099
 30
0.0
 10
159.1641220378921
 20
122.5044484443106
 30
0.0
 10
159.1641220378921
 20
122.5044484443106
 30
0.0
 10
159.1641220378921
 20
122.5044484443106
 30
0.0
 10
159.4489687964938
 20
122.7131585926691
 30
0.0
 10
159.4489687964938
 20
122.7131585926691
 30
0.0
 10
159.4489687964938
 20
122.7131585926691
 30
0.0
 10
159.5123272343884
 20
122.626905929317
 30
0.0
 10
159.5123272343884
 20
122.626905929317
 30
0.0
  0
SPLINE
  5
7AE9
330
1F
100
AcDbEntity
  8
レイヤー_1
 62
     7
370
    15
100
AcDbSpline
210
0.0
220
0.0
230
1.0
 70
     8
 71
     3
 72
     8
 73
     4
 74
     0
 42
0.000000001
 43
0.00000001
 40
15.0
 40
15.0
 40
15.0
 40
15.0
 40
16.0
 40
16.0
 40
16.0
 40
16.0
 10
159.5123272343884
 20
122.626905929317
 30
0.0
 10
159.5889962684792
 20
122.5182914643549
 30
0.0
 10
159.6928189188107
 20
122.4544006026124
 30
0.0
 10
159.8211330661434
 20
122.434168496394
 30
0.0
  0
SPLINE
  5
7AEA
330
1F
100
AcDbEntity
  8
レイヤー_1
 62
     7
370
    15
100
AcDbSpline
210
0.0
220
0.0
230
1.0
 70
     8
 71
     3
 72
     8
 73
     4
 74
     0
 42
0.000000001
 43
0.00000001
 40
16.0
 40
16.0
 40
16.0
 40
16.0
 40
17.0
 40
17.0
 40
17.0
 40
17.0
 10
159.8211330661434
 20
122.434168496394
 30
0.0
 10
159.9222935972355
 20
122.4192606286541
 30
0.0
 10
160.0133380752185
 20
122.4394927348725
 30
0.0
 10
160.095331347788
 20
122.5001890535278
 30
0.0
  0
SPLINE
  5
7AEB
330
1F
100
AcDbEntity
  8
レイヤー_1
 62
     7
370
    15
100
AcDbSpline
210
0.0
220
0.0
230
1.0
 70
     8
 71
     3
 72
     8
 73
     4
 74
     0
 42
0.000000001
 43
0.00000001
 40
17.0
 40
17.0
 40
17.0
 40
17.0
 40
18.0
 40
18.0
 40
18.0
 40
18.0
 10
160.095331347788
 20
122.5001890535278
 30
0.0
 10
160.2028809650544
 20
122.5789877830101
 30
0.0
 10
160.2657069791011
 20
122.6758889233194
 30
0.0
 10
160.2832769660802
 20
122.7898276267601
 30
0.0
  0
SPLINE
  5
7AEC
330
1F
100
AcDbEntity
  8
レイヤー_1
 62
     7
370
    15
100
AcDbSpline
210
0.0
220
0.0
230
1.0
 70
     8
 71
     3
 72
     8
 73
     4
 74
     0
 42
0.000000001
 43
0.00000001
 40
18.0
 40
18.0
 40
18.0
 40
18.0
 40
19.0
 40
19.0
 40
19.0
 40
19.0
 10
160.2832769660802
 20
122.7898276267601
 30
0.0
 10
160.3013793769073
 20
122.9037663302008
 30
0.0
 10
160.2598503167747
 20
123.0294183582942
 30
0.0
 10
160.1576249379868
 20
123.1710431018232
 30
0.0
  0
SPLINE
  5
7AED
330
1F
100
AcDbEntity
  8
レイヤー_1
 62
     7
370
    15
100
AcDbSpline
210
0.0
220
0.0
230
1.0
 70
     8
 71
     3
 72
     8
 73
     4
 74
     0
 42
0.000000001
 43
0.00000001
 40
19.0
 40
19.0
 40
19.0
 40
19.0
 40
20.0
 40
20.0
 40
20.0
 40
20.0
 10
160.1576249379868
 20
123.1710431018232
 30
0.0
 10
160.073501970026
 20
123.288176348351
 30
0.0
 10
159.9734062866295
 20
123.3541969054848
 30
0.0
 10
159.8600000070367
 20
123.3722993163119
 30
0.0
  0
SPLINE
  5
7AEE
330
1F
100
AcDbEntity
  8
レイヤー_1
 62
     7
370
    15
100
AcDbSpline
210
0.0
220
0.0
230
1.0
 70
     8
 71
     3
 72
    17
 73
    13
 74
     0
 42
0.000000001
 43
0.00000001
 40
20.0
 40
20.0
 40
20.0
 40
20.0
 40
21.0
 40
21.0
 40
21.0
 40
22.0
 40
22.0
 40
22.0
 40
23.0
 40
23.0
 40
23.0
 40
24.0
 40
24.0
 40
24.0
 40
24.0
 10
159.8600000070367
 20
123.3722993163119
 30
0.0
 10
159.746061303596
 20
123.3904017271389
 30
0.0
 10
159.6475628917431
 20
123.3691047732247
 30
0.0
 10
159.564504771478
 20
123.3094733022651
 30
0.0
 10
159.564504771478
 20
123.3094733022651
 30
0.0
 10
159.4644090880815
 20
123.2370636589571
 30
0.0
 10
159.4644090880815
 20
123.2370636589571
 30
0.0
 10
159.4644090880815
 20
123.2370636589571
 30
0.0
 10
159.3132007152911
 20
123.4468386550114
 30
0.0
 10
159.3132007152911
 20
123.4468386550114
 30
0.0
 10
159.3132007152911
 20
123.4468386550114
 30
0.0
 10
159.3872076301428
 20
123.5011458874925
 30
0.0
 10
159.3872076301428
 20
123.5011458874925
 30
0.0
  0
SPLINE
  5
7AEF
330
1F
100
AcDbEntity
  8
レイヤー_1
 62
     7
370
    15
100
AcDbSpline
210
0.0
220
0.0
230
1.0
 70
     8
 71
     3
 72
     8
 73
     4
 74
     0
 42
0.000000001
 43
0.00000001
 40
24.0
 40
24.0
 40
24.0
 40
24.0
 40
25.0
 40
25.0
 40
25.0
 40
25.0
 10
159.3872076301428
 20
123.5011458874925
 30
0.0
 10
159.4617469688423
 20
123.5554531199735
 30
0.0
 10
159.5075354197576
 20
123.6406409356301
 30
0.0
 10
159.5251054067368
 20
123.7545796390707
 30
0.0
  0
SPLINE
  5
7AF0
330
1F
100
AcDbEntity
  8
レイヤー_1
 62
     7
370
    15
100
AcDbSpline
210
0.0
220
0.0
230
1.0
 70
     8
 71
     3
 72
     8
 73
     4
 74
     0
 42
0.000000001
 43
0.00000001
 40
25.0
 40
25.0
 40
25.0
 40
25.0
 40
26.0
 40
26.0
 40
26.0
 40
26.0
 10
159.5251054067368
 20
123.7545796390707
 30
0.0
 10
159.5432078175639
 20
123.8674534948156
 30
0.0
 10
159.5075354197576
 20
123.9867164367349
 30
0.0
 10
159.4164909417747
 20
124.1113036171326
 30
0.0
  0
SPLINE
  5
7AF1
330
1F
100
AcDbEntity
  8
レイヤー_1
 62
     7
370
    15
100
AcDbSpline
210
0.0
220
0.0
230
1.0
 70
     8
 71
     3
 72
     8
 73
     4
 74
     0
 42
0.000000001
 43
0.00000001
 40
26.0
 40
26.0
 40
26.0
 40
26.0
 40
27.0
 40
27.0
 40
27.0
 40
27.0
 10
159.4164909417747
 20
124.1113036171326
 30
0.0
 10
159.3387570599881
 20
124.218853234399
 30
0.0
 10
159.2429207673745
 20
124.28061440075
 30
0.0
 10
159.1295144877816
 20
124.2997816592727
 30
0.0
  0
SPLINE
  5
7AF2
330
1F
100
AcDbEntity
  8
レイヤー_1
 62
     7
370
    15
100
AcDbSpline
210
0.0
220
0.0
230
1.0
 70
     8
 71
     3
 72
     8
 73
     4
 74
     0
 42
0.000000001
 43
0.00000001
 40
27.0
 40
27.0
 40
27.0
 40
27.0
 40
28.0
 40
28.0
 40
28.0
 40
28.0
 10
159.1295144877816
 20
124.2997816592727
 30
0.0
 10
159.0437942482773
 20
124.3136246793169
 30
0.0
 10
158.9602037041643
 20
124.2891331823157
 30
0.0
 10
158.8766131600512
 20
124.2284368636603
 30
0.0
  0
SPLINE
  5
7AF3
330
1F
100
AcDbEntity
  8
レイヤー_1
 62
     7
370
    15
100
AcDbSpline
210
0.0
220
0.0
230
1.0
 70
     8
 71
     3
 72
     8
 73
     4
 74
     0
 42
0.000000001
 43
0.00000001
 40
28.0
 40
28.0
 40
28.0
 40
28.0
 40
29.0
 40
29.0
 40
29.0
 40
29.0
 10
158.8766131600512
 20
124.2284368636603
 30
0.0
 10
158.8031386690474
 20
124.175194478875
 30
0.0
 10
158.7578826419798
 20
124.0974605970884
 30
0.0
 10
158.7424423503921
 20
123.9984297613877
 30
0.0
  0
SPLINE
  5
7AF4
330
1F
100
AcDbEntity
  8
レイヤー_1
 62
     7
370
    15
100
AcDbSpline
210
0.0
220
0.0
230
1.0
 70
     8
 71
     3
 72
    11
 73
     7
 74
     0
 42
0.000000001
 43
0.00000001
 40
29.0
 40
29.0
 40
29.0
 40
29.0
 40
30.0
 40
30.0
 40
30.0
 40
31.0
 40
31.0
 40
31.0
 40
31.0
 10
158.7424423503921
 20
123.9984297613877
 30
0.0
 10
158.7238075157173
 20
123.884491057947
 30
0.0
 10
158.7642717281541
 20
123.7503202482879
 30
0.0
 10
158.8648998353985
 20
123.5948524847147
 30
0.0
 10
158.8648998353985
 20
123.5948524847147
 30
0.0
 10
158.5907015537538
 20
123.3967908133131
 30
0.0
 10
158.5907015537538
 20
123.3967908133131
 30
0.0
  0
LINE
  5
7AF5
330
1F
100
AcDbEntity
  8
レイヤー_1
 62
     7
370
    15
100
AcDbLine
 10
160.8524374711702
 20
125.8203846302324
 30
0.0
 11
162.1824324711702
 21
126.4113741756869
 31
0.0
  0
LINE
  5
7AF6
330
1F
100
AcDbEntity
  8
レイヤー_1
 62
     7
370
    15
100
AcDbLine
 10
162.1824324711702
 20
126.4113741756869
 30
0.0
 11
162.3203302893521
 21
126.1025691756869
 31
0.0
  0
LINE
  5
7AF7
330
1F
100
AcDbEntity
  8
レイヤー_1
 62
     7
370
    15
100
AcDbLine
 10
162.3203302893521
 20
126.1025691756869
 30
0.0
 11
162.5764260166248
 21
123.7183748120505
 31
0.0
  0
LINE
  5
7AF8
330
1F
100
AcDbEntity
  8
レイヤー_1
 62
     7
370
    15
100
AcDbLine
 10
162.5764260166248
 20
123.7183748120505
 30
0.0
 11
162.2692174711702
 21
123.5810101756869
 31
0.0
  0
LINE
  5
7AF9
330
1F
100
AcDbEntity
  8
レイヤー_1
 62
     7
370
    15
100
AcDbLine
 10
162.2692174711702
 20
123.5810101756869
 30
0.0
 11
161.992890198443
 21
126.0088620847777
 31
0.0
  0
LINE
  5
7AFA
330
1F
100
AcDbEntity
  8
レイヤー_1
 62
     7
370
    15
100
AcDbLine
 10
161.992890198443
 20
126.0088620847777
 30
0.0
 11
160.9711685620793
 21
125.5552371756869
 31
0.0
  0
LINE
  5
7AFB
330
1F
100
AcDbEntity
  8
レイヤー_1
 62
     7
370
    15
100
AcDbLine
 10
160.9711685620793
 20
125.5552371756869
 30
0.0
 11
160.8524374711702
 21
125.8203846302324
 31
0.0
  0
SPLINE
  5
7AFC
330
1F
100
AcDbEntity
  8
レイヤー_1
 62
     7
370
    15
100
AcDbSpline
210
0.0
220
0.0
230
1.0
 70
    24
 71
     3
 72
     8
 73
     4
 74
     0
 42
0.000000001
 43
0.00000001
 40
0.0
 40
0.0
 40
0.0
 40
0.0
 40
1.0
 40
1.0
 40
1.0
 40
1.0
 10
168.7834236970619
 20
111.7005037236666
 30
0.0
 10
168.7834236970619
 20
111.7005037236666
 30
0.0
 10
179.8205700630658
 20
108.7434216726882
 30
0.0
 10
179.8205700630658
 20
108.7434216726882
 30
0.0
  0
SPLINE
  5
7AFD
330
1F
100
AcDbEntity
  8
レイヤー_1
 62
     7
370
    15
100
AcDbSpline
210
0.0
220
0.0
230
1.0
 70
     8
 71
     3
 72
    11
 73
     7
 74
     0
 42
0.000000001
 43
0.00000001
 40
1.0
 40
1.0
 40
1.0
 40
1.0
 40
2.0
 40
2.0
 40
2.0
 40
3.0
 40
3.0
 40
3.0
 40
3.0
 10
179.8205700630658
 20
108.7434216726882
 30
0.0
 10
180.0718741192526
 20
109.6900712741717
 30
0.0
 10
180.2182906774123
 20
110.6771850880922
 30
0.0
 10
180.2294715782173
 20
111.7005037236666
 30
0.0
 10
180.2294715782173
 20
111.7005037236666
 30
0.0
 10
168.7834236970619
 20
111.7005037236666
 30
0.0
 10
168.7834236970619
 20
111.7005037236666
 30
0.0
  0
LINE
  5
7AFE
330
1F
100
AcDbEntity
  8
レイヤー_1
 62
     7
370
    15
100
AcDbLine
 10
185.2017229257157
 20
169.2688124741511
 30
0.0
 11
151.2017229257157
 21
169.2688124741511
 31
0.0
  0
LINE
  5
7AFF
330
1F
100
AcDbEntity
  8
レイヤー_1
 62
     7
370
    15
100
AcDbLine
 10
151.2017229257157
 20
172.2688124741511
 30
0.0
 11
185.2017229257157
 21
172.2688124741511
 31
0.0
  0
LINE
  5
7B00
330
1F
100
AcDbEntity
  8
0
  6
Continuous
 62
     0
370
    15
100
AcDbLine
 10
160.1803629257157
 20
239.2688124741511
 30
0.0
 11
176.1803629257157
 21
239.2688124741511
 31
0.0
  0
DIMENSION
  5
7B01
330
1F
100
AcDbEntity
  8
0
  6
Continuous
 62
     7
370
     9
100
AcDbDimension
  2
*D5
 10
176.1803629257157
 20
244.7695092814194
 30
0.0
 11
168.1803629257157
 21
246.6445092814194
 31
0.0
 70
    32
  1
8
 71
     5
 42
16.0
 73
     0
 74
     0
 75
     0
  3
ISO-25
100
AcDbAlignedDimension
 13
160.1803629257157
 23
239.2688124741511
 33
0.0
 14
176.1803629257157
 24
239.2688124741511
 34
0.0
100
AcDbRotatedDimension
1001
ACAD
1000
DSTYLE
1002
{
1070
     7
1000
OPEN
1070
     6
1000
OPEN
1070
     5
1000

1070
   173
1070
     1
1002
}
  0
DIMENSION
  5
7B02
330
1F
100
AcDbEntity
  8
0
  6
Continuous
 62
     7
370
     9
100
AcDbDimension
  2
*D6
 10
141.6336051326509
 20
169.2688124741511
 30
0.0
 11
139.7581362068037
 21
204.2688124741511
 31
0.0
 70
    32
  1
35
 71
     5
 42
70.0
 73
     0
 74
     0
 75
     0
  3
ISO-25
100
AcDbAlignedDimension
 13
160.1803629257157
 23
239.2688124741511
 33
0.0
 14
151.2017229257157
 24
169.2688124741511
 34
0.0
 50
90.0
100
AcDbRotatedDimension
1001
ACAD
1000
DSTYLE
1002
{
1070
     7
1000
OPEN
1070
     6
1000
OPEN
1070
     5
1000

1070
   173
1070
     1
1002
}
  0
DIMENSION
  5
7B03
330
1F
100
AcDbEntity
  8
0
  6
Continuous
 62
     0
370
     9
100
AcDbDimension
  2
*D7
 10
272.0369239257157
 20
245.1909568585349
 30
0.0
 11
257.5369239257157
 21
247.0726781290113
 31
0.0
 70
    32
  1
14
 71
     5
 42
29.0
 73
     0
 74
     0
 75
     0
  3
ISO-25
100
AcDbAlignedDimension
 13
243.0369239257157
 23
239.2688124741511
 33
0.0
 14
272.0369239257157
 24
239.2688124741511
 34
0.0
100
AcDbRotatedDimension
1001
ACAD
1000
DSTYLE
1002
{
1070
     7
1000
OPEN
1070
     6
1000
OPEN
1070
     5
1000

1070
   278
1070
    46
1070
   173
1070
     1
1002
}
  0
LINE
  5
7B04
330
1F
100
AcDbEntity
  8
0
  6
Continuous
 62
     0
370
    15
100
AcDbLine
 10
179.7165883419862
 20
108.4910007289862
 30
0.0
 11
174.9187504650431
 21
109.898392538885
 31
0.0
1001
ACAD_DSTYLE_DIMRADIAL_EXTE
1070
   387
1070
     1
1070
   388
1040
0.0
1070
   390
1040
6.283185307179586
1001
ACAD
1000
DSTYLE
1002
{
1070
   282
1070
     1
1070
   281
1070
     0
1070
   344
1005
7971
1070
   173
1070
     1
1002
}
  0
LINE
  5
7B05
330
1F
100
AcDbEntity
  8
0
  6
Continuous
 62
     0
370
    15
100
AcDbLine
 10
156.6869131458089
 20
115.246497076933
 30
0.0
 11
161.484751022752
 21
113.8391052670342
 31
0.0
1001
ACAD_DSTYLE_DIMRADIAL_EXTE
1070
   387
1070
     1
1070
   388
1040
0.0
1070
   390
1040
6.283185307179586
1001
ACAD
1000
DSTYLE
1002
{
1070
   282
1070
     1
1070
   281
1070
     0
1070
   344
1005
7971
1070
   173
1070
     1
1002
}
  0
LINE
  5
7B06
330
1F
100
AcDbEntity
  8
0
  6
Continuous
 62
     0
370
    15
100
AcDbLine
 10
179.7165883419862
 20
108.4910007289862
 30
0.0
 11
174.9187504650431
 21
109.898392538885
 31
0.0
1001
ACAD_DSTYLE_DIMRADIAL_EXTE
1070
   387
1070
     1
1070
   388
1040
0.0
1070
   390
1040
6.283185307179586
1001
ACAD
1000
DSTYLE
1002
{
1070
   282
1070
     1
1070
   281
1070
     0
1070
   344
1005
7971
1070
   173
1070
     1
1002
}
  0
MTEXT
  5
7B07
330
1F
100
AcDbEntity
  8
0
  6
Continuous
 62
     0
370
     9
100
AcDbMText
 10
136.6304308158807
 20
123.0869766199271
 30
0.0
 40
2.5
 41
0.0
 46
2.5
 71
     5
 72
     1
  1
{Ø17}
 11
0.9595675753886175
 21
-0.2814783619797618
 31
0.0
 73
     1
 44
1.0
1001
ACAD_DSTYLE_DIMRADIAL_EXTE
1070
   387
1070
     1
1070
   388
1040
0.0
1070
   390
1040
6.283185307179586
1001
ACAD
1000
DSTYLE
1002
{
1070
   282
1070
     1
1070
   281
1070
     0
1070
   344
1005
7971
1070
   173
1070
     1
1002
}
1000
ACAD_MTEXT_DEFINED_HEIGHT_BEGIN
1070
    46
1040
2.5
1000
ACAD_MTEXT_DEFINED_HEIGHT_END
  0
LINE
  5
7B08
330
1F
100
AcDbEntity
  8
0
  6
Continuous
 62
     0
370
     9
100
AcDbLine
 10
184.5144262189293
 20
107.0836089190874
 30
0.0
 11
151.8890752688658
 21
116.6538888868318
 31
0.0
1001
ACAD_DSTYLE_DIMRADIAL_EXTE
1070
   387
1070
     1
1070
   388
1040
0.0
1070
   390
1040
6.283185307179586
1001
ACAD
1000
DSTYLE
1002
{
1070
   282
1070
     1
1070
   281
1070
     0
1070
   344
1005
7971
1070
   173
1070
     1
1002
}
  0
LINE
  5
7B09
330
1F
100
AcDbEntity
  8
0
  6
ByBlock
 62
     0
100
AcDbLine
 10
184.5144262189293
 20
107.0836089190874
 30
0.0
 11
189.3122640958724
 21
105.6762171091886
 31
0.0
  0
LINE
  5
7B0A
330
1F
100
AcDbEntity
  8
0
  6
ByBlock
 62
     0
100
AcDbLine
 10
186.7960622720107
 20
105.9800923914198
 30
0.0
 11
184.5144262189293
 21
107.0836089190874
 31
0.0
  0
LINE
  5
7B0B
330
1F
100
AcDbEntity
  8
0
  6
ByBlock
 62
     0
100
AcDbLine
 10
187.0306280427911
 20
106.7797336368562
 30
0.0
 11
184.5144262189293
 21
107.0836089190874
 31
0.0
  0
LINE
  5
7B0C
330
1F
100
AcDbEntity
  8
0
  6
Continuous
 62
     0
370
     9
100
AcDbLine
 10
191.2051973743636
 20
105.1209464099355
 30
0.0
 11
189.3122640958724
 21
105.6762171091886
 31
0.0
1001
ACAD_DSTYLE_DIMRADIAL_EXTE
1070
   387
1070
     1
1070
   388
1040
0.0
1070
   390
1040
6.283185307179586
1001
ACAD
1000
DSTYLE
1002
{
1070
   282
1070
     1
1070
   281
1070
     0
1070
   344
1005
0
1070
   173
1070
     1
1002
}
  0
LINE
  5
7B0D
330
1F
100
AcDbEntity
  8
0
  6
Continuous
 62
     0
370
     9
100
AcDbLine
 10
151.8890752688658
 20
116.6538888868318
 30
0.0
 11
133.1182550276548
 21
122.1600980064687
 31
0.0
1001
ACAD_DSTYLE_DIMRADIAL_EXTE
1070
   387
1070
     1
1070
   388
1040
0.0
1070
   390
1040
6.283185307179586
1001
ACAD
1000
DSTYLE
1002
{
1070
   282
1070
     1
1070
   281
1070
     0
1070
   344
1005
0
1070
   173
1070
     1
1002
}
  0
LINE
  5
7B0E
330
1F
100
AcDbEntity
  8
0
  6
ByBlock
 62
     0
100
AcDbLine
 10
149.6055336330763
 20
117.753456712467
 30
0.0
 11
151.8890752688658
 21
116.6538888868318
 31
0.0
  0
LINE
  5
7B0F
330
1F
100
AcDbEntity
  8
0
  6
ByBlock
 62
     0
100
AcDbLine
 10
149.372351529709
 20
116.9534108832209
 30
0.0
 11
151.8890752688658
 21
116.6538888868318
 31
0.0
  0
MTEXT
  5
7B45
330
1F
100
AcDbEntity
  8
0
 62
     7
100
AcDbMText
 10
243.83886831415
 20
57.5515445087
 30
0.0
 40
3.0
 41
32.32226337169999
 46
13.6763514576
 71
     5
 72
     5
  1
{原}
 73
     1
 44
1.0
1001
ACAD
1000
ACAD_MTEXT_DEFINED_HEIGHT_BEGIN
1070
    46
1040
13.6763514576
1000
ACAD_MTEXT_DEFINED_HEIGHT_END
  0
MTEXT
  5
7B54
330
1F
100
AcDbEntity
  8
0
 62
     7
100
AcDbMText
 10
243.83886831415
 20
44.0969953148
 30
0.0
 40
3.0
 41
32.32226337169999
 46
13.23274693020001
 71
     5
 72
     5
  1
{小林}
 73
     1
 44
1.0
1001
ACAD
1000
ACAD_MTEXT_DEFINED_HEIGHT_BEGIN
1070
    46
1040
13.23274693020001
1000
ACAD_MTEXT_DEFINED_HEIGHT_END
  0
MTEXT
  5
7B63
330
1F
100
AcDbEntity
  8
0
 62
     7
100
AcDbMText
 10
243.83886831415
 20
30.71387626035
 30
0.0
 40
3.0
 41
32.32226337169999
 46
13.5334911787
 71
     5
 72
     5
  1
{小林}
 73
     1
 44
1.0
1001
ACAD
1000
ACAD_MTEXT_DEFINED_HEIGHT_BEGIN
1070
    46
1040
13.5334911787
1000
ACAD_MTEXT_DEFINED_HEIGHT_END
  0
MTEXT
  5
7B7F
330
1F
100
AcDbEntity
  8
0
 62
     7
100
AcDbMText
 10
243.83886831415
 20
20.45168457675
 30
0.0
 40
3.0
 41
32.32226337169999
 46
6.990892188499998
 71
     5
 72
     5
  1
{岩下}
 73
     1
 44
1.0
1001
ACAD
1000
ACAD_MTEXT_DEFINED_HEIGHT_BEGIN
1070
    46
1040
6.990892188499998
1000
ACAD_MTEXT_DEFINED_HEIGHT_END
  0
MTEXT
  5
7B8E
330
1F
100
AcDbEntity
  8
0
 62
     7
100
AcDbMText
 10
243.83886831415
 20
13.47811924125
 30
0.0
 40
3.0
 41
32.32226337169999
 46
6.956238482500002
 71
     5
 72
     5
  1
{2023/10/02}
 73
     1
 44
1.0
1001
ACAD
1000
ACAD_MTEXT_DEFINED_HEIGHT_BEGIN
1070
    46
1040
6.956238482500002
1000
ACAD_MTEXT_DEFINED_HEIGHT_END
  0
MTEXT
  5
7B9D
330
1F
100
AcDbEntity
  8
0
 62
     7
100
AcDbMText
 10
316.2312433825736
 20
14.7328844161
 30
0.0
 40
3.0
 41
33.61190682285297
 46
9.465768832199998
 71
     5
 72
     5
  1
{2：1}
 73
     1
 44
1.0
1001
ACAD
1000
ACAD_MTEXT_DEFINED_HEIGHT_BEGIN
1070
    46
1040
9.465768832199998
1000
ACAD_MTEXT_DEFINED_HEIGHT_END
  0
MTEXT
  5
7BAC
330
1F
100
AcDbEntity
  8
0
 62
     7
100
AcDbMText
 10
371.518598397
 20
60.417290178125
 30
0.0
 40
3.0
 41
76.96280320599999
 46
3.135050643991497
 71
     5
 72
     5
  1
{HEC-032/033G}
 73
     1
 44
1.0
1001
ACAD
1000
ACAD_MTEXT_DEFINED_HEIGHT_BEGIN
1070
    46
1040
3.135050643991497
1000
ACAD_MTEXT_DEFINED_HEIGHT_END
  0
MTEXT
  5
7BBB
330
1F
100
AcDbEntity
  8
0
 62
     7
100
AcDbMText
 10
371.518598397
 20
30.36122894695
 30
0.0
 40
3.0
 41
76.96280320599999
 46
7.758232389100009
 71
     5
 72
     5
  1
{ﾗﾝﾄﾞｽｹｰﾌﾟ用ﾄﾞﾗｲｺｰﾝ 10個入/100個入}
 73
     1
 44
1.0
1001
ACAD
1000
ACAD_MTEXT_DEFINED_HEIGHT_BEGIN
1070
    46
1040
7.758232389100009
1000
ACAD_MTEXT_DEFINED_HEIGHT_END
  0
MTEXT
  5
7BCA
330
1F
100
AcDbEntity
  8
0
 62
     7
100
AcDbMText
 10
371.518598397
 20
45.24928876529999
 30
0.0
 40
3.0
 41
76.96280320599999
 46
7.758232389100002
 71
     5
 72
     5
  1
{-}
 73
     1
 44
1.0
1001
ACAD
1000
ACAD_MTEXT_DEFINED_HEIGHT_BEGIN
1070
    46
1040
7.758232389100002
1000
ACAD_MTEXT_DEFINED_HEIGHT_END
  0
MTEXT
  5
7BEE
330
1F
100
AcDbEntity
  8
0
 62
     7
100
AcDbMText
 10
296.518598397
 20
60.417290178125
 30
0.0
 40
3.0
 41
73.03719679400001
 46
3.0
 71
     5
 72
     5
  1
{-}
 73
     1
 44
1.0
1001
ACAD
1000
ACAD_MTEXT_DEFINED_HEIGHT_BEGIN
1070
    46
1040
3.0
1000
ACAD_MTEXT_DEFINED_HEIGHT_END
  0
MTEXT
  5
7BEF
330
1F
100
AcDbEntity
  8
0
 62
     7
100
AcDbMText
 10
296.518598397
 20
45.155974900475
 30
0.0
 40
3.0
 41
73.03719679400001
 46
3.0
 71
     5
 72
     5
  1
{PP}
 73
     1
 44
1.0
1001
ACAD
1000
ACAD_MTEXT_DEFINED_HEIGHT_BEGIN
1070
    46
1040
3.0
1000
ACAD_MTEXT_DEFINED_HEIGHT_END
  0
MTEXT
  5
7BF0
330
1F
100
AcDbEntity
  8
0
 62
     7
100
AcDbMText
 10
296.518598397
 20
30.26791508212501
 30
0.0
 40
3.0
 41
73.03719679400001
 46
3.579545454545455
 71
     5
 72
     5
  1
{0.1kg}
 73
     1
 44
1.0
1001
ACAD
1000
ACAD_MTEXT_DEFINED_HEIGHT_BEGIN
1070
    46
1040
3.579545454545455
1000
ACAD_MTEXT_DEFINED_HEIGHT_END
  0
VIEWPORT
  5
3275
330
1B
100
AcDbEntity
 67
     1
  8
0
100
AcDbViewport
 10
0.0
 20
0.0
 30
0.0
 40
560.4066218034993
 41
249.48
 68
     1
 69
     1
 12
232.5307772543742
 22
120.4624125168237
 13
0.0
 23
0.0
 14
0.5
 24
0.5
 15
0.0
 25
0.0
 16
0.0
 26
0.0
 36
1.0
 17
0.0
 27
0.0
 37
0.0
 42
50.0
 43
0.0
 44
0.0
 45
249.48
 50
0.0
 51
0.0
 72
   100
 90
   557168
  1

281
     0
 71
     1
 74
     0
110
0.0
120
0.0
130
0.0
111
1.0
121
0.0
131
0.0
112
0.0
122
1.0
132
0.0
 79
     0
146
0.0
170
     0
 61
     5
348
77AE
292
     1
282
     1
141
0.0
142
0.0
 63
   256
  0
VIEWPORT
  5
3276
102
{ACAD_XDICTIONARY
360
3277
102
}
330
1B
100
AcDbEntity
 67
     1
  8
0
100
AcDbViewport
 10
202.5
 20
128.5
 30
0.0
 40
324.0
 41
205.6
 68
     2
 69
     2
 12
210.0
 22
148.5
 13
0.0
 23
0.0
 14
0.5
 24
0.5
 15
0.0
 25
0.0
 16
0.0
 26
0.0
 36
1.0
 17
0.0
 27
0.0
 37
0.0
 42
50.0
 43
0.0
 44
0.0
 45
302.94
 50
0.0
 51
0.0
 72
   100
 90
   557152
  1

281
     0
 71
     1
 74
     0
110
0.0
120
0.0
130
0.0
111
1.0
121
0.0
131
0.0
112
0.0
122
1.0
132
0.0
 79
     0
146
0.0
170
     0
 61
     5
348
77AE
292
     1
282
     1
141
0.0
142
0.0
 63
   256
  0
ENDSEC
  0
SECTION
  2
OBJECTS
  0
DICTIONARY
  5
C
330
0
100
AcDbDictionary
281
     1
  3
ACAD_DETAILVIEWSTYLE
350
3284
  3
ACAD_GROUP
350
D
  3
ACAD_IMAGE_DICT
350
97D
  3
ACAD_IMAGE_VARS
350
3AC
  3
ACAD_LAYOUT
350
77E7
  3
ACAD_MATERIAL
350
77EA
  3
ACAD_MLEADERSTYLE
350
77F0
  3
ACAD_MLINESTYLE
350
17
  3
ACAD_PLOTSETTINGS
350
77C2
  3
ACAD_PLOTSTYLENAME
350
77C3
  3
ACAD_SCALELIST
350
77C5
  3
ACAD_SECTIONVIEWSTYLE
350
3285
  3
ACAD_TABLESTYLE
350
77EE
  3
ACAD_VISUALSTYLE
350
77A9
  3
ACDB_RECOMPOSE_DATA
350
7BF4
  3
ACDBVARIABLEDICTIONARY
350
327F
  3
APPDATA
350
3AA
  3
DIMOFFSETDICTIONARY
350
3784
  0
SUN
  5
77F2
330
29
100
AcDbSun
 90
        1
290
     0
 63
     7
421
 16777215
 40
1.0
291
     1
 91
  2455826
 92
 54000000
292
     0
 70
     2
 71
   256
280
     1
  0
DICTIONARY
  5
3488
330
2
100
AcDbDictionary
280
     1
281
     1
  3
ACAD_LAYERSTATES
360
3489
  3
ACLYDICTIONARY
360
77FA
  0
DICTIONARY
  5
3277
330
3276
100
AcDbDictionary
280
     1
281
     1
  3
ASDK_XREC_ANNOTATION_SCALE_INFO
360
3278
  0
DICTIONARY
  5
3284
102
{ACAD_REACTORS
330
C
102
}
330
C
100
AcDbDictionary
281
     1
  0
DICTIONARY
  5
D
102
{ACAD_REACTORS
330
C
102
}
330
C
100
AcDbDictionary
281
     1
  0
DICTIONARY
  5
97D
102
{ACAD_REACTORS
330
C
102
}
330
C
100
AcDbDictionary
281
     1
  3
\\192.168.192.119\DIGITE10
350
97E
  3
\\192.168.192.119\DIGITE11
350
97F
  3
\\192.168.192.119\DIGITE12
350
980
  3
\\192.168.192.119\DIGITE13
350
981
  3
\\192.168.192.119\DIGITEC-
350
97C
  3
\\192.168.192.119\DIGITEC0
350
982
  3
\\192.168.192.119\DIGITEC1
350
983
  3
\\192.168.192.119\DIGITEC2
350
984
  3
\\192.168.192.119\DIGITEC3
350
985
  3
\\192.168.192.119\DIGITEC4
350
986
  3
\\192.168.192.119\DIGITEC5
350
987
  3
\\192.168.192.119\DIGITEC6
350
988
  3
\\192.168.192.119\DIGITEC7
350
989
  3
\\192.168.192.119\DIGITEC8
350
98A
  3
\\192.168.192.119\DIGITEC9
350
98B
  0
RASTERVARIABLES
  5
3AC
102
{ACAD_REACTORS
330
C
102
}
330
C
100
AcDbRasterVariables
 90
        0
 70
     1
 71
     1
 72
     1
  0
DICTIONARY
  5
77E7
102
{ACAD_REACTORS
330
C
102
}
330
C
100
AcDbDictionary
281
     1
  3
Model
350
77E8
  3
シート 1
350
77E9
  0
DICTIONARY
  5
77EA
102
{ACAD_REACTORS
330
C
102
}
330
C
100
AcDbDictionary
281
     1
  3
ByBlock
350
77EC
  3
ByLayer
350
77EB
  3
Global
350
77ED
  0
DICTIONARY
  5
77F0
102
{ACAD_REACTORS
330
C
102
}
330
C
100
AcDbDictionary
281
     1
  3
Standard
350
77F1
  0
DICTIONARY
  5
17
102
{ACAD_REACTORS
330
C
102
}
330
C
100
AcDbDictionary
281
     1
  3
STANDARD
350
18
  0
DICTIONARY
  5
77C2
102
{ACAD_REACTORS
330
C
102
}
330
C
100
AcDbDictionary
281
     1
  0
ACDBDICTIONARYWDFLT
  5
77C3
102
{ACAD_REACTORS
330
C
102
}
330
C
100
AcDbDictionary
281
     1
  3
Normal
350
77C4
100
AcDbDictionaryWithDefault
340
77C4
  0
DICTIONARY
  5
77C5
102
{ACAD_REACTORS
330
C
102
}
330
C
100
AcDbDictionary
281
     1
  3
A0
350
77C6
  3
A1
350
77C7
  3
A2
350
77C8
  3
A3
350
77C9
  3
A4
350
77CA
  3
A5
350
77CB
  3
A6
350
77CC
  3
A7
350
77CD
  3
A8
350
77CE
  3
A9
350
77CF
  3
B0
350
77D0
  3
B1
350
77D1
  3
B2
350
77D2
  3
B3
350
77D3
  3
B4
350
77D4
  3
B5
350
77D5
  3
B6
350
77D6
  3
B7
350
77D7
  3
B8
350
77D8
  3
B9
350
77D9
  3
C0
350
77DA
  3
C1
350
77DB
  3
C2
350
77DC
  3
C3
350
77DD
  3
C4
350
77DE
  3
C5
350
77DF
  3
C6
350
77E0
  3
C7
350
77E1
  3
C8
350
77E2
  3
C9
350
77E3
  3
D0
350
77E4
  3
D1
350
77E5
  3
D2
350
77E6
  0
DICTIONARY
  5
3285
102
{ACAD_REACTORS
330
C
102
}
330
C
100
AcDbDictionary
281
     1
  0
DICTIONARY
  5
77EE
102
{ACAD_REACTORS
330
C
102
}
330
C
100
AcDbDictionary
281
     1
  3
Standard
350
77EF
  0
DICTIONARY
  5
77A9
102
{ACAD_REACTORS
330
C
102
}
330
C
100
AcDbDictionary
281
     1
  3
2dWireframe
350
77AE
  3
Basic
350
77B1
  3
Brighten
350
77B5
  3
ColorChange
350
77B9
  3
Conceptual
350
77B3
  3
Dim
350
77B4
  3
EdgeColorOff
350
77BC
  3
Facepattern
350
77B8
  3
Flat
350
77AA
  3
FlatWithEdges
350
77AB
  3
Gouraud
350
77AC
  3
GouraudWithEdges
350
77AD
  3
Hidden
350
77B0
  3
JitterOff
350
77BA
  3
Linepattern
350
77B7
  3
OverhangOff
350
77BB
  3
Realistic
350
77B2
  3
Shaded
350
77C1
  3
Shaded with edges
350
77C0
  3
Shades of Gray
350
77BD
  3
Sketchy
350
77BE
  3
Thicken
350
77B6
  3
Wireframe
350
77AF
  3
X-Ray
350
77BF
  0
XRECORD
  5
7BF4
102
{ACAD_REACTORS
330
C
102
}
330
C
100
AcDbXrecord
280
     1
 90
        1
330
77EF
  0
DICTIONARY
  5
327F
102
{ACAD_REACTORS
330
C
102
}
330
C
100
AcDbDictionary
281
     1
  3
CANNOSCALE
350
77F3
  3
CMLEADERSTYLE
350
77F5
  3
CTABLESTYLE
350
77F4
  3
MSLTSCALE
350
77F6
  0
DICTIONARY
  5
3AA
102
{ACAD_REACTORS
330
C
102
}
330
C
100
AcDbDictionary
281
     1
  0
DICTIONARY
  5
3784
102
{ACAD_REACTORS
330
C
102
}
330
C
100
AcDbDictionary
281
     1
  3
DIMRAILANGLE
350
3787
  3
DIMRAILFIRSTOFFSET
350
3785
  3
DIMRAILOFFSET
350
3786
  3
DIMRAILSENABLED
350
3788
  0
DICTIONARY
  5
3489
102
{ACAD_REACTORS
330
3488
102
}
330
3488
100
AcDbDictionary
281
     1
  0
DICTIONARY
  5
77FA
102
{ACAD_REACTORS
330
3488
102
}
330
3488
100
AcDbDictionary
281
     1
1001
ACAD
1000
<All
  0
XRECORD
  5
3278
102
{ACAD_REACTORS
330
3277
102
}
330
3277
100
AcDbXrecord
280
     1
 90
        1
340
0
  0
IMAGEDEF
  5
97E
102
{ACAD_REACTORS
330
97D
102
}
330
97D
100
AcDbRasterImageDef
 90
        0
  1
\\192.168.192.119\digitec-common\デザイン制作部（仮）\★2017新商品\銘版シール\【2017銘版シール】outline_6.png
 10
220.0
 20
182.0
 11
0.3527777777777777
 21
0.3527777777777777
280
     1
281
     5
  0
IMAGEDEF
  5
97F
102
{ACAD_REACTORS
330
97D
102
}
330
97D
100
AcDbRasterImageDef
 90
        0
  1
\\192.168.192.119\digitec-common\デザイン制作部（仮）\★2017新商品\銘版シール\【2017銘版シール】outline_7.png
 10
220.0
 20
182.0
 11
0.3527777777777777
 21
0.3527777777777777
280
     1
281
     5
  0
IMAGEDEF
  5
980
102
{ACAD_REACTORS
330
97D
102
}
330
97D
100
AcDbRasterImageDef
 90
        0
  1
\\192.168.192.119\digitec-common\デザイン制作部（仮）\★2017新商品\銘版シール\【2017銘版シール】outline_8.png
 10
220.0
 20
182.0
 11
0.3527777777777777
 21
0.3527777777777777
280
     1
281
     5
  0
IMAGEDEF
  5
981
102
{ACAD_REACTORS
330
97D
102
}
330
97D
100
AcDbRasterImageDef
 90
        0
  1
\\192.168.192.119\digitec-common\デザイン制作部（仮）\★2017新商品\銘版シール\【2017銘版シール】outline_9.png
 10
220.0
 20
182.0
 11
0.3527777777777777
 21
0.3527777777777777
280
     1
281
     5
  0
IMAGEDEF
  5
97C
102
{ACAD_REACTORS
330
97D
102
}
330
97D
100
AcDbRasterImageDef
 90
        0
  1
\\192.168.192.119\digitec-common\デザイン制作部（仮）\★2017新商品\銘版シール\【2017銘版シール】outline_1.png
 10
220.0
 20
182.0
 11
0.3527777777777777
 21
0.3527777777777777
280
     1
281
     5
  0
IMAGEDEF
  5
982
102
{ACAD_REACTORS
330
97D
102
}
330
97D
100
AcDbRasterImageDef
 90
        0
  1
\\192.168.192.119\digitec-common\デザイン制作部（仮）\★2017新商品\銘版シール\【2017銘版シール】outline_10.png
 10
220.0
 20
182.0
 11
0.3527777777777777
 21
0.3527777777777777
280
     1
281
     5
  0
IMAGEDEF
  5
983
102
{ACAD_REACTORS
330
97D
102
}
330
97D
100
AcDbRasterImageDef
 90
        0
  1
\\192.168.192.119\digitec-common\デザイン制作部（仮）\★2017新商品\銘版シール\【2017銘版シール】outline_11.png
 10
220.0
 20
182.0
 11
0.3527777777777777
 21
0.3527777777777777
280
     1
281
     5
  0
IMAGEDEF
  5
984
102
{ACAD_REACTORS
330
97D
102
}
330
97D
100
AcDbRasterImageDef
 90
        0
  1
\\192.168.192.119\digitec-common\デザイン制作部（仮）\★2017新商品\銘版シール\【2017銘版シール】outline_12.png
 10
220.0
 20
182.0
 11
0.3527777777777777
 21
0.3527777777777777
280
     1
281
     5
  0
IMAGEDEF
  5
985
102
{ACAD_REACTORS
330
97D
102
}
330
97D
100
AcDbRasterImageDef
 90
        0
  1
\\192.168.192.119\digitec-common\デザイン制作部（仮）\★2017新商品\銘版シール\【2017銘版シール】outline_13.png
 10
220.0
 20
182.0
 11
0.3527777777777777
 21
0.3527777777777777
280
     1
281
     5
  0
IMAGEDEF
  5
986
102
{ACAD_REACTORS
330
97D
102
}
330
97D
100
AcDbRasterImageDef
 90
        0
  1
\\192.168.192.119\digitec-common\デザイン制作部（仮）\★2017新商品\銘版シール\【2017銘版シール】outline_14.png
 10
220.0
 20
182.0
 11
0.3527777777777777
 21
0.3527777777777777
280
     1
281
     5
  0
IMAGEDEF
  5
987
102
{ACAD_REACTORS
330
97D
102
}
330
97D
100
AcDbRasterImageDef
 90
        0
  1
\\192.168.192.119\digitec-common\デザイン制作部（仮）\★2017新商品\銘版シール\【2017銘版シール】outline_15.png
 10
220.0
 20
182.0
 11
0.3527777777777777
 21
0.3527777777777777
280
     1
281
     5
  0
IMAGEDEF
  5
988
102
{ACAD_REACTORS
330
97D
102
}
330
97D
100
AcDbRasterImageDef
 90
        0
  1
\\192.168.192.119\digitec-common\デザイン制作部（仮）\★2017新商品\銘版シール\【2017銘版シール】outline_2.png
 10
220.0
 20
182.0
 11
0.3527777777777777
 21
0.3527777777777777
280
     1
281
     5
  0
IMAGEDEF
  5
989
102
{ACAD_REACTORS
330
97D
102
}
330
97D
100
AcDbRasterImageDef
 90
        0
  1
\\192.168.192.119\digitec-common\デザイン制作部（仮）\★2017新商品\銘版シール\【2017銘版シール】outline_3.png
 10
220.0
 20
182.0
 11
0.3527777777777777
 21
0.3527777777777777
280
     1
281
     5
  0
IMAGEDEF
  5
98A
102
{ACAD_REACTORS
330
97D
102
}
330
97D
100
AcDbRasterImageDef
 90
        0
  1
\\192.168.192.119\digitec-common\デザイン制作部（仮）\★2017新商品\銘版シール\【2017銘版シール】outline_4.png
 10
220.0
 20
182.0
 11
0.3527777777777777
 21
0.3527777777777777
280
     1
281
     5
  0
IMAGEDEF
  5
98B
102
{ACAD_REACTORS
330
97D
102
}
330
97D
100
AcDbRasterImageDef
 90
        0
  1
\\192.168.192.119\digitec-common\デザイン制作部（仮）\★2017新商品\銘版シール\【2017銘版シール】outline_5.png
 10
220.0
 20
182.0
 11
0.3527777777777777
 21
0.3527777777777777
280
     1
281
     5
  0
LAYOUT
  5
77E8
102
{ACAD_REACTORS
330
77E7
102
}
330
77E7
100
AcDbPlotSettings
  1

  2
none_device
  4
Letter_(8.50_x_11.00_Inches)
  6

 40
6.35
 41
6.35
 42
6.35
 43
6.35
 44
215.9
 45
279.4
 46
0.0
 47
0.0
 48
0.0
 49
0.0
140
0.0
141
0.0
142
1.0
143
132.9641985846464
 70
  1712
 72
     0
 73
     0
 74
     0
  7

 75
     0
 76
     0
 77
     2
 78
   300
147
0.0075208214740857
148
8138.415785875667
149
3775.202161257039
100
AcDbLayout
  1
Model
 70
     1
 71
     0
 10
0.0
 20
0.0
 11
420.0
 21
297.0
 12
0.0
 22
0.0
 32
0.0
 14
0.0
 24
0.0
 34
0.0
 15
420.0
 25
297.0
 35
0.0
146
0.0
 13
0.0
 23
0.0
 33
0.0
 16
1.0
 26
0.0
 36
0.0
 17
0.0
 27
1.0
 37
0.0
 76
     0
330
1F
331
29
  0
LAYOUT
  5
77E9
102
{ACAD_REACTORS
330
77E7
102
}
330
77E7
100
AcDbPlotSettings
  1

  2
none_device
  4

  6

 40
0.0
 41
0.0
 42
0.0
 43
0.0
 44
0.0
 45
0.0
 46
0.0
 47
0.0
 48
0.0
 49
0.0
140
0.0
141
0.0
142
1.0
143
1.0
 70
   688
 72
     1
 73
     0
 74
     5
  7

 75
    16
 76
     0
 77
     2
 78
   300
147
1.0
148
0.0
149
0.0
100
AcDbLayout
  1
シート 1
 70
     1
 71
     1
 10
0.0
 20
0.0
 11
0.0
 21
0.0
 12
0.0
 22
0.0
 32
0.0
 14
40.5
 24
25.69999999999999
 34
0.0
 15
364.5
 25
231.3
 35
0.0
146
0.0
 13
0.0
 23
0.0
 33
0.0
 16
1.0
 26
0.0
 36
0.0
 17
0.0
 27
1.0
 37
0.0
 76
     0
330
1B
331
3275
  0
MATERIAL
  5
77EC
102
{ACAD_REACTORS
330
77EA
102
}
330
77EA
100
AcDbMaterial
  1
ByBlock
 72
     1
 94
      127
  0
MATERIAL
  5
77EB
102
{ACAD_REACTORS
330
77EA
102
}
330
77EA
100
AcDbMaterial
  1
ByLayer
 72
     1
 94
      127
  0
MATERIAL
  5
77ED
102
{ACAD_REACTORS
330
77EA
102
}
330
77EA
100
AcDbMaterial
  1
Global
 72
     1
 94
      127
  0
MLEADERSTYLE
  5
77F1
102
{ACAD_REACTORS
330
77F0
102
}
330
77F0
100
AcDbMLeaderStyle
170
     2
171
     1
172
     0
 90
        2
 40
0.0
 41
0.0
173
     1
 91
-1056964608
340
14
 92
       -2
290
     1
 42
2.0
291
     1
 43
8.0
  3
Standard
341
0
 44
4.0
300

342
11
174
     1
178
     1
175
     1
176
     0
 93
-1056964608
 45
4.0
292
     0
297
     0
 46
4.0
343
0
 94
-1056964608
 47
1.0
 49
1.0
140
1.0
293
     1
141
0.0
294
     1
177
     0
142
1.0
295
     0
296
     0
143
3.75
1001
ACAD_MLEADERVER
1070
     2
  0
MLINESTYLE
  5
18
102
{ACAD_REACTORS
330
17
102
}
330
17
100
AcDbMlineStyle
  2
Standard
 70
     0
  3

 62
   256
 51
90.0
 52
90.0
 71
     2
 49
0.5
 62
   256
  6
BYLAYER
 49
-0.5
 62
   256
  6
BYLAYER
  0
ACDBPLACEHOLDER
  5
77C4
102
{ACAD_REACTORS
330
77C3
102
}
330
77C3
  0
SCALE
  5
77C6
102
{ACAD_REACTORS
330
77C5
102
}
330
77C5
100
AcDbScale
 70
     0
300
1:1
140
1.0
141
1.0
290
     1
  0
SCALE
  5
77C7
102
{ACAD_REACTORS
330
77C5
102
}
330
77C5
100
AcDbScale
 70
     0
300
1:2
140
1.0
141
2.0
290
     0
  0
SCALE
  5
77C8
102
{ACAD_REACTORS
330
77C5
102
}
330
77C5
100
AcDbScale
 70
     0
300
1:4
140
1.0
141
4.0
290
     0
  0
SCALE
  5
77C9
102
{ACAD_REACTORS
330
77C5
102
}
330
77C5
100
AcDbScale
 70
     0
300
1:5
140
1.0
141
5.0
290
     0
  0
SCALE
  5
77CA
102
{ACAD_REACTORS
330
77C5
102
}
330
77C5
100
AcDbScale
 70
     0
300
1:8
140
1.0
141
8.0
290
     0
  0
SCALE
  5
77CB
102
{ACAD_REACTORS
330
77C5
102
}
330
77C5
100
AcDbScale
 70
     0
300
1:10
140
1.0
141
10.0
290
     0
  0
SCALE
  5
77CC
102
{ACAD_REACTORS
330
77C5
102
}
330
77C5
100
AcDbScale
 70
     0
300
1:16
140
1.0
141
16.0
290
     0
  0
SCALE
  5
77CD
102
{ACAD_REACTORS
330
77C5
102
}
330
77C5
100
AcDbScale
 70
     0
300
1:20
140
1.0
141
20.0
290
     0
  0
SCALE
  5
77CE
102
{ACAD_REACTORS
330
77C5
102
}
330
77C5
100
AcDbScale
 70
     0
300
1:30
140
1.0
141
30.0
290
     0
  0
SCALE
  5
77CF
102
{ACAD_REACTORS
330
77C5
102
}
330
77C5
100
AcDbScale
 70
     0
300
1:40
140
1.0
141
40.0
290
     0
  0
SCALE
  5
77D0
102
{ACAD_REACTORS
330
77C5
102
}
330
77C5
100
AcDbScale
 70
     0
300
1:50
140
1.0
141
50.0
290
     0
  0
SCALE
  5
77D1
102
{ACAD_REACTORS
330
77C5
102
}
330
77C5
100
AcDbScale
 70
     0
300
1:100
140
1.0
141
100.0
290
     0
  0
SCALE
  5
77D2
102
{ACAD_REACTORS
330
77C5
102
}
330
77C5
100
AcDbScale
 70
     0
300
2:1
140
2.0
141
1.0
290
     0
  0
SCALE
  5
77D3
102
{ACAD_REACTORS
330
77C5
102
}
330
77C5
100
AcDbScale
 70
     0
300
4:1
140
4.0
141
1.0
290
     0
  0
SCALE
  5
77D4
102
{ACAD_REACTORS
330
77C5
102
}
330
77C5
100
AcDbScale
 70
     0
300
8:1
140
8.0
141
1.0
290
     0
  0
SCALE
  5
77D5
102
{ACAD_REACTORS
330
77C5
102
}
330
77C5
100
AcDbScale
 70
     0
300
10:1
140
10.0
141
1.0
290
     0
  0
SCALE
  5
77D6
102
{ACAD_REACTORS
330
77C5
102
}
330
77C5
100
AcDbScale
 70
     0
300
100:1
140
100.0
141
1.0
290
     0
  0
SCALE
  5
77D7
102
{ACAD_REACTORS
330
77C5
102
}
330
77C5
100
AcDbScale
 70
     0
300
1/128" = 1'-0"
140
0.0078125
141
12.0
290
     0
  0
SCALE
  5
77D8
102
{ACAD_REACTORS
330
77C5
102
}
330
77C5
100
AcDbScale
 70
     0
300
1/64" = 1'-0"
140
0.015625
141
12.0
290
     0
  0
SCALE
  5
77D9
102
{ACAD_REACTORS
330
77C5
102
}
330
77C5
100
AcDbScale
 70
     0
300
1/32" = 1'-0"
140
0.03125
141
12.0
290
     0
  0
SCALE
  5
77DA
102
{ACAD_REACTORS
330
77C5
102
}
330
77C5
100
AcDbScale
 70
     0
300
1/16" = 1'-0"
140
0.0625
141
12.0
290
     0
  0
SCALE
  5
77DB
102
{ACAD_REACTORS
330
77C5
102
}
330
77C5
100
AcDbScale
 70
     0
300
3/32" = 1'-0"
140
0.09375
141
12.0
290
     0
  0
SCALE
  5
77DC
102
{ACAD_REACTORS
330
77C5
102
}
330
77C5
100
AcDbScale
 70
     0
300
1/8" = 1'-0"
140
0.125
141
12.0
290
     0
  0
SCALE
  5
77DD
102
{ACAD_REACTORS
330
77C5
102
}
330
77C5
100
AcDbScale
 70
     0
300
3/16" = 1'-0"
140
0.1875
141
12.0
290
     0
  0
SCALE
  5
77DE
102
{ACAD_REACTORS
330
77C5
102
}
330
77C5
100
AcDbScale
 70
     0
300
1/4" = 1'-0"
140
0.25
141
12.0
290
     0
  0
SCALE
  5
77DF
102
{ACAD_REACTORS
330
77C5
102
}
330
77C5
100
AcDbScale
 70
     0
300
3/8" = 1'-0"
140
0.375
141
12.0
290
     0
  0
SCALE
  5
77E0
102
{ACAD_REACTORS
330
77C5
102
}
330
77C5
100
AcDbScale
 70
     0
300
1/2" = 1'-0"
140
0.5
141
12.0
290
     0
  0
SCALE
  5
77E1
102
{ACAD_REACTORS
330
77C5
102
}
330
77C5
100
AcDbScale
 70
     0
300
3/4" = 1'-0"
140
0.75
141
12.0
290
     0
  0
SCALE
  5
77E2
102
{ACAD_REACTORS
330
77C5
102
}
330
77C5
100
AcDbScale
 70
     0
300
1" = 1'-0"
140
1.0
141
12.0
290
     0
  0
SCALE
  5
77E3
102
{ACAD_REACTORS
330
77C5
102
}
330
77C5
100
AcDbScale
 70
     0
300
1-1/2" = 1'-0"
140
1.5
141
12.0
290
     0
  0
SCALE
  5
77E4
102
{ACAD_REACTORS
330
77C5
102
}
330
77C5
100
AcDbScale
 70
     0
300
3" = 1'-0"
140
3.0
141
12.0
290
     0
  0
SCALE
  5
77E5
102
{ACAD_REACTORS
330
77C5
102
}
330
77C5
100
AcDbScale
 70
     0
300
6" = 1'-0"
140
6.0
141
12.0
290
     0
  0
SCALE
  5
77E6
102
{ACAD_REACTORS
330
77C5
102
}
330
77C5
100
AcDbScale
 70
     0
300
1'-0" = 1'-0"
140
12.0
141
12.0
290
     0
  0
TABLESTYLE
  5
77EF
102
{ACAD_REACTORS
330
77EE
102
}
102
{ACAD_XDICTIONARY
360
7BF2
102
}
330
77EE
100
AcDbTableStyle
  3
Standard
 70
     0
 71
     0
 40
1.5
 41
1.5
280
     0
281
     0
  7
STANDARD
140
4.5
170
     2
 62
     0
 63
   257
283
     0
 90
        4
 91
        0
  1

274
    -2
284
     1
 64
     0
275
    -2
285
     1
 65
     0
276
    -2
286
     1
 66
     0
277
    -2
287
     1
 67
     0
278
    -2
288
     1
 68
     0
279
    -2
289
     1
 69
     0
  7
STANDARD
140
6.0
170
     5
 62
     0
 63
   257
283
     0
 90
        4
 91
        0
  1

274
    -2
284
     1
 64
     0
275
    -2
285
     1
 65
     0
276
    -2
286
     1
 66
     0
277
    -2
287
     1
 67
     0
278
    -2
288
     1
 68
     0
279
    -2
289
     1
 69
     0
  7
STANDARD
140
4.5
170
     5
 62
     0
 63
   257
283
     0
 90
        4
 91
        0
  1

274
    -2
284
     1
 64
     0
275
    -2
285
     1
 65
     0
276
    -2
286
     1
 66
     0
277
    -2
287
     1
 67
     0
278
    -2
288
     1
 68
     0
279
    -2
289
     1
 69
     0
  0
VISUALSTYLE
  5
77AE
102
{ACAD_REACTORS
330
77A9
102
}
330
77A9
100
AcDbVisualStyle
  2
2dWireframe
 70
     4
 71
     0
 72
     2
 73
     0
 90
        0
 40
0.6
 41
30.0
 62
     5
 63
     7
421
 16777215
 74
     1
 91
        4
 64
     7
 65
   257
 75
     1
175
     1
 42
1.0
 92
        0
 66
   257
 43
1.0
 76
     1
 77
     6
 78
     2
 67
     7
 79
     5
170
     0
171
     0
290
     0
174
     0
 93
        1
 44
0.0
173
     0
291
     0
 45
0.0
  0
VISUALSTYLE
  5
77B1
102
{ACAD_REACTORS
330
77A9
102
}
330
77A9
100
AcDbVisualStyle
  2
Basic
 70
     7
 71
     1
 72
     0
 73
     1
 90
        0
 40
0.6
 41
30.0
 62
     5
 63
     7
421
 16777215
 74
     0
 91
        4
 64
     7
 65
   257
 75
     1
175
     1
 42
1.0
 92
        8
 66
     7
 43
1.0
 76
     1
 77
     6
 78
     2
 67
     7
 79
     5
170
     0
171
     0
290
     0
174
     0
 93
        1
 44
0.0
173
     0
291
     1
 45
0.0
  0
VISUALSTYLE
  5
77B5
102
{ACAD_REACTORS
330
77A9
102
}
330
77A9
100
AcDbVisualStyle
  2
Brighten
 70
    12
 71
     2
 72
     2
 73
     0
 90
        0
 40
0.6
 41
30.0
 62
     5
 63
     7
421
 16777215
 74
     1
 91
        4
 64
     7
 65
   257
 75
     1
175
     1
 42
1.0
 92
        8
 66
     7
 43
1.0
 76
     1
 77
     6
 78
     2
 67
     7
 79
     5
170
     0
171
     0
290
     0
174
     0
 93
        1
 44
50.0
173
     0
291
     1
 45
0.0
  0
VISUALSTYLE
  5
77B9
102
{ACAD_REACTORS
330
77A9
102
}
330
77A9
100
AcDbVisualStyle
  2
ColorChange
 70
    16
 71
     2
 72
     2
 73
     3
 90
        0
 40
0.6
 41
30.0
 62
     5
 63
     8
421
  8421504
 74
     1
 91
        4
 64
     7
 65
   257
 75
     1
175
     1
 42
1.0
 92
        8
 66
     8
424
  8421504
 43
1.0
 76
     1
 77
     6
 78
     2
 67
     7
 79
     5
170
     0
171
     0
290
     0
174
     0
 93
        1
 44
0.0
173
     0
291
     1
 45
0.0
  0
VISUALSTYLE
  5
77B3
102
{ACAD_REACTORS
330
77A9
102
}
330
77A9
100
AcDbVisualStyle
  2
Conceptual
 70
     9
 71
     3
 72
     2
 73
     0
 90
        0
 40
0.6
 41
30.0
 62
     5
 63
     7
421
 16777215
 74
     2
 91
        2
 64
     7
 65
   257
 75
     1
175
     1
 42
179.0
 92
        8
 66
     7
 43
1.0
 76
     1
 77
     6
 78
     2
 67
     7
 79
     3
170
     0
171
     0
290
     0
174
     0
 93
        1
 44
0.0
173
     0
291
     0
 45
0.0
  0
VISUALSTYLE
  5
77B4
102
{ACAD_REACTORS
330
77A9
102
}
330
77A9
100
AcDbVisualStyle
  2
Dim
 70
    11
 71
     2
 72
     2
 73
     0
 90
        0
 40
0.6
 41
30.0
 62
     5
 63
     7
421
 16777215
 74
     1
 91
        4
 64
     7
 65
   257
 75
     1
175
     1
 42
1.0
 92
        8
 66
     7
 43
1.0
 76
     1
 77
     6
 78
     2
 67
     7
 79
     5
170
     0
171
     0
290
     0
174
     0
 93
        1
 44
-50.0
173
     0
291
     1
 45
0.0
  0
VISUALSTYLE
  5
77BC
102
{ACAD_REACTORS
330
77A9
102
}
330
77A9
100
AcDbVisualStyle
  2
EdgeColorOff
 70
    22
 71
     2
 72
     2
 73
     0
 90
        0
 40
0.6
 41
30.0
 62
     5
 63
     7
421
 16777215
 74
     1
 91
        4
 64
     7
 65
   257
 75
     1
175
     1
 42
1.0
 92
        8
 66
     7
 43
1.0
 76
     1
 77
     6
 78
     2
 67
     7
 79
     5
170
     0
171
     0
290
     0
174
     0
 93
        1
 44
0.0
173
     0
291
     1
 45
0.0
  0
VISUALSTYLE
  5
77B8
102
{ACAD_REACTORS
330
77A9
102
}
330
77A9
100
AcDbVisualStyle
  2
Facepattern
 70
    15
 71
     2
 72
     2
 73
     0
 90
        0
 40
0.6
 41
30.0
 62
     5
 63
     7
421
 16777215
 74
     1
 91
        4
 64
     7
 65
   257
 75
     1
175
     1
 42
1.0
 92
        8
 66
     7
 43
1.0
 76
     1
 77
     6
 78
     2
 67
     7
 79
     5
170
     0
171
     0
290
     0
174
     0
 93
        1
 44
0.0
173
     0
291
     1
 45
0.0
  0
VISUALSTYLE
  5
77AA
102
{ACAD_REACTORS
330
77A9
102
}
330
77A9
100
AcDbVisualStyle
  2
Flat
 70
     0
 71
     2
 72
     1
 73
     1
 90
        2
 40
0.6
 41
30.0
 62
     5
 63
     7
421
 16777215
 74
     0
 91
        0
 64
     7
 65
   257
 75
     1
175
     1
 42
1.0
 92
        8
 66
     7
 43
1.0
 76
     1
 77
     6
 78
     2
 67
     7
 79
     5
170
     0
171
     0
290
     0
174
     0
 93
       13
 44
0.0
173
     0
291
     1
 45
0.0
  0
VISUALSTYLE
  5
77AB
102
{ACAD_REACTORS
330
77A9
102
}
330
77A9
100
AcDbVisualStyle
  2
FlatWithEdges
 70
     1
 71
     2
 72
     1
 73
     1
 90
        2
 40
0.6
 41
30.0
 62
     5
 63
     7
421
 16777215
 74
     1
 91
        0
 64
     7
 65
   257
 75
     1
175
     1
 42
1.0
 92
        0
 66
   257
 43
1.0
 76
     1
 77
     6
 78
     2
 67
     7
 79
     5
170
     0
171
     0
290
     0
174
     0
 93
       13
 44
0.0
173
     0
291
     1
 45
0.0
  0
VISUALSTYLE
  5
77AC
102
{ACAD_REACTORS
330
77A9
102
}
330
77A9
100
AcDbVisualStyle
  2
Gouraud
 70
     2
 71
     2
 72
     2
 73
     1
 90
        2
 40
0.6
 41
30.0
 62
     5
 63
     7
421
 16777215
 74
     0
 91
        0
 64
     7
 65
   257
 75
     1
175
     1
 42
1.0
 92
        0
 66
     7
 43
1.0
 76
     1
 77
     6
 78
     2
 67
     7
 79
     5
170
     0
171
     0
290
     0
174
     0
 93
       13
 44
0.0
173
     0
291
     1
 45
0.0
  0
VISUALSTYLE
  5
77AD
102
{ACAD_REACTORS
330
77A9
102
}
330
77A9
100
AcDbVisualStyle
  2
GouraudWithEdges
 70
     3
 71
     2
 72
     2
 73
     1
 90
        2
 40
0.6
 41
30.0
 62
     5
 63
     7
421
 16777215
 74
     1
 91
        0
 64
     7
 65
   257
 75
     1
175
     1
 42
1.0
 92
        0
 66
   257
 43
1.0
 76
     1
 77
     6
 78
     2
 67
     7
 79
     5
170
     0
171
     0
290
     0
174
     0
 93
       13
 44
0.0
173
     0
291
     1
 45
0.0
  0
VISUALSTYLE
  5
77B0
102
{ACAD_REACTORS
330
77A9
102
}
330
77A9
100
AcDbVisualStyle
  2
Hidden
 70
     6
 71
     1
 72
     2
 73
     2
 90
        0
 40
0.6
 41
30.0
 62
     5
 63
     7
421
 16777215
 74
     2
 91
        2
 64
     7
 65
   257
 75
     2
175
     1
 42
40.0
 92
        0
 66
   257
 43
1.0
 76
     1
 77
     6
 78
     2
 67
     7
 79
     3
170
     0
171
     0
290
     0
174
     0
 93
        1
 44
0.0
173
     0
291
     0
 45
0.0
  0
VISUALSTYLE
  5
77BA
102
{ACAD_REACTORS
330
77A9
102
}
330
77A9
100
AcDbVisualStyle
  2
JitterOff
 70
    20
 71
     2
 72
     2
 73
     0
 90
        0
 40
0.6
 41
30.0
 62
     5
 63
     7
421
 16777215
 74
     1
 91
        4
 64
     7
 65
   257
 75
     1
175
     1
 42
1.0
 92
       10
 66
     7
 43
1.0
 76
     1
 77
     6
 78
     2
 67
     7
 79
     5
170
     0
171
     0
290
     0
174
     0
 93
        1
 44
0.0
173
     0
291
     1
 45
0.0
  0
VISUALSTYLE
  5
77B7
102
{ACAD_REACTORS
330
77A9
102
}
330
77A9
100
AcDbVisualStyle
  2
Linepattern
 70
    14
 71
     2
 72
     2
 73
     0
 90
        0
 40
0.6
 41
30.0
 62
     5
 63
     7
421
 16777215
 74
     1
 91
        4
 64
     7
 65
   257
 75
     7
175
     7
 42
1.0
 92
        8
 66
     7
 43
1.0
 76
     1
 77
     6
 78
     2
 67
     7
 79
     5
170
     0
171
     0
290
     0
174
     0
 93
        1
 44
0.0
173
     0
291
     1
 45
0.0
  0
VISUALSTYLE
  5
77BB
102
{ACAD_REACTORS
330
77A9
102
}
330
77A9
100
AcDbVisualStyle
  2
OverhangOff
 70
    21
 71
     2
 72
     2
 73
     0
 90
        0
 40
0.6
 41
30.0
 62
     5
 63
     7
421
 16777215
 74
     1
 91
        4
 64
     7
 65
   257
 75
     1
175
     1
 42
1.0
 92
        9
 66
     7
 43
1.0
 76
     1
 77
     6
 78
     2
 67
     7
 79
     5
170
     0
171
     0
290
     0
174
     0
 93
        1
 44
0.0
173
     0
291
     1
 45
0.0
  0
VISUALSTYLE
  5
77B2
102
{ACAD_REACTORS
330
77A9
102
}
330
77A9
100
AcDbVisualStyle
  2
Realistic
 70
     8
 71
     2
 72
     3
 73
     0
 90
        2
 40
0.6
 41
30.0
 62
     5
 63
     7
421
 16777215
 74
     0
 91
        0
 64
     7
 65
   257
 75
     1
175
     1
 42
1.0
 92
        8
 66
   257
 43
1.0
 76
     1
 77
     6
 78
     2
 67
     7
 79
     3
170
     0
171
     0
290
     0
174
     0
 93
       13
 44
0.0
173
     0
291
     0
 45
0.0
  0
VISUALSTYLE
  5
77C1
102
{ACAD_REACTORS
330
77A9
102
}
330
77A9
100
AcDbVisualStyle
  2
Shaded
 70
    27
 71
     2
 72
     2
 73
     1
 90
        2
 40
0.6
 41
30.0
 62
     5
 63
     7
421
 16777215
 74
     0
 91
        4
 64
     7
 65
   257
 75
     1
175
     1
 42
1.0
 92
        8
 66
   257
 43
1.0
 76
     1
 77
     6
 78
     2
 67
     8
425
  7895160
 79
     3
170
     0
171
     0
290
     0
174
     0
 93
        5
 44
0.0
173
     0
291
     0
 45
0.0
  0
VISUALSTYLE
  5
77C0
102
{ACAD_REACTORS
330
77A9
102
}
330
77A9
100
AcDbVisualStyle
  2
Shaded with edges
 70
    26
 71
     2
 72
     2
 73
     1
 90
        2
 40
0.6
 41
30.0
 62
     5
 63
     7
421
 16777215
 74
     1
 91
       10
 64
     7
 65
   257
 75
     2
175
     1
 42
1.0
 92
        8
 66
   257
 43
1.0
 76
     1
 77
     6
 78
     2
 67
     7
 79
     3
170
     0
171
     0
290
     0
174
     0
 93
        5
 44
0.0
173
     0
291
     0
 45
0.0
  0
VISUALSTYLE
  5
77BD
102
{ACAD_REACTORS
330
77A9
102
}
330
77A9
100
AcDbVisualStyle
  2
Shades of Gray
 70
    23
 71
     2
 72
     2
 73
     3
 90
        0
 40
0.6
 41
30.0
 62
     5
 63
     7
421
 16777215
 74
     2
 91
        2
 64
     7
 65
     7
 75
     1
175
     1
 42
40.0
 92
        8
 66
     7
 43
1.0
 76
     1
 77
     6
 78
     2
 67
     7
 79
     3
170
     0
171
     0
290
     0
174
     0
 93
        1
 44
0.0
173
     0
291
     0
 45
0.0
  0
VISUALSTYLE
  5
77BE
102
{ACAD_REACTORS
330
77A9
102
}
330
77A9
100
AcDbVisualStyle
  2
Sketchy
 70
    24
 71
     1
 72
     2
 73
     2
 90
        0
 40
0.6
 41
30.0
 62
     5
 63
     7
421
 16777215
 74
     2
 91
        2
 64
     7
 65
     7
 75
     1
175
     1
 42
40.0
 92
       11
 66
     7
 43
1.0
 76
     1
 77
     6
 78
     2
 67
     7
 79
     6
170
     0
171
     0
290
     0
174
     0
 93
        1
 44
0.0
173
     0
291
     0
 45
0.0
  0
VISUALSTYLE
  5
77B6
102
{ACAD_REACTORS
330
77A9
102
}
330
77A9
100
AcDbVisualStyle
  2
Thicken
 70
    13
 71
     2
 72
     2
 73
     0
 90
        0
 40
0.6
 41
30.0
 62
     5
 63
     7
421
 16777215
 74
     1
 91
        4
 64
     7
 65
   257
 75
     1
175
     1
 42
1.0
 92
       12
 66
     7
 43
1.0
 76
     1
 77
     6
 78
     2
 67
     7
 79
     5
170
     0
171
     0
290
     0
174
     0
 93
        1
 44
0.0
173
     0
291
     1
 45
0.0
  0
VISUALSTYLE
  5
77AF
102
{ACAD_REACTORS
330
77A9
102
}
330
77A9
100
AcDbVisualStyle
  2
Wireframe
 70
     5
 71
     0
 72
     2
 73
     0
 90
        0
 40
0.6
 41
30.0
 62
     5
 63
     7
421
 16777215
 74
     1
 91
        4
 64
     7
 65
   257
 75
     1
175
     1
 42
1.0
 92
        0
 66
   257
 43
1.0
 76
     1
 77
     6
 78
     2
 67
     7
 79
     3
170
     0
171
     0
290
     0
174
     0
 93
        1
 44
0.0
173
     0
291
     0
 45
0.0
  0
VISUALSTYLE
  5
77BF
102
{ACAD_REACTORS
330
77A9
102
}
330
77A9
100
AcDbVisualStyle
  2
X-Ray
 70
    25
 71
     2
 72
     2
 73
     1
 90
        1
 40
0.5
 41
30.0
 62
     5
 63
     7
421
 16777215
 74
     1
 91
        0
 64
     7
 65
   257
 75
     1
175
     1
 42
1.0
 92
        8
 66
     7
 43
1.0
 76
     1
 77
     6
 78
     2
 67
     7
 79
     3
170
     0
171
     0
290
     0
174
     0
 93
       13
 44
0.0
173
     0
291
     0
 45
0.0
  0
DICTIONARYVAR
  5
77F3
102
{ACAD_REACTORS
330
327F
102
}
330
327F
100
DictionaryVariables
280
     0
  1
1:1
  0
DICTIONARYVAR
  5
77F5
102
{ACAD_REACTORS
330
327F
102
}
330
327F
100
DictionaryVariables
280
     0
  1
Standard
  0
DICTIONARYVAR
  5
77F4
102
{ACAD_REACTORS
330
327F
102
}
330
327F
100
DictionaryVariables
280
     0
  1
Standard
  0
DICTIONARYVAR
  5
77F6
102
{ACAD_REACTORS
330
327F
102
}
330
327F
100
DictionaryVariables
280
     0
  1
0
  0
DICTIONARYVAR
  5
3787
102
{ACAD_REACTORS
330
3784
102
}
330
3784
100
DictionaryVariables
280
     0
  1
0.261799
  0
DICTIONARYVAR
  5
3785
102
{ACAD_REACTORS
330
3784
102
}
330
3784
100
DictionaryVariables
280
     0
  1
10.000000
  0
DICTIONARYVAR
  5
3786
102
{ACAD_REACTORS
330
3784
102
}
330
3784
100
DictionaryVariables
280
     0
  1
6.000000
  0
DICTIONARYVAR
  5
3788
102
{ACAD_REACTORS
330
3784
102
}
330
3784
100
DictionaryVariables
280
     0
  1
0
  0
DICTIONARY
  5
7BF2
330
77EF
100
AcDbDictionary
280
     1
281
     1
  3
ACAD_ROUNDTRIP_2008_TABLESTYLE_CELLSTYLEMAP
360
7BF3
  0
CELLSTYLEMAP
  5
7BF3
102
{ACAD_REACTORS
330
7BF2
102
}
330
7BF2
100
AcDbCellStyleMap
 90
        3
300
CELLSTYLE
  1
TABLEFORMAT_BEGIN
 90
        5
170
     1
 91
        0
 92
    32768
 62
   257
 93
        1
300
CONTENTFORMAT
  1
CONTENTFORMAT_BEGIN
 90
        0
 91
        0
 92
        4
 93
        0
300

 40
0.0
140
1.0
 94
        5
 62
     0
340
11
144
6.0
309
CONTENTFORMAT_END
171
     1
301
MARGIN
  1
CELLMARGIN_BEGIN
 40
1.5
 40
1.5
 40
1.5
 40
1.5
 40
1.5
 40
1.5
309
CELLMARGIN_END
 94
        6
 95
        1
302
GRIDFORMAT
  1
GRIDFORMAT_BEGIN
 90
        0
 91
        1
 62
     0
 92
       -2
340
14
 93
        0
 40
0.045
309
GRIDFORMAT_END
 95
        2
302
GRIDFORMAT
  1
GRIDFORMAT_BEGIN
 90
        0
 91
        1
 62
     0
 92
       -2
340
14
 93
        0
 40
0.045
309
GRIDFORMAT_END
 95
        4
302
GRIDFORMAT
  1
GRIDFORMAT_BEGIN
 90
        0
 91
        1
 62
     0
 92
       -2
340
14
 93
        0
 40
0.045
309
GRIDFORMAT_END
 95
        8
302
GRIDFORMAT
  1
GRIDFORMAT_BEGIN
 90
        0
 91
        1
 62
     0
 92
       -2
340
14
 93
        0
 40
0.045
309
GRIDFORMAT_END
 95
       16
302
GRIDFORMAT
  1
GRIDFORMAT_BEGIN
 90
        0
 91
        1
 62
     0
 92
       -2
340
14
 93
        0
 40
0.045
309
GRIDFORMAT_END
 95
       32
302
GRIDFORMAT
  1
GRIDFORMAT_BEGIN
 90
        0
 91
        1
 62
     0
 92
       -2
340
14
 93
        0
 40
0.045
309
GRIDFORMAT_END
309
TABLEFORMAT_END
  1
CELLSTYLE_BEGIN
 90
        1
 91
        1
300
_TITLE
309
CELLSTYLE_END
300
CELLSTYLE
  1
TABLEFORMAT_BEGIN
 90
        5
170
     1
 91
        0
 92
        0
 62
   257
 93
        1
300
CONTENTFORMAT
  1
CONTENTFORMAT_BEGIN
 90
        0
 91
        0
 92
        4
 93
        0
300

 40
0.0
140
1.0
 94
        5
 62
     0
340
11
144
4.5
309
CONTENTFORMAT_END
171
     1
301
MARGIN
  1
CELLMARGIN_BEGIN
 40
1.5
 40
1.5
 40
1.5
 40
1.5
 40
1.5
 40
1.5
309
CELLMARGIN_END
 94
        6
 95
        1
302
GRIDFORMAT
  1
GRIDFORMAT_BEGIN
 90
        0
 91
        1
 62
     0
 92
       -2
340
14
 93
        0
 40
0.045
309
GRIDFORMAT_END
 95
        2
302
GRIDFORMAT
  1
GRIDFORMAT_BEGIN
 90
        0
 91
        1
 62
     0
 92
       -2
340
14
 93
        0
 40
0.045
309
GRIDFORMAT_END
 95
        4
302
GRIDFORMAT
  1
GRIDFORMAT_BEGIN
 90
        0
 91
        1
 62
     0
 92
       -2
340
14
 93
        0
 40
0.045
309
GRIDFORMAT_END
 95
        8
302
GRIDFORMAT
  1
GRIDFORMAT_BEGIN
 90
        0
 91
        1
 62
     0
 92
       -2
340
14
 93
        0
 40
0.045
309
GRIDFORMAT_END
 95
       16
302
GRIDFORMAT
  1
GRIDFORMAT_BEGIN
 90
        0
 91
        1
 62
     0
 92
       -2
340
14
 93
        0
 40
0.045
309
GRIDFORMAT_END
 95
       32
302
GRIDFORMAT
  1
GRIDFORMAT_BEGIN
 90
        0
 91
        1
 62
     0
 92
       -2
340
14
 93
        0
 40
0.045
309
GRIDFORMAT_END
309
TABLEFORMAT_END
  1
CELLSTYLE_BEGIN
 90
        2
 91
        1
300
_HEADER
309
CELLSTYLE_END
300
CELLSTYLE
  1
TABLEFORMAT_BEGIN
 90
        5
170
     1
 91
        0
 92
        0
 62
   257
 93
        1
300
CONTENTFORMAT
  1
CONTENTFORMAT_BEGIN
 90
        0
 91
        0
 92
        4
 93
        0
300

 40
0.0
140
1.0
 94
        2
 62
     0
340
11
144
4.5
309
CONTENTFORMAT_END
171
     1
301
MARGIN
  1
CELLMARGIN_BEGIN
 40
1.5
 40
1.5
 40
1.5
 40
1.5
 40
1.5
 40
1.5
309
CELLMARGIN_END
 94
        6
 95
        1
302
GRIDFORMAT
  1
GRIDFORMAT_BEGIN
 90
        0
 91
        1
 62
     0
 92
       -2
340
14
 93
        0
 40
0.045
309
GRIDFORMAT_END
 95
        2
302
GRIDFORMAT
  1
GRIDFORMAT_BEGIN
 90
        0
 91
        1
 62
     0
 92
       -2
340
14
 93
        0
 40
0.045
309
GRIDFORMAT_END
 95
        4
302
GRIDFORMAT
  1
GRIDFORMAT_BEGIN
 90
        0
 91
        1
 62
     0
 92
       -2
340
14
 93
        0
 40
0.045
309
GRIDFORMAT_END
 95
        8
302
GRIDFORMAT
  1
GRIDFORMAT_BEGIN
 90
        0
 91
        1
 62
     0
 92
       -2
340
14
 93
        0
 40
0.045
309
GRIDFORMAT_END
 95
       16
302
GRIDFORMAT
  1
GRIDFORMAT_BEGIN
 90
        0
 91
        1
 62
     0
 92
       -2
340
14
 93
        0
 40
0.045
309
GRIDFORMAT_END
 95
       32
302
GRIDFORMAT
  1
GRIDFORMAT_BEGIN
 90
        0
 91
        1
 62
     0
 92
       -2
340
14
 93
        0
 40
0.045
309
GRIDFORMAT_END
309
TABLEFORMAT_END
  1
CELLSTYLE_BEGIN
 90
        3
 91
        2
300
_DATA
309
CELLSTYLE_END
  0
ENDSEC
  0
EOF
