  0
SECTION
  2
HEADER
  9
$ACADVER
  1
AC1015
  9
$ACADMAINTVER
 70
     6
  9
$DWGCODEPAGE
  3
ANSI_932
  9
$INSBASE
 10
0.0
 20
0.0
 30
0.0
  9
$EXTMIN
 10
-7.897710237700011
 20
0.0
 30
-10.75
  9
$EXTMAX
 10
420.0
 20
297.0
 30
186.0
  9
$LIMMIN
 10
0.0
 20
0.0
  9
$LIMMAX
 10
420.0
 20
297.0
  9
$ORTHOMODE
 70
     0
  9
$REGENMODE
 70
     1
  9
$FILLMODE
 70
     1
  9
$QTEXTMODE
 70
     0
  9
$MIRRTEXT
 70
     1
  9
$LTSCALE
 40
1.0
  9
$ATTMODE
 70
     1
  9
$TEXTSIZE
 40
3.5
  9
$TRACEWID
 40
1.0
  9
$TEXTSTYLE
  7
STANDARD
  9
$CLAYER
  8
0
  9
$CELTYPE
  6
ByLayer
  9
$CECOLOR
 62
   256
  9
$CELTSCALE
 40
1.0
  9
$DISPSILH
 70
     0
  9
$DIMSCALE
 40
1.0
  9
$DIMASZ
 40
3.302
  9
$DIMEXO
 40
1.0
  9
$DIMDLI
 40
3.75
  9
$DIMRND
 40
0.0
  9
$DIMDLE
 40
0.0
  9
$DIMEXE
 40
1.0
  9
$DIMTP
 40
0.0
  9
$DIMTM
 40
0.0
  9
$DIMTXT
 40
3.5
  9
$DIMCEN
 40
2.5
  9
$DIMTSZ
 40
0.0
  9
$DIMTOL
 70
     0
  9
$DIMLIM
 70
     0
  9
$DIMTIH
 70
     1
  9
$DIMTOH
 70
     1
  9
$DIMSE1
 70
     0
  9
$DIMSE2
 70
     0
  9
$DIMTAD
 70
     1
  9
$DIMZIN
 70
     1
  9
$DIMBLK
  1

  9
$DIMASO
 70
     1
  9
$DIMSHO
 70
     1
  9
$DIMPOST
  1

  9
$DIMAPOST
  1

  9
$DIMALT
 70
     0
  9
$DIMALTD
 70
     3
  9
$DIMALTF
 40
0.0393700787
  9
$DIMLFAC
 40
1.0
  9
$DIMTOFL
 70
     1
  9
$DIMTVP
 40
0.0
  9
$DIMTIX
 70
     0
  9
$DIMSOXD
 70
     0
  9
$DIMSAH
 70
     0
  9
$DIMBLK1
  1

  9
$DIMBLK2
  1

  9
$DIMSTYLE
  2
ISO-25
  9
$DIMCLRD
 70
     0
  9
$DIMCLRE
 70
     0
  9
$DIMCLRT
 70
     0
  9
$DIMTFAC
 40
1.0
  9
$DIMGAP
 40
1.524
  9
$DIMJUST
 70
     0
  9
$DIMSD1
 70
     0
  9
$DIMSD2
 70
     0
  9
$DIMTOLJ
 70
     0
  9
$DIMTZIN
 70
     1
  9
$DIMALTZ
 70
     0
  9
$DIMALTTZ
 70
     0
  9
$DIMUPT
 70
     0
  9
$DIMDEC
 70
     2
  9
$DIMTDEC
 70
     2
  9
$DIMALTU
 70
     2
  9
$DIMALTTD
 70
     3
  9
$DIMTXSTY
  7
STANDARD
  9
$DIMAUNIT
 70
     0
  9
$DIMADEC
 70
     2
  9
$DIMALTRND
 40
0.0
  9
$DIMAZIN
 70
     0
  9
$DIMDSEP
 70
    44
  9
$DIMATFIT
 70
     3
  9
$DIMFRAC
 70
     0
  9
$DIMLDRBLK
  1

  9
$DIMLUNIT
 70
     2
  9
$DIMLWD
 70
    -2
  9
$DIMLWE
 70
    -2
  9
$DIMTMOVE
 70
     0
  9
$LUNITS
 70
     2
  9
$LUPREC
 70
     2
  9
$SKETCHINC
 40
1.0
  9
$FILLETRAD
 40
10.0
  9
$AUNITS
 70
     0
  9
$AUPREC
 70
     2
  9
$MENU
  1
.
  9
$ELEVATION
 40
0.0
  9
$PELEVATION
 40
0.0
  9
$THICKNESS
 40
0.0
  9
$LIMCHECK
 70
     0
  9
$CHAMFERA
 40
0.0
  9
$CHAMFERB
 40
0.0
  9
$CHAMFERC
 40
0.0
  9
$CHAMFERD
 40
0.0
  9
$SKPOLY
 70
     0
  9
$TDCREATE
 40
2458754.391682477
  9
$TDUCREATE
 40
2458754.016682477
  9
$TDUPDATE
 40
2458865.675151146
  9
$TDUUPDATE
 40
2458865.300151146
  9
$TDINDWG
 40
0.0034245486
  9
$TDUSRTIMER
 40
0.0011333681
  9
$USRTIMER
 70
     1
  9
$ANGBASE
 50
0.0
  9
$ANGDIR
 70
     0
  9
$PDMODE
 70
     0
  9
$PDSIZE
 40
-1.0
  9
$PLINEWID
 40
0.0
  9
$SPLFRAME
 70
     0
  9
$SPLINETYPE
 70
     6
  9
$SPLINESEGS
 70
     8
  9
$HANDSEED
  5
460
  9
$SURFTAB1
 70
     6
  9
$SURFTAB2
 70
     6
  9
$SURFTYPE
 70
     6
  9
$SURFU
 70
     6
  9
$SURFV
 70
     6
  9
$UCSBASE
  2

  9
$UCSNAME
  2

  9
$UCSORG
 10
0.0
 20
0.0
 30
0.0
  9
$UCSXDIR
 10
1.0
 20
0.0
 30
0.0
  9
$UCSYDIR
 10
0.0
 20
1.0
 30
0.0
  9
$UCSORTHOREF
  2

  9
$UCSORTHOVIEW
 70
     0
  9
$UCSORGTOP
 10
0.0
 20
0.0
 30
0.0
  9
$UCSORGBOTTOM
 10
0.0
 20
0.0
 30
0.0
  9
$UCSORGLEFT
 10
0.0
 20
0.0
 30
0.0
  9
$UCSORGRIGHT
 10
0.0
 20
0.0
 30
0.0
  9
$UCSORGFRONT
 10
0.0
 20
0.0
 30
0.0
  9
$UCSORGBACK
 10
0.0
 20
0.0
 30
0.0
  9
$PUCSBASE
  2

  9
$PUCSNAME
  2

  9
$PUCSORG
 10
0.0
 20
0.0
 30
0.0
  9
$PUCSXDIR
 10
1.0
 20
0.0
 30
0.0
  9
$PUCSYDIR
 10
0.0
 20
1.0
 30
0.0
  9
$PUCSORTHOREF
  2

  9
$PUCSORTHOVIEW
 70
     0
  9
$PUCSORGTOP
 10
0.0
 20
0.0
 30
0.0
  9
$PUCSORGBOTTOM
 10
0.0
 20
0.0
 30
0.0
  9
$PUCSORGLEFT
 10
0.0
 20
0.0
 30
0.0
  9
$PUCSORGRIGHT
 10
0.0
 20
0.0
 30
0.0
  9
$PUCSORGFRONT
 10
0.0
 20
0.0
 30
0.0
  9
$PUCSORGBACK
 10
0.0
 20
0.0
 30
0.0
  9
$USERI1
 70
     0
  9
$USERI2
 70
     0
  9
$USERI3
 70
     0
  9
$USERI4
 70
     0
  9
$USERI5
 70
     0
  9
$USERR1
 40
0.0
  9
$USERR2
 40
0.0
  9
$USERR3
 40
0.0
  9
$USERR4
 40
0.0
  9
$USERR5
 40
0.0
  9
$WORLDVIEW
 70
     1
  9
$SHADEDGE
 70
     3
  9
$SHADEDIF
 70
    70
  9
$TILEMODE
 70
     1
  9
$MAXACTVP
 70
    64
  9
$PINSBASE
 10
0.0
 20
0.0
 30
0.0
  9
$PLIMCHECK
 70
     0
  9
$PEXTMIN
 10
1.000000000000000E+20
 20
1.000000000000000E+20
 30
1.000000000000000E+20
  9
$PEXTMAX
 10
-1.000000000000000E+20
 20
-1.000000000000000E+20
 30
-1.000000000000000E+20
  9
$PLIMMIN
 10
0.0
 20
0.0
  9
$PLIMMAX
 10
0.0
 20
0.0
  9
$UNITMODE
 70
     0
  9
$VISRETAIN
 70
     1
  9
$PLINEGEN
 70
     0
  9
$PSLTSCALE
 70
     1
  9
$TREEDEPTH
 70
  3020
  9
$CMLSTYLE
  2
Standard
  9
$CMLJUST
 70
     0
  9
$CMLSCALE
 40
20.0
  9
$PROXYGRAPHICS
 70
     1
  9
$MEASUREMENT
 70
     1
  9
$CELWEIGHT
370
    -1
  9
$ENDCAPS
280
     0
  9
$JOINSTYLE
280
     0
  9
$LWDISPLAY
290
     1
  9
$INSUNITS
 70
     4
  9
$HYPERLINKBASE
  1

  9
$STYLESHEET
  1

  9
$XEDIT
290
     1
  9
$CEPSNTYPE
380
     0
  9
$PSTYLEMODE
290
     1
  9
$FINGERPRINTGUID
  2
{C14C97F3-BA3A-48CF-AF33-C70DC015ED4B}
  9
$VERSIONGUID
  2
{FAEB1C32-E019-11D5-929B-00C0DF256EC4}
  9
$EXTNAMES
290
     1
  9
$PSVPSCALE
 40
0.0
  9
$OLESTARTUP
290
     0
  0
ENDSEC
  0
SECTION
  2
CLASSES
  0
CLASS
  1
ACDBDICTIONARYWDFLT
  2
AcDbDictionaryWithDefault
  3
ObjectDBX Classes
 90
        0
280
     0
281
     0
  0
CLASS
  1
VISUALSTYLE
  2
AcDbVisualStyle
  3
ObjectDBX Classes
 90
     4095
280
     0
281
     0
  0
CLASS
  1
MATERIAL
  2
AcDbMaterial
  3
ObjectDBX Classes
 90
     1153
280
     0
281
     0
  0
CLASS
  1
SCALE
  2
AcDbScale
  3
ObjectDBX Classes
 90
     1153
280
     0
281
     0
  0
CLASS
  1
TABLESTYLE
  2
AcDbTableStyle
  3
ObjectDBX Classes
 90
     4095
280
     0
281
     0
  0
CLASS
  1
MLEADERSTYLE
  2
AcDbMLeaderStyle
  3
ACDB_MLEADERSTYLE_CLASS
 90
     4095
280
     0
281
     0
  0
CLASS
  1
SUN
  2
AcDbSun
  3
SCENEOE
 90
     1153
280
     0
281
     0
  0
CLASS
  1
ACDBPLACEHOLDER
  2
AcDbPlaceHolder
  3
ObjectDBX Classes
 90
        0
280
     0
281
     0
  0
CLASS
  1
LAYOUT
  2
AcDbLayout
  3
ObjectDBX Classes
 90
        0
280
     0
281
     0
  0
CLASS
  1
SORTENTSTABLE
  2
AcDbSortentsTable
  3
ObjectDBX Classes
 90
        0
280
     0
281
     0
  0
ENDSEC
  0
SECTION
  2
TABLES
  0
TABLE
  2
VPORT
  5
8
330
0
100
AcDbSymbolTable
 70
     1
  0
VPORT
  5
29
330
8
100
AcDbSymbolTableRecord
100
AcDbViewportTableRecord
  2
*Active
 70
     0
 10
0.0
 20
0.0
 11
1.0
 21
1.0
 12
127.5730897073167
 22
175.6860841305373
 13
0.0
 23
0.0
 14
10.0
 24
10.0
 15
10.0
 25
10.0
 16
0.0
 26
0.0
 36
1.0
 17
0.0
 27
0.0
 37
0.0
 40
450.0876879346394
 41
1.939434724091521
 42
50.0
 43
0.0
 44
0.0
 50
0.0
 51
0.0
 71
    16
 72
  2000
 73
     1
 74
     3
 75
     0
 76
     0
 77
     0
 78
     0
281
     0
 65
     1
110
0.0
120
0.0
130
0.0
111
1.0
121
0.0
131
0.0
112
0.0
122
1.0
132
0.0
 79
     0
146
0.0
  0
ENDTAB
  0
TABLE
  2
LTYPE
  5
5
330
0
100
AcDbSymbolTable
 70
     8
  0
LTYPE
  5
14
330
5
100
AcDbSymbolTableRecord
100
AcDbLinetypeTableRecord
  2
ByBlock
 70
     0
  3

 72
    65
 73
     0
 40
0.0
  0
LTYPE
  5
15
330
5
100
AcDbSymbolTableRecord
100
AcDbLinetypeTableRecord
  2
ByLayer
 70
     0
  3

 72
    65
 73
     0
 40
0.0
  0
LTYPE
  5
16
330
5
100
AcDbSymbolTableRecord
100
AcDbLinetypeTableRecord
  2
Continuous
 70
     0
  3
Solid line
 72
    65
 73
     0
 40
0.0
  0
LTYPE
  5
6E
330
5
100
AcDbSymbolTableRecord
100
AcDbLinetypeTableRecord
  2
SLD-実線
 70
     0
  3
SolidWorks Line Style
 72
    65
 73
     0
 40
0.0
  0
LTYPE
  5
6F
330
5
100
AcDbSymbolTableRecord
100
AcDbLinetypeTableRecord
  2
SLD-破線
 70
     0
  3
SolidWorks Line Style
 72
    65
 73
     2
 40
1.905
 49
1.27
 74
     0
 49
-0.635
 74
     0
  0
LTYPE
  5
70
330
5
100
AcDbSymbolTableRecord
100
AcDbLinetypeTableRecord
  2
SLD-2点鎖線
 70
     0
  3
SolidWorks Line Style
 72
    65
 73
     6
 40
12.7
 49
6.35
 74
     0
 49
-1.27
 74
     0
 49
1.27
 74
     0
 49
-1.27
 74
     0
 49
1.27
 74
     0
 49
-1.27
 74
     0
  0
LTYPE
  5
71
330
5
100
AcDbSymbolTableRecord
100
AcDbLinetypeTableRecord
  2
SLD-鎖線
 70
     0
  3
SolidWorks Line Style
 72
    65
 73
     4
 40
10.16
 49
6.35
 74
     0
 49
-1.27
 74
     0
 49
1.27
 74
     0
 49
-1.27
 74
     0
  0
LTYPE
  5
72
330
5
100
AcDbSymbolTableRecord
100
AcDbLinetypeTableRecord
  2
SLD-1点鎖線(中心線)
 70
     0
  3
SolidWorks Line Style
 72
    65
 73
     4
 40
34.29
 49
30.48
 74
     0
 49
-1.27
 74
     0
 49
1.27
 74
     0
 49
-1.27
 74
     0
  0
LTYPE
  5
73
330
5
100
AcDbSymbolTableRecord
100
AcDbLinetypeTableRecord
  2
SLD-点線
 70
     0
  3
SolidWorks Line Style
 72
    65
 73
     2
 40
0.635
 49
0.0
 74
     0
 49
-0.635
 74
     0
  0
LTYPE
  5
74
330
5
100
AcDbSymbolTableRecord
100
AcDbLinetypeTableRecord
  2
SLD-細-太鎖線(切断面)
 70
     0
  3
SolidWorks Line Style
 72
    65
 73
     4
 40
10.16
 49
6.35
 74
     0
 49
-1.27
 74
     0
 49
1.27
 74
     0
 49
-1.27
 74
     0
  0
ENDTAB
  0
TABLE
  2
LAYER
  5
2
330
0
100
AcDbSymbolTable
 70
     4
  0
LAYER
  5
10
330
2
100
AcDbSymbolTableRecord
100
AcDbLayerTableRecord
  2
0
 70
     0
 62
     7
  6
Continuous
370
    -3
390
F
  0
LAYER
  5
75
330
2
100
AcDbSymbolTableRecord
100
AcDbLayerTableRecord
  2
レイヤー_1
 70
     0
 62
   179
  6
SLD-実線
370
    -3
390
F
  0
LAYER
  5
76
330
2
100
AcDbSymbolTableRecord
100
AcDbLayerTableRecord
  2
FORMAT
 70
     0
 62
     7
  6
SLD-実線
370
    -3
390
F
  0
LAYER
  5
428
330
2
100
AcDbSymbolTableRecord
100
AcDbLayerTableRecord
  2
Defpoints
 70
     0
 62
     7
  6
Continuous
290
     0
370
    -3
390
F
  0
ENDTAB
  0
TABLE
  2
STYLE
  5
3
330
0
100
AcDbSymbolTable
 70
     5
  0
STYLE
  5
11
330
3
100
AcDbSymbolTableRecord
100
AcDbTextStyleTableRecord
  2
STANDARD
 70
     0
 40
0.0
 41
1.0
 50
0.0
 71
     0
 42
3.5
  3
MSGOTHIC.TTC
  4

1001
ACAD
1000
ＭＳ Ｐゴシック
1071
    32818
  0
STYLE
  5
201
330
3
100
AcDbSymbolTableRecord
100
AcDbTextStyleTableRecord
  2
SLDTEXTSTYLE0
 70
     0
 40
0.0
 41
1.0
 50
0.0
 71
     0
 42
3.5
  3
MSGOTHIC.TTC
  4

1001
ACAD
1000
ＭＳ Ｐゴシック
1071
      306
  0
STYLE
  5
213
330
3
100
AcDbSymbolTableRecord
100
AcDbTextStyleTableRecord
  2
SLDTEXTSTYLE1
 70
     0
 40
0.0
 41
1.0
 50
0.0
 71
     0
 42
3.5
  3
MSGOTHIC.TTC
  4
bigfont
1001
ACAD
1000
ＭＳ Ｐゴシック
1071
      306
  0
STYLE
  5
217
330
3
100
AcDbSymbolTableRecord
100
AcDbTextStyleTableRecord
  2
SLDTEXTSTYLE2
 70
     0
 40
0.0
 41
0.913
 50
0.0
 71
     0
 42
3.5
  3
GOTHIC.TTF
  4

1001
ACAD
1000
Century Gothic
1071
      290
  0
STYLE
  5
234
330
3
100
AcDbSymbolTableRecord
100
AcDbTextStyleTableRecord
  2
SLDTEXTSTYLE3
 70
     0
 40
0.0
 41
0.948
 50
0.0
 71
     0
 42
3.5
  3
ARIAL.TTF
  4

1001
ACAD
1000
Arial
1071
      290
  0
ENDTAB
  0
TABLE
  2
VIEW
  5
6
330
0
100
AcDbSymbolTable
 70
     0
  0
ENDTAB
  0
TABLE
  2
UCS
  5
7
330
0
100
AcDbSymbolTable
 70
     0
  0
ENDTAB
  0
TABLE
  2
APPID
  5
9
330
0
100
AcDbSymbolTable
 70
     1
  0
APPID
  5
12
330
9
100
AcDbSymbolTableRecord
100
AcDbRegAppTableRecord
  2
ACAD
 70
     0
  0
ENDTAB
  0
TABLE
  2
DIMSTYLE
  5
A
330
0
100
AcDbSymbolTable
 70
     8
100
AcDbDimStyleTable
  0
DIMSTYLE
105
27
330
A
100
AcDbSymbolTableRecord
100
AcDbDimStyleTableRecord
  2
ISO-25
 70
     0
 41
2.5
 42
0.625
 43
3.75
 44
1.25
 73
     0
 74
     0
 77
     1
 78
     8
140
2.5
141
2.5
143
0.0393700787
147
0.625
171
     3
172
     1
178
     0
271
     2
272
     2
274
     3
278
    44
283
     0
284
     8
340
11
  0
DIMSTYLE
105
202
102
{ACAD_REACTORS
330
200
102
}
330
A
100
AcDbSymbolTableRecord
100
AcDbDimStyleTableRecord
  2
SLDDIMSTYLE0
 70
     0
 41
3.302
 44
0.0
 45
0.000000001
 73
     0
 74
     0
 77
     3
 78
    12
 79
     3
140
3.5
147
0.875
172
     1
173
     1
178
     0
271
     2
272
     2
276
     2
284
    12
289
     0
340
201
341
203
343
203
344
203
  0
DIMSTYLE
105
285
102
{ACAD_REACTORS
330
284
330
2A0
330
2C9
330
2EB
330
2F5
330
2FF
330
317
330
323
330
348
330
36C
330
383
330
3D1
102
}
330
A
100
AcDbSymbolTableRecord
100
AcDbDimStyleTableRecord
  2
SLDDIMSTYLE1
 70
     0
 41
3.302
 44
0.0
 45
0.000000001
 73
     0
 74
     0
 77
     3
 78
    12
 79
     3
140
3.5
147
0.875
173
     1
178
     0
271
     0
272
     0
276
     2
284
    12
340
201
341
286
343
286
344
286
  0
DIMSTYLE
105
296
102
{ACAD_REACTORS
330
295
102
}
330
A
100
AcDbSymbolTableRecord
100
AcDbDimStyleTableRecord
  2
SLDDIMSTYLE2
 70
     0
 41
3.302
 44
0.0
 45
0.000000001
 73
     0
 74
     0
 77
     3
 78
    12
 79
     3
140
3.5
147
0.875
173
     1
178
     0
271
     1
272
     1
276
     2
284
    12
340
201
341
286
343
286
344
286
  0
DIMSTYLE
105
2B0
330
A
100
AcDbSymbolTableRecord
100
AcDbDimStyleTableRecord
  2
SLDDIMSTYLE3
 70
     0
 41
3.302
 44
0.0
 45
0.000000001
146
3.302
147
0.0
173
     1
178
     0
271
     0
272
     0
276
     2
340
11
341
286
343
286
344
286
  0
DIMSTYLE
105
30A
102
{ACAD_REACTORS
330
309
102
}
330
A
100
AcDbSymbolTableRecord
100
AcDbDimStyleTableRecord
  2
SLDDIMSTYLE4
 70
     0
 41
3.302
 44
0.0
 45
0.000000001
 73
     0
 74
     0
 77
     3
 78
    12
 79
     3
140
3.5
147
0.875
172
     1
173
     1
178
     0
271
     1
272
     1
276
     2
284
    12
289
     0
340
201
341
286
343
286
344
286
  0
DIMSTYLE
105
353
102
{ACAD_REACTORS
330
352
330
35F
330
376
102
}
330
A
100
AcDbSymbolTableRecord
100
AcDbDimStyleTableRecord
  2
SLDDIMSTYLE5
 70
     0
 41
3.302
 44
0.0
 45
0.000000001
 73
     0
 74
     0
 77
     3
 78
    12
 79
     3
140
3.5
147
0.875
172
     1
173
     1
178
     0
271
     0
272
     0
276
     2
284
    12
289
     0
340
201
341
286
343
286
344
286
  0
DIMSTYLE
105
3C4
102
{ACAD_REACTORS
330
3C3
102
}
330
A
100
AcDbSymbolTableRecord
100
AcDbDimStyleTableRecord
  2
SLDDIMSTYLE6
 70
     0
 41
3.302
 44
0.0
 45
0.000000001
 73
     0
 74
     0
 77
     3
 78
    12
 79
     3
140
3.5
141
0.0
147
0.875
172
     1
173
     1
178
     0
271
     2
272
     2
276
     2
284
    12
340
201
341
286
343
286
344
286
  0
ENDTAB
  0
TABLE
  2
BLOCK_RECORD
  5
1
330
0
100
AcDbSymbolTable
 70
    28
  0
BLOCK_RECORD
  5
1F
102
{ACAD_XDICTIONARY
360
459
102
}
330
1
100
AcDbSymbolTableRecord
100
AcDbBlockTableRecord
  2
*Model_Space
340
22
  0
BLOCK_RECORD
  5
1B
330
1
100
AcDbSymbolTableRecord
100
AcDbBlockTableRecord
  2
*Paper_Space
340
1E
  0
BLOCK_RECORD
  5
23
330
1
100
AcDbSymbolTableRecord
100
AcDbBlockTableRecord
  2
*Paper_Space0
340
26
  0
BLOCK_RECORD
  5
203
330
1
100
AcDbSymbolTableRecord
100
AcDbBlockTableRecord
  2
_NONE
340
0
  0
BLOCK_RECORD
  5
206
330
1
100
AcDbSymbolTableRecord
100
AcDbBlockTableRecord
  2
_D
340
0
  0
BLOCK_RECORD
  5
20C
102
{ACAD_XDICTIONARY
360
45C
102
}
330
1
100
AcDbSymbolTableRecord
100
AcDbBlockTableRecord
  2
SW_NOTE_0
340
0
102
{BLKREFS
331
215
102
}
  0
BLOCK_RECORD
  5
268
330
1
100
AcDbSymbolTableRecord
100
AcDbBlockTableRecord
  2
SW_BROKEN_VIEW_0
340
0
102
{BLKREFS
331
26B
102
}
  0
BLOCK_RECORD
  5
286
330
1
100
AcDbSymbolTableRecord
100
AcDbBlockTableRecord
  2
_OPEN30
340
0
102
{BLKREFS
331
28F
331
290
331
29A
331
29B
331
2A4
331
2A5
331
2CD
331
2CE
331
2EF
331
2F0
331
2F9
331
2FA
331
303
331
304
331
314
331
315
331
31F
331
320
331
327
331
328
331
34C
331
34D
331
357
331
358
331
369
331
36A
331
370
331
371
331
37A
331
37B
331
387
331
388
331
3CB
331
3D5
331
3D6
102
}
  0
BLOCK_RECORD
  5
28C
330
1
100
AcDbSymbolTableRecord
100
AcDbBlockTableRecord
  2
_D_1
340
0
  0
BLOCK_RECORD
  5
297
330
1
100
AcDbSymbolTableRecord
100
AcDbBlockTableRecord
  2
_D_2
340
0
  0
BLOCK_RECORD
  5
2A1
330
1
100
AcDbSymbolTableRecord
100
AcDbBlockTableRecord
  2
_D_3
340
0
  0
BLOCK_RECORD
  5
2AA
330
1
100
AcDbSymbolTableRecord
100
AcDbBlockTableRecord
  2
SW_NOTE_1
340
0
102
{BLKREFS
331
2AF
102
}
  0
BLOCK_RECORD
  5
2CA
330
1
100
AcDbSymbolTableRecord
100
AcDbBlockTableRecord
  2
_D_4
340
0
  0
BLOCK_RECORD
  5
2EC
330
1
100
AcDbSymbolTableRecord
100
AcDbBlockTableRecord
  2
_D_5
340
0
  0
BLOCK_RECORD
  5
2F6
330
1
100
AcDbSymbolTableRecord
100
AcDbBlockTableRecord
  2
_D_6
340
0
  0
BLOCK_RECORD
  5
300
330
1
100
AcDbSymbolTableRecord
100
AcDbBlockTableRecord
  2
_D_7
340
0
  0
BLOCK_RECORD
  5
30B
330
1
100
AcDbSymbolTableRecord
100
AcDbBlockTableRecord
  2
_D_8
340
0
  0
BLOCK_RECORD
  5
318
330
1
100
AcDbSymbolTableRecord
100
AcDbBlockTableRecord
  2
_D_9
340
0
  0
BLOCK_RECORD
  5
324
330
1
100
AcDbSymbolTableRecord
100
AcDbBlockTableRecord
  2
_D_10
340
0
  0
BLOCK_RECORD
  5
32E
330
1
100
AcDbSymbolTableRecord
100
AcDbBlockTableRecord
  2
SW_NOTE_2
340
0
102
{BLKREFS
331
333
102
}
  0
BLOCK_RECORD
  5
349
330
1
100
AcDbSymbolTableRecord
100
AcDbBlockTableRecord
  2
_D_11
340
0
  0
BLOCK_RECORD
  5
354
330
1
100
AcDbSymbolTableRecord
100
AcDbBlockTableRecord
  2
_D_12
340
0
  0
BLOCK_RECORD
  5
360
330
1
100
AcDbSymbolTableRecord
100
AcDbBlockTableRecord
  2
_D_13
340
0
  0
BLOCK_RECORD
  5
36D
330
1
100
AcDbSymbolTableRecord
100
AcDbBlockTableRecord
  2
_D_14
340
0
  0
BLOCK_RECORD
  5
377
330
1
100
AcDbSymbolTableRecord
100
AcDbBlockTableRecord
  2
_D_15
340
0
  0
BLOCK_RECORD
  5
384
330
1
100
AcDbSymbolTableRecord
100
AcDbBlockTableRecord
  2
_D_16
340
0
  0
BLOCK_RECORD
  5
38E
330
1
100
AcDbSymbolTableRecord
100
AcDbBlockTableRecord
  2
SW_NOTE_3
340
0
102
{BLKREFS
331
393
102
}
  0
BLOCK_RECORD
  5
3C5
330
1
100
AcDbSymbolTableRecord
100
AcDbBlockTableRecord
  2
_D_17
340
0
  0
BLOCK_RECORD
  5
3D2
330
1
100
AcDbSymbolTableRecord
100
AcDbBlockTableRecord
  2
_D_18
340
0
  0
BLOCK_RECORD
  5
3DB
330
1
100
AcDbSymbolTableRecord
100
AcDbBlockTableRecord
  2
SW_NOTE_4
340
0
102
{BLKREFS
331
3E0
102
}
  0
ENDTAB
  0
ENDSEC
  0
SECTION
  2
BLOCKS
  0
BLOCK
  5
20
330
1F
100
AcDbEntity
  8
0
100
AcDbBlockBegin
  2
*Model_Space
 70
     0
 10
0.0
 20
0.0
 30
0.0
  3
*Model_Space
  1

  0
ENDBLK
  5
21
330
1F
100
AcDbEntity
  8
0
100
AcDbBlockEnd
  0
BLOCK
  5
1C
330
1B
100
AcDbEntity
 67
     1
  8
0
100
AcDbBlockBegin
  2
*Paper_Space
 70
     0
 10
0.0
 20
0.0
 30
0.0
  3
*Paper_Space
  1

  0
ENDBLK
  5
1D
330
1B
100
AcDbEntity
 67
     1
  8
0
100
AcDbBlockEnd
  0
BLOCK
  5
24
330
23
100
AcDbEntity
  8
0
100
AcDbBlockBegin
  2
*Paper_Space0
 70
     0
 10
0.0
 20
0.0
 30
0.0
  3
*Paper_Space0
  1

  0
ENDBLK
  5
25
330
23
100
AcDbEntity
  8
0
100
AcDbBlockEnd
  0
BLOCK
  5
204
330
203
100
AcDbEntity
  8
0
100
AcDbBlockBegin
  2
_NONE
 70
     0
 10
0.0
 20
0.0
 30
0.0
  3
_NONE
  1

  0
ENDBLK
  5
205
330
203
100
AcDbEntity
  8
0
100
AcDbBlockEnd
  0
BLOCK
  5
207
330
206
100
AcDbEntity
  8
0
100
AcDbBlockBegin
  2
_D
 70
     0
 10
0.0
 20
0.0
 30
0.0
  3
_D
  1

  0
MTEXT
  5
209
330
206
100
AcDbEntity
  8
0
  6
SLD-実線
 62
     7
370
    18
100
AcDbMText
 10
-7.8977102377
 20
275.5449492079
 30
0.0
 40
3.5
 41
0.0
 71
     1
 72
     1
  1
5
  7
SLDTEXTSTYLE0
 73
     1
 44
1.0
  0
ENDBLK
  5
208
330
206
100
AcDbEntity
  8
0
100
AcDbBlockEnd
  0
BLOCK
  5
20D
330
20C
100
AcDbEntity
  8
0
100
AcDbBlockBegin
  2
SW_NOTE_0
 70
     0
 10
0.0
 20
0.0
 30
0.0
  3
SW_NOTE_0
  1

  0
LINE
  5
20F
330
20C
100
AcDbEntity
  8
レイヤー_1
 62
     0
100
AcDbLine
 10
-0.7559027872
 20
0.0000002328
 30
0.0
 11
-0.7559027872
 21
4.5000000391
 31
0.0
  0
LINE
  5
210
330
20C
100
AcDbEntity
  8
レイヤー_1
 62
     0
100
AcDbLine
 10
-0.7559027872
 20
4.5000000391
 30
0.0
 11
12.9767362378
 21
4.5000000391
 31
0.0
  0
LINE
  5
211
330
20C
100
AcDbEntity
  8
レイヤー_1
 62
     0
100
AcDbLine
 10
12.9767362378
 20
4.5000000391
 30
0.0
 11
12.9767362378
 21
0.0000002328
 31
0.0
  0
LINE
  5
212
330
20C
100
AcDbEntity
  8
レイヤー_1
 62
     0
100
AcDbLine
 10
12.9767362378
 20
0.0000002328
 30
0.0
 11
-0.7559027872
 21
0.0000002328
 31
0.0
  0
MTEXT
  5
214
330
20C
100
AcDbEntity
  8
レイヤー_1
 62
     0
100
AcDbMText
 10
0.0
 20
4.072727272700007
 30
0.0
 40
3.0
 41
0.0
 71
     1
 72
     1
  1
{付属品}
  7
SLDTEXTSTYLE1
 73
     1
 44
1.0
  0
ENDBLK
  5
20E
330
20C
100
AcDbEntity
  8
0
100
AcDbBlockEnd
  0
BLOCK
  5
269
330
268
100
AcDbEntity
  8
0
100
AcDbBlockBegin
  2
SW_BROKEN_VIEW_0
 70
     0
 10
0.0
 20
0.0
 30
0.0
  3
SW_BROKEN_VIEW_0
  1

  0
ENDBLK
  5
26A
330
268
100
AcDbEntity
  8
0
100
AcDbBlockEnd
  0
BLOCK
  5
287
330
286
100
AcDbEntity
  8
0
100
AcDbBlockBegin
  2
_OPEN30
 70
     0
 10
0.0
 20
0.0
 30
0.0
  3
_OPEN30
  1

  0
LINE
  5
289
330
286
100
AcDbEntity
  8
0
  6
ByBlock
 62
     0
370
    -2
100
AcDbLine
 10
-1.0
 20
0.267949
 30
0.0
 11
0.0
 21
0.0
 31
0.0
  0
LINE
  5
28A
330
286
100
AcDbEntity
  8
0
  6
ByBlock
 62
     0
370
    -2
100
AcDbLine
 10
0.0
 20
0.0
 30
0.0
 11
-1.0
 21
-0.267949
 31
0.0
  0
LINE
  5
28B
330
286
100
AcDbEntity
  8
0
  6
ByBlock
 62
     0
370
    -2
100
AcDbLine
 10
0.0
 20
0.0
 30
0.0
 11
-1.0
 21
0.0
 31
0.0
  0
ENDBLK
  5
288
330
286
100
AcDbEntity
  8
0
100
AcDbBlockEnd
  0
BLOCK
  5
28D
330
28C
100
AcDbEntity
  8
0
100
AcDbBlockBegin
  2
_D_1
 70
     0
 10
0.0
 20
0.0
 30
0.0
  3
_D_1
  1

  0
INSERT
  5
28F
330
28C
100
AcDbEntity
  8
レイヤー_1
 62
     7
100
AcDbBlockReference
  2
_OPEN30
 10
131.3729986802
 20
207.6315500131
 30
-10.75
 41
3.302
 42
3.302
 50
90.0
  0
INSERT
  5
290
330
28C
100
AcDbEntity
  8
レイヤー_1
 62
     7
100
AcDbBlockReference
  2
_OPEN30
 10
131.3729986802
 20
144.6315500131
 30
-10.75
 41
3.302
 42
3.302
 50
270.0
  0
LINE
  5
291
330
28C
100
AcDbEntity
  8
レイヤー_1
 62
     7
100
AcDbLine
 10
147.5733844768
 20
207.6315500131
 30
0.0
 11
130.3729986802
 21
207.6315500131
 31
0.0
  0
LINE
  5
292
330
28C
100
AcDbEntity
  8
レイヤー_1
 62
     7
100
AcDbLine
 10
140.3729986802
 20
144.6315500131
 30
0.0
 11
130.3729986802
 21
144.6315500131
 31
0.0
  0
LINE
  5
293
330
28C
100
AcDbEntity
  8
レイヤー_1
 62
     7
100
AcDbLine
 10
131.3729986802
 20
207.6315500131
 30
0.0
 11
131.3729986802
 21
144.6315500131
 31
0.0
  0
MTEXT
  5
294
330
28C
100
AcDbEntity
  8
レイヤー_1
 62
     7
100
AcDbMText
 10
127.3002716403
 20
174.0947445156
 30
0.0
 40
3.5
 41
0.0
 71
     1
 72
     1
  1
63
  7
SLDTEXTSTYLE0
 11
-7.044195017643634E-15
 21
1.0
 31
0.0
 73
     1
 44
1.0
  0
ENDBLK
  5
28E
330
28C
100
AcDbEntity
  8
0
100
AcDbBlockEnd
  0
BLOCK
  5
298
330
297
100
AcDbEntity
  8
0
100
AcDbBlockBegin
  2
_D_2
 70
     0
 10
0.0
 20
0.0
 30
0.0
  3
_D_2
  1

  0
INSERT
  5
29A
330
297
100
AcDbEntity
  8
レイヤー_1
 62
     7
100
AcDbBlockReference
  2
_OPEN30
 10
141.3729986802
 20
134.6315500131
 30
-10.75
 41
3.302
 42
3.302
 50
180.0
  0
INSERT
  5
29B
330
297
100
AcDbEntity
  8
レイヤー_1
 62
     7
100
AcDbBlockReference
  2
_OPEN30
 10
170.8729986802
 20
134.6315500131
 30
-10.75
 41
3.302
 42
3.302
  0
LINE
  5
29C
330
297
100
AcDbEntity
  8
レイヤー_1
 62
     7
100
AcDbLine
 10
141.3729986802
 20
143.6315500131
 30
0.0
 11
141.3729986802
 21
133.6315500131
 31
0.0
  0
LINE
  5
29D
330
297
100
AcDbEntity
  8
レイヤー_1
 62
     7
100
AcDbLine
 10
170.8729986802
 20
143.6315500131
 30
0.0
 11
170.8729986802
 21
133.6315500131
 31
0.0
  0
LINE
  5
29E
330
297
100
AcDbEntity
  8
レイヤー_1
 62
     7
100
AcDbLine
 10
141.3729986802
 20
134.6315500131
 30
0.0
 11
170.8729986802
 21
134.6315500131
 31
0.0
  0
MTEXT
  5
29F
330
297
100
AcDbEntity
  8
レイヤー_1
 62
     7
100
AcDbMText
 10
152.6545960188
 20
138.704277053
 30
0.0
 40
3.5
 41
0.0
 71
     1
 72
     1
  1
29.5
  7
SLDTEXTSTYLE0
 73
     1
 44
1.0
  0
ENDBLK
  5
299
330
297
100
AcDbEntity
  8
0
100
AcDbBlockEnd
  0
BLOCK
  5
2A2
330
2A1
100
AcDbEntity
  8
0
100
AcDbBlockBegin
  2
_D_3
 70
     0
 10
0.0
 20
0.0
 30
0.0
  3
_D_3
  1

  0
INSERT
  5
2A4
330
2A1
100
AcDbEntity
  8
レイヤー_1
 62
     7
100
AcDbBlockReference
  2
_OPEN30
 10
172.3729986802
 20
216.9027313992
 30
-10.75
 41
3.302
 42
3.302
 50
180.0
  0
INSERT
  5
2A5
330
2A1
100
AcDbEntity
  8
レイヤー_1
 62
     7
100
AcDbBlockReference
  2
_OPEN30
 10
212.6069120779
 20
216.9027313992
 30
-10.75
 41
3.302
 42
3.302
  0
LINE
  5
2A6
330
2A1
100
AcDbEntity
  8
レイヤー_1
 62
     7
100
AcDbLine
 10
172.3729986802
 20
199.6315500131
 30
0.0
 11
172.3729986802
 21
217.9027313992
 31
0.0
  0
LINE
  5
2A7
330
2A1
100
AcDbEntity
  8
レイヤー_1
 62
     7
100
AcDbLine
 10
212.6069120779
 20
197.7815500131
 30
0.0
 11
212.6069120779
 21
217.9027313992
 31
0.0
  0
LINE
  5
2A8
330
2A1
100
AcDbEntity
  8
レイヤー_1
 62
     7
100
AcDbLine
 10
172.3729986802
 20
216.9027313992
 30
0.0
 11
212.6069120779
 21
216.9027313992
 31
0.0
  0
MTEXT
  5
2A9
330
2A1
100
AcDbEntity
  8
レイヤー_1
 62
     7
100
AcDbMText
 10
189.4347470164
 20
220.9754584391
 30
0.0
 40
3.5
 41
0.0
 71
     1
 72
     1
  1
400
  7
SLDTEXTSTYLE0
 73
     1
 44
1.0
  0
ENDBLK
  5
2A3
330
2A1
100
AcDbEntity
  8
0
100
AcDbBlockEnd
  0
BLOCK
  5
2AB
330
2AA
100
AcDbEntity
  8
0
100
AcDbBlockBegin
  2
SW_NOTE_1
 70
     0
 10
0.0
 20
0.0
 30
0.0
  3
SW_NOTE_1
  1

  0
CIRCLE
  5
2AD
330
2AA
100
AcDbEntity
  8
レイヤー_1
 62
     0
100
AcDbCircle
 10
4.5
 20
2.2151898734
 30
0.0
 40
5.015682024938633
  0
MTEXT
  5
2AE
330
2AA
100
AcDbEntity
  8
レイヤー_1
 62
     0
100
AcDbMText
 10
3.4815972513
 20
4.0031069804
 30
0.0
 40
3.5
 41
0.0
 71
     1
 72
     1
  1
1
  7
SLDTEXTSTYLE0
 73
     1
 44
1.0
  0
ENDBLK
  5
2AC
330
2AA
100
AcDbEntity
  8
0
100
AcDbBlockEnd
  0
BLOCK
  5
2CB
330
2CA
100
AcDbEntity
  8
0
100
AcDbBlockBegin
  2
_D_4
 70
     0
 10
0.0
 20
0.0
 30
0.0
  3
_D_4
  1

  0
INSERT
  5
2CD
330
2CA
100
AcDbEntity
  8
レイヤー_1
 62
     7
100
AcDbBlockReference
  2
_OPEN30
 10
67.3755629628
 20
217.6315500131
 30
186.0
 41
3.302
 42
3.302
 50
180.0
  0
INSERT
  5
2CE
330
2CA
100
AcDbEntity
  8
レイヤー_1
 62
     7
100
AcDbBlockReference
  2
_OPEN30
 10
89.3755629628
 20
217.6315500131
 30
186.0
 41
3.302
 42
3.302
  0
LINE
  5
2CF
330
2CA
100
AcDbEntity
  8
レイヤー_1
 62
     7
100
AcDbLine
 10
67.3755629628
 20
204.6315500131
 30
0.0
 11
67.3755629628
 21
218.6315500131
 31
0.0
  0
LINE
  5
2D0
330
2CA
100
AcDbEntity
  8
レイヤー_1
 62
     7
100
AcDbLine
 10
89.3755629628
 20
204.6315500131
 30
0.0
 11
89.3755629628
 21
218.6315500131
 31
0.0
  0
LINE
  5
2D1
330
2CA
100
AcDbEntity
  8
レイヤー_1
 62
     7
100
AcDbLine
 10
67.3755629628
 20
217.6315500131
 30
0.0
 11
89.3755629628
 21
217.6315500131
 31
0.0
  0
MTEXT
  5
2D2
330
2CA
100
AcDbEntity
  8
レイヤー_1
 62
     7
100
AcDbMText
 10
76.3387574653
 20
221.704277053
 30
0.0
 40
3.5
 41
0.0
 71
     1
 72
     1
  1
22
  7
SLDTEXTSTYLE0
 73
     1
 44
1.0
  0
ENDBLK
  5
2CC
330
2CA
100
AcDbEntity
  8
0
100
AcDbBlockEnd
  0
BLOCK
  5
2ED
330
2EC
100
AcDbEntity
  8
0
100
AcDbBlockBegin
  2
_D_5
 70
     0
 10
0.0
 20
0.0
 30
0.0
  3
_D_5
  1

  0
INSERT
  5
2EF
330
2EC
100
AcDbEntity
  8
レイヤー_1
 62
     7
100
AcDbBlockReference
  2
_OPEN30
 10
280.5191029515
 20
220.0843576217
 30
0.0
 41
3.302
 42
3.302
  0
INSERT
  5
2F0
330
2EC
100
AcDbEntity
  8
レイヤー_1
 62
     7
100
AcDbBlockReference
  2
_OPEN30
 10
252.5191029515
 20
220.0843576217
 30
0.0
 41
3.302
 42
3.302
 50
180.0
  0
LINE
  5
2F1
330
2EC
100
AcDbEntity
  8
レイヤー_1
 62
     7
100
AcDbLine
 10
280.5191029515
 20
202.4061300333
 30
0.0
 11
280.5191029515
 21
221.0843576217
 31
0.0
  0
LINE
  5
2F2
330
2EC
100
AcDbEntity
  8
レイヤー_1
 62
     7
100
AcDbLine
 10
252.5191029515
 20
198.8061300333
 30
0.0
 11
252.5191029515
 21
221.0843576217
 31
0.0
  0
LINE
  5
2F3
330
2EC
100
AcDbEntity
  8
レイヤー_1
 62
     7
100
AcDbLine
 10
280.5191029515
 20
220.0843576217
 30
0.0
 11
252.5191029515
 21
220.0843576217
 31
0.0
  0
MTEXT
  5
2F4
330
2EC
100
AcDbEntity
  8
レイヤー_1
 62
     7
100
AcDbMText
 10
264.482297454
 20
224.1570846616
 30
0.0
 40
3.5
 41
0.0
 71
     1
 72
     1
  1
28
  7
SLDTEXTSTYLE0
 73
     1
 44
1.0
  0
ENDBLK
  5
2EE
330
2EC
100
AcDbEntity
  8
0
100
AcDbBlockEnd
  0
BLOCK
  5
2F7
330
2F6
100
AcDbEntity
  8
0
100
AcDbBlockBegin
  2
_D_6
 70
     0
 10
0.0
 20
0.0
 30
0.0
  3
_D_6
  1

  0
INSERT
  5
2F9
330
2F6
100
AcDbEntity
  8
レイヤー_1
 62
     7
100
AcDbBlockReference
  2
_OPEN30
 10
280.5191029515
 20
211.6561300333
 30
0.0
 41
3.302
 42
3.302
  0
INSERT
  5
2FA
330
2F6
100
AcDbEntity
  8
レイヤー_1
 62
     7
100
AcDbBlockReference
  2
_OPEN30
 10
268.5191029515
 20
211.6561300333
 30
0.0
 41
3.302
 42
3.302
 50
180.0
  0
LINE
  5
2FB
330
2F6
100
AcDbEntity
  8
レイヤー_1
 62
     7
100
AcDbLine
 10
280.5191029515
 20
202.4061300333
 30
0.0
 11
280.5191029515
 21
212.6561300333
 31
0.0
  0
LINE
  5
2FC
330
2F6
100
AcDbEntity
  8
レイヤー_1
 62
     7
100
AcDbLine
 10
268.5191029515
 20
202.4061300333
 30
0.0
 11
268.5191029515
 21
212.6561300333
 31
0.0
  0
LINE
  5
2FD
330
2F6
100
AcDbEntity
  8
レイヤー_1
 62
     7
100
AcDbLine
 10
280.5191029515
 20
211.6561300333
 30
0.0
 11
268.5191029515
 21
211.6561300333
 31
0.0
  0
MTEXT
  5
2FE
330
2F6
100
AcDbEntity
  8
レイヤー_1
 62
     7
100
AcDbMText
 10
272.6542627717
 20
215.7288570732
 30
0.0
 40
3.5
 41
0.0
 71
     1
 72
     1
  1
12
  7
SLDTEXTSTYLE0
 73
     1
 44
1.0
  0
ENDBLK
  5
2F8
330
2F6
100
AcDbEntity
  8
0
100
AcDbBlockEnd
  0
BLOCK
  5
301
330
300
100
AcDbEntity
  8
0
100
AcDbBlockBegin
  2
_D_7
 70
     0
 10
0.0
 20
0.0
 30
0.0
  3
_D_7
  1

  0
INSERT
  5
303
330
300
100
AcDbEntity
  8
レイヤー_1
 62
     7
100
AcDbBlockReference
  2
_OPEN30
 10
264.5191029515
 20
211.6561300333
 30
0.0
 41
3.302
 42
3.302
  0
INSERT
  5
304
330
300
100
AcDbEntity
  8
レイヤー_1
 62
     7
100
AcDbBlockReference
  2
_OPEN30
 10
252.5191029515
 20
211.6561300333
 30
0.0
 41
3.302
 42
3.302
 50
180.0
  0
LINE
  5
305
330
300
100
AcDbEntity
  8
レイヤー_1
 62
     7
100
AcDbLine
 10
264.5191029515
 20
192.4061300333
 30
0.0
 11
264.5191029515
 21
212.6561300333
 31
0.0
  0
LINE
  5
306
330
300
100
AcDbEntity
  8
レイヤー_1
 62
     7
100
AcDbLine
 10
252.5191029515
 20
198.8061300333
 30
0.0
 11
252.5191029515
 21
212.6561300333
 31
0.0
  0
LINE
  5
307
330
300
100
AcDbEntity
  8
レイヤー_1
 62
     7
100
AcDbLine
 10
264.5191029515
 20
211.6561300333
 30
0.0
 11
252.5191029515
 21
211.6561300333
 31
0.0
  0
MTEXT
  5
308
330
300
100
AcDbEntity
  8
レイヤー_1
 62
     7
100
AcDbMText
 10
256.482297454
 20
215.7288570732
 30
0.0
 40
3.5
 41
0.0
 71
     1
 72
     1
  1
12
  7
SLDTEXTSTYLE0
 73
     1
 44
1.0
  0
ENDBLK
  5
302
330
300
100
AcDbEntity
  8
0
100
AcDbBlockEnd
  0
BLOCK
  5
30C
330
30B
100
AcDbEntity
  8
0
100
AcDbBlockBegin
  2
_D_8
 70
     0
 10
0.0
 20
0.0
 30
0.0
  3
_D_8
  1

  0
LINE
  5
30E
330
30B
100
AcDbEntity
  8
レイヤー_1
 62
     0
370
    -2
100
AcDbLine
 10
252.4566029515
 20
197.8061300333
 30
0.0
 11
242.5191029515
 21
197.8061300333
 31
0.0
  0
LINE
  5
30F
330
30B
100
AcDbEntity
  8
レイヤー_1
 62
     0
370
    -2
100
AcDbLine
 10
252.4566029515
 20
185.0061300333
 30
0.0
 11
242.5191029515
 21
185.0061300333
 31
0.0
  0
LINE
  5
310
330
30B
100
AcDbEntity
  8
レイヤー_1
 62
     0
370
    -2
100
AcDbLine
 10
242.5191029515
 20
197.8061300333
 30
0.0
 11
242.5191029515
 21
225.8281320965737
 31
0.0
  0
LINE
  5
311
330
30B
100
AcDbEntity
  8
レイヤー_1
 62
     0
370
    -2
100
AcDbLine
 10
242.5191029515
 20
197.8061300333
 30
0.0
 11
242.5191029515
 21
185.0061300333
 31
0.0
  0
LINE
  5
312
330
30B
100
AcDbEntity
  8
レイヤー_1
 62
     0
370
    -2
100
AcDbLine
 10
242.5191029515
 20
201.1081300333
 30
0.0
 11
242.5191029515
 21
204.4101300333
 31
0.0
  0
LINE
  5
313
330
30B
100
AcDbEntity
  8
レイヤー_1
 62
     0
370
    -2
100
AcDbLine
 10
242.5191029515
 20
181.7041300333
 30
0.0
 11
242.5191029515
 21
178.4021300333
 31
0.0
  0
INSERT
  5
314
330
30B
100
AcDbEntity
  8
レイヤー_1
 62
     0
370
    -2
100
AcDbBlockReference
  2
_OPEN30
 10
242.5191029515
 20
197.8061300333
 30
0.0
 41
3.302
 42
3.302
 43
3.302
 50
270.0
  0
INSERT
  5
315
330
30B
100
AcDbEntity
  8
レイヤー_1
 62
     0
370
    -2
100
AcDbBlockReference
  2
_OPEN30
 10
242.5191029515
 20
185.0061300333
 30
0.0
 41
3.302
 42
3.302
 43
3.302
 50
90.0
  0
MTEXT
  5
316
330
30B
100
AcDbEntity
  8
レイヤー_1
 62
     0
100
AcDbMText
 10
231.7958567341685
 20
224.9531320965737
 30
0.0
 40
3.3
 41
0.0
 71
     3
 72
     1
  1
\A1;呼び径(B)\P1/4
  7
SLDTEXTSTYLE0
 11
0.0
 21
1.0
 31
0.0
 73
     1
 44
1.0
  0
POINT
  5
429
330
30B
100
AcDbEntity
  8
Defpoints
 62
     0
100
AcDbPoint
 10
252.5191029515
 20
197.8061300333
 30
0.0
  0
POINT
  5
42A
330
30B
100
AcDbEntity
  8
Defpoints
 62
     0
100
AcDbPoint
 10
252.5191029515
 20
185.0061300333
 30
0.0
  0
POINT
  5
42B
330
30B
100
AcDbEntity
  8
Defpoints
 62
     0
100
AcDbPoint
 10
242.5191029515
 20
185.0061300333
 30
0.0
  0
ENDBLK
  5
30D
330
30B
100
AcDbEntity
  8
0
100
AcDbBlockEnd
  0
BLOCK
  5
319
330
318
100
AcDbEntity
  8
0
100
AcDbBlockBegin
  2
_D_9
 70
     0
 10
0.0
 20
0.0
 30
0.0
  3
_D_9
  1

  0
LINE
  5
31B
330
318
100
AcDbEntity
  8
レイヤー_1
 62
     0
370
    -2
100
AcDbLine
 10
280.5816029515
 20
181.4061300333
 30
0.0
 11
296.5191029515
 21
181.4061300333
 31
0.0
  0
LINE
  5
31C
330
318
100
AcDbEntity
  8
レイヤー_1
 62
     0
370
    -2
100
AcDbLine
 10
280.5816029515
 20
201.4061300333
 30
0.0
 11
296.5191029515
 21
201.4061300333
 31
0.0
  0
LINE
  5
31D
330
318
100
AcDbEntity
  8
レイヤー_1
 62
     0
370
    -2
100
AcDbLine
 10
296.5191029515
 20
201.4061300333
 30
0.0
 11
296.5191029515
 21
226.1261320965738
 31
0.0
  0
LINE
  5
31E
330
318
100
AcDbEntity
  8
レイヤー_1
 62
     0
370
    -2
100
AcDbLine
 10
296.5191029515
 20
184.7081300333
 30
0.0
 11
296.5191029515
 21
198.1041300333
 31
0.0
  0
INSERT
  5
31F
330
318
100
AcDbEntity
  8
レイヤー_1
 62
     0
370
    -2
100
AcDbBlockReference
  2
_OPEN30
 10
296.5191029515
 20
181.4061300333
 30
0.0
 41
3.302
 42
3.302
 43
3.302
 50
270.0
  0
INSERT
  5
320
330
318
100
AcDbEntity
  8
レイヤー_1
 62
     0
370
    -2
100
AcDbBlockReference
  2
_OPEN30
 10
296.5191029515
 20
201.4061300333
 30
0.0
 41
3.302
 42
3.302
 43
3.302
 50
90.0
  0
MTEXT
  5
321
330
318
100
AcDbEntity
  8
レイヤー_1
 62
     0
100
AcDbMText
 10
285.7958567341685
 20
225.2511320965737
 30
0.0
 40
3.3
 41
0.0
 71
     3
 72
     1
  1
\A1;呼び径(B)\P1/2
  7
SLDTEXTSTYLE0
 11
0.0
 21
1.0
 31
0.0
 73
     1
 44
1.0
  0
POINT
  5
322
330
318
100
AcDbEntity
  8
Defpoints
 62
     0
100
AcDbPoint
 10
280.5191029515
 20
181.4061300333
 30
0.0
  0
POINT
  5
42C
330
318
100
AcDbEntity
  8
Defpoints
 62
     0
100
AcDbPoint
 10
280.5191029515
 20
201.4061300333
 30
0.0
  0
POINT
  5
42D
330
318
100
AcDbEntity
  8
Defpoints
 62
     0
100
AcDbPoint
 10
296.5191029515
 20
201.4061300333
 30
0.0
  0
ENDBLK
  5
31A
330
318
100
AcDbEntity
  8
0
100
AcDbBlockEnd
  0
BLOCK
  5
325
330
324
100
AcDbEntity
  8
0
100
AcDbBlockBegin
  2
_D_10
 70
     0
 10
0.0
 20
0.0
 30
0.0
  3
_D_10
  1

  0
INSERT
  5
327
330
324
100
AcDbEntity
  8
レイヤー_1
 62
     7
100
AcDbBlockReference
  2
_OPEN30
 10
230.5191029515
 20
201.6561300333
 30
0.0
 41
3.302
 42
3.302
 50
90.0
  0
INSERT
  5
328
330
324
100
AcDbEntity
  8
レイヤー_1
 62
     7
100
AcDbBlockReference
  2
_OPEN30
 10
230.5191029515
 20
181.1561300333
 30
0.0
 41
3.302
 42
3.302
 50
270.0
  0
LINE
  5
329
330
324
100
AcDbEntity
  8
レイヤー_1
 62
     7
100
AcDbLine
 10
263.5191029515
 20
201.6561300333
 30
0.0
 11
229.5191029515
 21
201.6561300333
 31
0.0
  0
LINE
  5
32A
330
324
100
AcDbEntity
  8
レイヤー_1
 62
     7
100
AcDbLine
 10
263.5191029515
 20
181.1561300333
 30
0.0
 11
229.5191029515
 21
181.1561300333
 31
0.0
  0
LINE
  5
32B
330
324
100
AcDbEntity
  8
レイヤー_1
 62
     7
100
AcDbLine
 10
230.5191029515
 20
201.6561300333
 30
0.0
 11
230.5191029515
 21
181.1561300333
 31
0.0
  0
MTEXT
  5
32C
330
324
100
AcDbEntity
  8
レイヤー_1
 62
     7
100
AcDbMText
 10
226.4463759116
 20
189.3693245358
 30
0.0
 40
3.5
 41
0.0
 71
     1
 72
     1
  1
21
  7
SLDTEXTSTYLE0
 11
-1.414962237524464E-14
 21
1.0
 31
0.0
 73
     1
 44
1.0
  0
ENDBLK
  5
326
330
324
100
AcDbEntity
  8
0
100
AcDbBlockEnd
  0
BLOCK
  5
32F
330
32E
100
AcDbEntity
  8
0
100
AcDbBlockBegin
  2
SW_NOTE_2
 70
     0
 10
0.0
 20
0.0
 30
0.0
  3
SW_NOTE_2
  1

  0
CIRCLE
  5
331
330
32E
100
AcDbEntity
  8
レイヤー_1
 62
     0
100
AcDbCircle
 10
0.0
 20
-5.0156820249
 30
0.0
 40
5.015682024938671
  0
MTEXT
  5
332
330
32E
100
AcDbEntity
  8
レイヤー_1
 62
     0
100
AcDbMText
 10
-1.0184027487
 20
-3.2277649179
 30
0.0
 40
3.5
 41
0.0
 71
     1
 72
     1
  1
2
  7
SLDTEXTSTYLE0
 73
     1
 44
1.0
  0
ENDBLK
  5
330
330
32E
100
AcDbEntity
  8
0
100
AcDbBlockEnd
  0
BLOCK
  5
34A
330
349
100
AcDbEntity
  8
0
100
AcDbBlockBegin
  2
_D_11
 70
     0
 10
0.0
 20
0.0
 30
0.0
  3
_D_11
  1

  0
INSERT
  5
34C
330
349
100
AcDbEntity
  8
レイヤー_1
 62
     7
100
AcDbBlockReference
  2
_OPEN30
 10
331.6617447663
 20
213.7599897198
 30
0.0
 41
3.302
 42
3.302
 50
180.0
  0
INSERT
  5
34D
330
349
100
AcDbEntity
  8
レイヤー_1
 62
     7
100
AcDbBlockReference
  2
_OPEN30
 10
360.6617447663
 20
213.7599897198
 30
0.0
 41
3.302
 42
3.302
  0
LINE
  5
34E
330
349
100
AcDbEntity
  8
レイヤー_1
 62
     7
100
AcDbLine
 10
331.6617447663
 20
197.7299805558
 30
0.0
 11
331.6617447663
 21
214.7599897198
 31
0.0
  0
LINE
  5
34F
330
349
100
AcDbEntity
  8
レイヤー_1
 62
     7
100
AcDbLine
 10
360.6617447663
 20
195.3799805558
 30
0.0
 11
360.6617447663
 21
214.7599897198
 31
0.0
  0
LINE
  5
350
330
349
100
AcDbEntity
  8
レイヤー_1
 62
     7
100
AcDbLine
 10
331.6617447663
 20
213.7599897198
 30
0.0
 11
360.6617447663
 21
213.7599897198
 31
0.0
  0
MTEXT
  5
351
330
349
100
AcDbEntity
  8
レイヤー_1
 62
     7
100
AcDbMText
 10
344.1249392688
 20
217.8327167597
 30
0.0
 40
3.5
 41
0.0
 71
     1
 72
     1
  1
29
  7
SLDTEXTSTYLE0
 73
     1
 44
1.0
  0
ENDBLK
  5
34B
330
349
100
AcDbEntity
  8
0
100
AcDbBlockEnd
  0
BLOCK
  5
355
330
354
100
AcDbEntity
  8
0
100
AcDbBlockBegin
  2
_D_12
 70
     0
 10
0.0
 20
0.0
 30
0.0
  3
_D_12
  1

  0
INSERT
  5
357
330
354
100
AcDbEntity
  8
レイヤー_1
 62
     7
100
AcDbBlockReference
  2
_OPEN30
 10
339.6617447663
 20
206.8799805558
 30
0.0
 41
3.302
 42
3.302
 50
180.0
  0
INSERT
  5
358
330
354
100
AcDbEntity
  8
レイヤー_1
 62
     7
100
AcDbBlockReference
  2
_OPEN30
 10
331.6617447663
 20
206.8799805558
 30
0.0
 41
3.302
 42
3.302
  0
LINE
  5
359
330
354
100
AcDbEntity
  8
レイヤー_1
 62
     7
100
AcDbLine
 10
339.6617447663
 20
197.7055220511
 30
0.0
 11
339.6617447663
 21
207.8799805558
 31
0.0
  0
LINE
  5
35A
330
354
100
AcDbEntity
  8
レイヤー_1
 62
     7
100
AcDbLine
 10
331.6617447663
 20
197.7299805558
 30
0.0
 11
331.6617447663
 21
207.8799805558
 31
0.0
  0
LINE
  5
35B
330
354
100
AcDbEntity
  8
レイヤー_1
 62
     7
100
AcDbLine
 10
339.6617447663
 20
206.8799805558
 30
0.0
 11
346.0117447663
 21
206.8799805558
 31
0.0
  0
LINE
  5
35C
330
354
100
AcDbEntity
  8
レイヤー_1
 62
     7
100
AcDbLine
 10
339.6617447663
 20
206.8799805558
 30
0.0
 11
331.6617447663
 21
206.8799805558
 31
0.0
  0
LINE
  5
35D
330
354
100
AcDbEntity
  8
レイヤー_1
 62
     7
100
AcDbLine
 10
331.6617447663
 20
206.8799805558
 30
0.0
 11
325.1854873984
 21
206.8799805558
 31
0.0
  0
MTEXT
  5
35E
330
354
100
AcDbEntity
  8
レイヤー_1
 62
     7
100
AcDbMText
 10
325.1854873984
 20
210.9527075957
 30
0.0
 40
3.5
 41
0.0
 71
     1
 72
     1
  1
8
  7
SLDTEXTSTYLE0
 73
     1
 44
1.0
  0
ENDBLK
  5
356
330
354
100
AcDbEntity
  8
0
100
AcDbBlockEnd
  0
BLOCK
  5
361
330
360
100
AcDbEntity
  8
0
100
AcDbBlockBegin
  2
_D_13
 70
     0
 10
0.0
 20
0.0
 30
0.0
  3
_D_13
  1

  0
LINE
  5
363
330
360
100
AcDbEntity
  8
レイヤー_1
 62
     0
370
    -2
100
AcDbLine
 10
331.5992447663
 20
196.7299805558
 30
0.0
 11
321.6617447663
 21
196.7299805558
 31
0.0
  0
LINE
  5
364
330
360
100
AcDbEntity
  8
レイヤー_1
 62
     0
370
    -2
100
AcDbLine
 10
331.5992447663
 20
184.0299805558
 30
0.0
 11
321.6617447663
 21
184.0299805558
 31
0.0
  0
LINE
  5
365
330
360
100
AcDbEntity
  8
レイヤー_1
 62
     0
370
    -2
100
AcDbLine
 10
321.6617447663
 20
196.7299805558
 30
0.0
 11
321.6617447663
 21
224.7519826190738
 31
0.0
  0
LINE
  5
366
330
360
100
AcDbEntity
  8
レイヤー_1
 62
     0
370
    -2
100
AcDbLine
 10
321.6617447663
 20
196.7299805558
 30
0.0
 11
321.6617447663
 21
184.0299805558
 31
0.0
  0
LINE
  5
367
330
360
100
AcDbEntity
  8
レイヤー_1
 62
     0
370
    -2
100
AcDbLine
 10
321.6617447663
 20
200.0319805558
 30
0.0
 11
321.6617447663
 21
203.3339805558
 31
0.0
  0
LINE
  5
368
330
360
100
AcDbEntity
  8
レイヤー_1
 62
     0
370
    -2
100
AcDbLine
 10
321.6617447663
 20
180.7279805558
 30
0.0
 11
321.6617447663
 21
177.4259805558
 31
0.0
  0
INSERT
  5
369
330
360
100
AcDbEntity
  8
レイヤー_1
 62
     0
370
    -2
100
AcDbBlockReference
  2
_OPEN30
 10
321.6617447663
 20
196.7299805558
 30
0.0
 41
3.302
 42
3.302
 43
3.302
 50
270.0
  0
INSERT
  5
36A
330
360
100
AcDbEntity
  8
レイヤー_1
 62
     0
370
    -2
100
AcDbBlockReference
  2
_OPEN30
 10
321.6617447663
 20
184.0299805558
 30
0.0
 41
3.302
 42
3.302
 43
3.302
 50
90.0
  0
MTEXT
  5
36B
330
360
100
AcDbEntity
  8
レイヤー_1
 62
     0
100
AcDbMText
 10
310.9384985489685
 20
223.8769826190737
 30
0.0
 40
3.3
 41
0.0
 71
     3
 72
     1
  1
\A1;呼び径(B)\P1/4
  7
SLDTEXTSTYLE0
 11
0.0
 21
1.0
 31
0.0
 73
     1
 44
1.0
  0
POINT
  5
42E
330
360
100
AcDbEntity
  8
Defpoints
 62
     0
100
AcDbPoint
 10
331.6617447663
 20
196.7299805558
 30
0.0
  0
POINT
  5
42F
330
360
100
AcDbEntity
  8
Defpoints
 62
     0
100
AcDbPoint
 10
331.6617447663
 20
184.0299805558
 30
0.0
  0
POINT
  5
430
330
360
100
AcDbEntity
  8
Defpoints
 62
     0
100
AcDbPoint
 10
321.6617447663
 20
184.0299805558
 30
0.0
  0
ENDBLK
  5
362
330
360
100
AcDbEntity
  8
0
100
AcDbBlockEnd
  0
BLOCK
  5
36E
330
36D
100
AcDbEntity
  8
0
100
AcDbBlockBegin
  2
_D_14
 70
     0
 10
0.0
 20
0.0
 30
0.0
  3
_D_14
  1

  0
INSERT
  5
370
330
36D
100
AcDbEntity
  8
レイヤー_1
 62
     7
100
AcDbBlockReference
  2
_OPEN30
 10
375.2782870449
 20
196.8799805558
 30
0.0
 41
3.302
 42
3.302
 50
90.0
  0
INSERT
  5
371
330
36D
100
AcDbEntity
  8
レイヤー_1
 62
     7
100
AcDbBlockReference
  2
_OPEN30
 10
375.2782870449
 20
183.8799805558
 30
0.0
 41
3.302
 42
3.302
 50
270.0
  0
LINE
  5
372
330
36D
100
AcDbEntity
  8
レイヤー_1
 62
     7
100
AcDbLine
 10
343.6617447663
 20
196.8799805558
 30
0.0
 11
376.2782870449
 21
196.8799805558
 31
0.0
  0
LINE
  5
373
330
36D
100
AcDbEntity
  8
レイヤー_1
 62
     7
100
AcDbLine
 10
343.6617447663
 20
183.8799805558
 30
0.0
 11
376.2782870449
 21
183.8799805558
 31
0.0
  0
LINE
  5
374
330
36D
100
AcDbEntity
  8
レイヤー_1
 62
     7
100
AcDbLine
 10
375.2782870449
 20
196.8799805558
 30
0.0
 11
375.2782870449
 21
183.8799805558
 31
0.0
  0
MTEXT
  5
375
330
36D
100
AcDbEntity
  8
レイヤー_1
 62
     7
100
AcDbMText
 10
371.205560005
 20
188.3431750583
 30
0.0
 40
3.5
 41
0.0
 71
     1
 72
     1
  1
13
  7
SLDTEXTSTYLE0
 11
-7.044195017643634E-15
 21
1.0
 31
0.0
 73
     1
 44
1.0
  0
ENDBLK
  5
36F
330
36D
100
AcDbEntity
  8
0
100
AcDbBlockEnd
  0
BLOCK
  5
378
330
377
100
AcDbEntity
  8
0
100
AcDbBlockBegin
  2
_D_15
 70
     0
 10
0.0
 20
0.0
 30
0.0
  3
_D_15
  1

  0
INSERT
  5
37A
330
377
100
AcDbEntity
  8
レイヤー_1
 62
     7
100
AcDbBlockReference
  2
_OPEN30
 10
368.1080683899
 20
194.3799805558
 30
0.0
 41
3.302
 42
3.302
 50
270.0
  0
INSERT
  5
37B
330
377
100
AcDbEntity
  8
レイヤー_1
 62
     7
100
AcDbBlockReference
  2
_OPEN30
 10
368.1080683899
 20
186.3799805558
 30
0.0
 41
3.302
 42
3.302
 50
90.0
  0
LINE
  5
37C
330
377
100
AcDbEntity
  8
レイヤー_1
 62
     7
100
AcDbLine
 10
361.6617447663
 20
194.3799805558
 30
0.0
 11
369.1080683899
 21
194.3799805558
 31
0.0
  0
LINE
  5
37D
330
377
100
AcDbEntity
  8
レイヤー_1
 62
     7
100
AcDbLine
 10
361.6617447663
 20
186.3799805558
 30
0.0
 11
369.1080683899
 21
186.3799805558
 31
0.0
  0
LINE
  5
37E
330
377
100
AcDbEntity
  8
レイヤー_1
 62
     7
100
AcDbLine
 10
368.1080683899
 20
194.3799805558
 30
0.0
 11
368.1080683899
 21
205.0611026729
 31
0.0
  0
LINE
  5
37F
330
377
100
AcDbEntity
  8
レイヤー_1
 62
     7
100
AcDbLine
 10
368.1080683899
 20
194.3799805558
 30
0.0
 11
368.1080683899
 21
186.3799805558
 31
0.0
  0
LINE
  5
380
330
377
100
AcDbEntity
  8
レイヤー_1
 62
     7
100
AcDbLine
 10
368.1080683899
 20
186.3799805558
 30
0.0
 11
368.1080683899
 21
180.0299805558
 31
0.0
  0
MTEXT
  5
381
330
377
100
AcDbEntity
  8
レイヤー_1
 62
     7
100
AcDbMText
 10
364.0353408843
 20
199.1543666604
 30
0.0
 40
3.5
 41
0.0
 71
     1
 72
     1
  1
%%c
  7
SLDTEXTSTYLE0
 11
-7.044195017643634E-15
 21
1.0
 31
0.0
 73
     1
 44
1.0
  0
MTEXT
  5
382
330
377
100
AcDbEntity
  8
レイヤー_1
 62
     7
100
AcDbMText
 10
364.0353408843
 20
203.0242971754
 30
0.0
 40
3.5
 41
0.0
 71
     1
 72
     1
  1
8
  7
SLDTEXTSTYLE0
 11
-7.044195017643634E-15
 21
1.0
 31
0.0
 73
     1
 44
1.0
  0
ENDBLK
  5
379
330
377
100
AcDbEntity
  8
0
100
AcDbBlockEnd
  0
BLOCK
  5
385
330
384
100
AcDbEntity
  8
0
100
AcDbBlockBegin
  2
_D_16
 70
     0
 10
0.0
 20
0.0
 30
0.0
  3
_D_16
  1

  0
INSERT
  5
387
330
384
100
AcDbEntity
  8
レイヤー_1
 62
     7
100
AcDbBlockReference
  2
_OPEN30
 10
342.6617447663
 20
201.1522264449
 30
0.0
 41
3.302
 42
3.302
 50
180.0
  0
INSERT
  5
388
330
384
100
AcDbEntity
  8
レイヤー_1
 62
     7
100
AcDbBlockReference
  2
_OPEN30
 10
360.6617447663
 20
201.1522264449
 30
0.0
 41
3.302
 42
3.302
  0
LINE
  5
389
330
384
100
AcDbEntity
  8
レイヤー_1
 62
     7
100
AcDbLine
 10
342.6617447663
 20
197.8799805558
 30
0.0
 11
342.6617447663
 21
202.1522264449
 31
0.0
  0
LINE
  5
38A
330
384
100
AcDbEntity
  8
レイヤー_1
 62
     7
100
AcDbLine
 10
360.6617447663
 20
195.3799805558
 30
0.0
 11
360.6617447663
 21
202.1522264449
 31
0.0
  0
LINE
  5
38B
330
384
100
AcDbEntity
  8
レイヤー_1
 62
     7
100
AcDbLine
 10
342.6617447663
 20
201.1522264449
 30
0.0
 11
360.6617447663
 21
201.1522264449
 31
0.0
  0
MTEXT
  5
38C
330
384
100
AcDbEntity
  8
レイヤー_1
 62
     7
100
AcDbMText
 10
349.6249392688
 20
205.2249534848
 30
0.0
 40
3.5
 41
0.0
 71
     1
 72
     1
  1
18
  7
SLDTEXTSTYLE0
 73
     1
 44
1.0
  0
ENDBLK
  5
386
330
384
100
AcDbEntity
  8
0
100
AcDbBlockEnd
  0
BLOCK
  5
38F
330
38E
100
AcDbEntity
  8
0
100
AcDbBlockBegin
  2
SW_NOTE_3
 70
     0
 10
0.0
 20
0.0
 30
0.0
  3
SW_NOTE_3
  1

  0
CIRCLE
  5
391
330
38E
100
AcDbEntity
  8
レイヤー_1
 62
     0
100
AcDbCircle
 10
0.0
 20
-5.0156820249
 30
0.0
 40
5.015682024938571
  0
MTEXT
  5
392
330
38E
100
AcDbEntity
  8
レイヤー_1
 62
     0
100
AcDbMText
 10
-1.0184027487
 20
-3.2277649179
 30
0.0
 40
3.5
 41
0.0
 71
     1
 72
     1
  1
3
  7
SLDTEXTSTYLE0
 73
     1
 44
1.0
  0
ENDBLK
  5
390
330
38E
100
AcDbEntity
  8
0
100
AcDbBlockEnd
  0
BLOCK
  5
3C6
330
3C5
100
AcDbEntity
  8
0
100
AcDbBlockBegin
  2
_D_17
 70
     0
 10
0.0
 20
0.0
 30
0.0
  3
_D_17
  1

  0
LINE
  5
3C8
330
3C5
100
AcDbEntity
  8
0
  6
SLD-実線
 62
     0
370
    -2
100
AcDbLine
 10
276.3214219988
 20
120.9846070084
 30
0.0
 11
238.4579763430846
 21
110.839127322435
 31
0.0
  0
MTEXT
  5
3C9
330
3C5
100
AcDbEntity
  8
0
 62
     0
370
    18
100
AcDbMText
 10
238.2177323955223
 20
115.1164703330175
 30
0.0
 40
3.3
 41
0.0
 71
     1
 72
     1
  1
\A1;%%c10～%%c15
  7
SLDTEXTSTYLE0
 11
0.9659258262899842
 21
0.2588190450991025
 31
0.0
 73
     1
 44
1.0
  0
LINE
  5
3CA
330
3C5
100
AcDbEntity
  8
0
  6
SLD-実線
 62
     0
370
    -2
100
AcDbLine
 10
261.8325346044
 20
117.1023213319
 30
0.0
 11
276.3214219988
 21
120.9846070084
 31
0.0
  0
INSERT
  5
3CB
330
3C5
100
AcDbEntity
  8
0
 62
     0
370
    -2
100
AcDbBlockReference
  2
_OPEN30
 10
276.3214219988
 20
120.9846070084
 30
0.0
 41
3.302
 42
3.302
 43
3.302
 50
14.99999999979724
  0
POINT
  5
3CC
330
3C5
100
AcDbEntity
  8
Defpoints
 62
     0
100
AcDbPoint
 10
276.3214219988
 20
120.9846070084
 30
0.0
  0
POINT
  5
3CD
330
3C5
100
AcDbEntity
  8
Defpoints
 62
     0
100
AcDbPoint
 10
261.8325346044
 20
117.1023213319
 30
0.0
  0
ENDBLK
  5
3C7
330
3C5
100
AcDbEntity
  8
0
100
AcDbBlockEnd
  0
BLOCK
  5
3D3
330
3D2
100
AcDbEntity
  8
0
100
AcDbBlockBegin
  2
_D_18
 70
     0
 10
0.0
 20
0.0
 30
0.0
  3
_D_18
  1

  0
INSERT
  5
3D5
330
3D2
100
AcDbEntity
  8
0
  6
SLD-実線
 62
     7
370
    18
100
AcDbBlockReference
  2
_OPEN30
 10
280.3269783016
 20
138.3674276876
 30
-0.0001976791
 41
3.302
 42
3.302
  0
INSERT
  5
3D6
330
3D2
100
AcDbEntity
  8
0
  6
SLD-実線
 62
     7
370
    18
100
AcDbBlockReference
  2
_OPEN30
 10
262.3269783016
 20
138.3674276876
 30
-0.0001976791
 41
3.302
 42
3.302
 50
180.0
  0
LINE
  5
3D7
330
3D2
100
AcDbEntity
  8
0
  6
SLD-実線
 62
     7
370
    18
100
AcDbLine
 10
280.3269783016
 20
132.6799553151
 30
0.0
 11
280.3269783016
 21
139.3674276876
 31
0.0
  0
LINE
  5
3D8
330
3D2
100
AcDbEntity
  8
0
  6
SLD-実線
 62
     7
370
    18
100
AcDbLine
 10
262.3269783016
 20
133.8049553151
 30
0.0
 11
262.3269783016
 21
139.3674276876
 31
0.0
  0
LINE
  5
3D9
330
3D2
100
AcDbEntity
  8
0
  6
SLD-実線
 62
     7
370
    18
100
AcDbLine
 10
280.3269783016
 20
138.3674276876
 30
0.0
 11
262.3269783016
 21
138.3674276876
 31
0.0
  0
MTEXT
  5
3DA
330
3D2
100
AcDbEntity
  8
0
  6
SLD-実線
 62
     7
370
    18
100
AcDbMText
 10
269.2901728041
 20
142.4401547275
 30
0.0
 40
3.5
 41
0.0
 71
     1
 72
     1
  1
18
  7
SLDTEXTSTYLE0
 73
     1
 44
1.0
  0
ENDBLK
  5
3D4
330
3D2
100
AcDbEntity
  8
0
100
AcDbBlockEnd
  0
BLOCK
  5
3DC
330
3DB
100
AcDbEntity
  8
0
100
AcDbBlockBegin
  2
SW_NOTE_4
 70
     0
 10
0.0
 20
0.0
 30
0.0
  3
SW_NOTE_4
  1

  0
CIRCLE
  5
3DE
330
3DB
100
AcDbEntity
  8
レイヤー_1
 62
     0
100
AcDbCircle
 10
4.5
 20
2.2151898734
 30
0.0
 40
5.015682024938683
  0
MTEXT
  5
3DF
330
3DB
100
AcDbEntity
  8
レイヤー_1
 62
     0
100
AcDbMText
 10
3.4815972513
 20
4.0031069804
 30
0.0
 40
3.5
 41
0.0
 71
     1
 72
     1
  1
4
  7
SLDTEXTSTYLE0
 73
     1
 44
1.0
  0
ENDBLK
  5
3DD
330
3DB
100
AcDbEntity
  8
0
100
AcDbBlockEnd
  0
ENDSEC
  0
SECTION
  2
ENTITIES
  0
HATCH
  5
77
330
1F
100
AcDbEntity
  8
0
  6
Continuous
 62
     7
100
AcDbHatch
 10
0.0
 20
0.0
 30
0.0
210
0.0
220
0.0
230
1.0
  2
SOLID
 70
     1
 71
     0
 91
        2
 92
        0
 93
        7
 72
     1
 10
352.5633015943662
 20
22.95845117211671
 11
352.5633015943662
 21
17.56193769596804
 72
     1
 10
352.5633015943662
 20
17.56193769596804
 11
354.2954335926312
 21
16.90734765800449
 72
     4
 94
        3
 73
     1
 74
     0
 95
        8
 96
        4
 40
1.0
 40
1.0
 40
1.0
 40
1.0
 40
2.0
 40
2.0
 40
2.0
 40
2.0
 10
354.2954335926312
 20
16.90734765800449
 42
1.0
 10
355.2373433688714
 20
16.90734765800449
 42
1.0
 10
356.2229507362465
 20
16.92586849133319
 42
1.0
 10
356.9787840151373
 20
17.5829722238078
 42
1.0
 72
     4
 94
        3
 73
     1
 74
     0
 95
        8
 96
        4
 40
2.0
 40
2.0
 40
2.0
 40
2.0
 40
3.0
 40
3.0
 40
3.0
 40
3.0
 10
356.9787840151373
 20
17.5829722238078
 42
1.0
 10
357.6450034702659
 20
18.16850065248088
 42
1.0
 10
358.0980886481041
 20
18.96996077597841
 42
1.0
 10
358.0980886481041
 20
20.20487592323912
 42
1.0
 72
     4
 94
        3
 73
     1
 74
     0
 95
        8
 96
        4
 40
3.0
 40
3.0
 40
3.0
 40
3.0
 40
4.0
 40
4.0
 40
4.0
 40
4.0
 10
358.0980886481041
 20
20.20487592323912
 42
1.0
 10
358.0980886481041
 20
21.04834554108382
 42
1.0
 10
357.8138613803799
 20
21.87498242238757
 42
1.0
 10
357.147497231241
 20
22.42583251990612
 42
1.0
 72
     4
 94
        3
 73
     1
 74
     0
 95
        8
 96
        4
 40
4.0
 40
4.0
 40
4.0
 40
4.0
 40
5.0
 40
5.0
 40
5.0
 40
5.0
 10
357.147497231241
 20
22.42583251990612
 42
1.0
 10
356.4006832123306
 20
23.04690744379599
 42
1.0
 10
355.5040626613393
 20
22.95845117211671
 42
1.0
 10
354.5795161663448
 20
22.95845117211671
 42
1.0
 72
     1
 10
354.5795161663448
 20
22.95845117211671
 11
352.5633015943662
 21
22.95845117211671
 97
        0
 92
        0
 93
        5
 72
     4
 94
        3
 73
     1
 74
     0
 95
        8
 96
        4
 40
2.0
 40
2.0
 40
2.0
 40
2.0
 40
3.0
 40
3.0
 40
3.0
 40
3.0
 10
357.2272236309607
 20
20.07146804566832
 42
1.0
 10
357.2272236309607
 20
18.98698643786653
 42
1.0
 10
356.9073051740093
 20
18.00065560043949
 42
1.0
 10
355.9485144298916
 20
17.52171842608005
 42
1.0
 72
     4
 94
        3
 73
     1
 74
     0
 95
        8
 96
        4
 40
3.0
 40
3.0
 40
3.0
 40
3.0
 40
4.0
 40
4.0
 40
4.0
 40
4.0
 10
355.9485144298916
 20
17.52171842608005
 42
1.0
 10
355.2285170342382
 20
17.15747537061555
 42
1.0
 10
354.1267203765275
 20
17.26310199819333
 42
1.0
 10
353.3445527877473
 20
17.30737836536974
 42
1.0
 72
     1
 10
353.3445527877473
 20
17.30737836536974
 11
353.3445527877473
 21
22.60269683192786
 72
     4
 94
        3
 73
     1
 74
     0
 95
        8
 96
        4
 40
0.0
 40
0.0
 40
0.0
 40
0.0
 40
1.0
 40
1.0
 40
1.0
 40
1.0
 10
353.3445527877473
 20
22.60269683192786
 42
1.0
 10
353.7269308258461
 20
22.61234309928658
 42
1.0
 10
354.0997108279232
 20
22.63819509580789
 42
1.0
 10
354.4644844280922
 20
22.6381950958079
 42
1.0
 72
     4
 94
        3
 73
     1
 74
     0
 95
        8
 96
        4
 40
1.0
 40
1.0
 40
1.0
 40
1.0
 40
2.0
 40
2.0
 40
2.0
 40
2.0
 10
354.4644844280922
 20
22.6381950958079
 42
1.0
 10
356.454509384192
 20
22.63819509580788
 42
1.0
 10
357.2272236309607
 20
21.95451589676006
 42
1.0
 10
357.2272236309607
 20
20.07146804566833
 42
1.0
 97
        0
 75
     0
 76
     1
 98
        1
 10
0.0
 20
0.0
  0
HATCH
  5
78
330
1F
100
AcDbEntity
  8
0
  6
Continuous
 62
     7
100
AcDbHatch
 10
0.0
 20
0.0
 30
0.0
210
0.0
220
0.0
230
1.0
  2
SOLID
 70
     1
 71
     0
 91
        1
 92
        0
 93
        6
 72
     4
 94
        3
 73
     1
 74
     0
 95
        8
 96
        4
 40
4.0
 40
4.0
 40
4.0
 40
4.0
 40
5.0
 40
5.0
 40
5.0
 40
5.0
 10
359.8220695504509
 20
21.10058007883118
 42
1.0
 10
359.9371012887034
 20
21.10058007883118
 42
1.0
 10
360.044416013069
 20
21.11992084488537
 42
1.0
 10
360.1771486519246
 20
21.12821663481386
 42
1.0
 72
     1
 10
360.1771486519246
 20
21.12821663481386
 11
360.1771486519246
 21
16.88130273613601
 72
     4
 94
        3
 73
     1
 74
     0
 95
        8
 96
        4
 40
0.0
 40
0.0
 40
0.0
 40
0.0
 40
1.0
 40
1.0
 40
1.0
 40
1.0
 10
360.1771486519246
 20
16.88130273613601
 42
1.0
 10
360.044416013069
 20
16.89037022745316
 42
1.0
 10
359.9371012887034
 20
16.90734765800448
 42
1.0
 10
359.8220695504509
 20
16.90734765800448
 42
1.0
 72
     4
 94
        3
 73
     1
 74
     0
 95
        8
 96
        4
 40
1.0
 40
1.0
 40
1.0
 40
1.0
 40
2.0
 40
2.0
 40
2.0
 40
2.0
 10
359.8220695504509
 20
16.90734765800448
 42
1.0
 10
359.6978256268708
 20
16.90734765800448
 42
1.0
 10
359.5816845678722
 20
16.89037022745316
 42
1.0
 10
359.4666045982827
 20
16.88130273613601
 42
1.0
 72
     1
 10
359.4666045982827
 20
16.88130273613601
 11
359.4666045982827
 21
21.12821663481386
 72
     4
 94
        3
 73
     1
 74
     0
 95
        8
 96
        4
 40
3.0
 40
3.0
 40
3.0
 40
3.0
 40
4.0
 40
4.0
 40
4.0
 40
4.0
 10
359.4666045982827
 20
21.12821663481386
 42
1.0
 10
359.5816845678722
 20
21.11992084488537
 42
1.0
 10
359.6978256268708
 20
21.10058007883118
 42
1.0
 10
359.8220695504509
 20
21.10058007883118
 42
1.0
 97
        0
 75
     0
 76
     1
 98
        1
 10
0.0
 20
0.0
  0
HATCH
  5
79
330
1F
100
AcDbEntity
  8
0
  6
Continuous
 62
     7
100
AcDbHatch
 10
0.0
 20
0.0
 30
0.0
210
0.0
220
0.0
230
1.0
  2
SOLID
 70
     1
 71
     0
 91
        1
 92
        0
 93
        2
 72
     4
 94
        3
 73
     1
 74
     0
 95
       11
 96
        7
 40
0.0
 40
0.0
 40
0.0
 40
0.0
 40
1.0
 40
1.0
 40
1.0
 40
2.0
 40
2.0
 40
2.0
 40
2.0
 10
359.8220695504509
 20
22.19465972265487
 42
1.0
 10
359.5730029272493
 20
22.19465972265487
 42
1.0
 10
359.3681162085505
 20
22.39805126991308
 42
1.0
 10
359.3681162085505
 20
22.64750374380904
 42
1.0
 10
359.3681162085505
 20
22.89681152369462
 42
1.0
 10
359.5730029272493
 20
23.10145708570941
 42
1.0
 10
359.8220695504509
 20
23.10145708570941
 42
1.0
 72
     4
 94
        3
 73
     1
 74
     0
 95
       11
 96
        7
 40
2.0
 40
2.0
 40
2.0
 40
2.0
 40
3.0
 40
3.0
 40
3.0
 40
4.0
 40
4.0
 40
4.0
 40
4.0
 10
359.8220695504509
 20
23.10145708570941
 42
1.0
 10
360.0612969809465
 20
23.10145708570941
 42
1.0
 10
360.2746724149211
 20
22.89681152369462
 42
1.0
 10
360.2746724149211
 20
22.64750374380904
 42
1.0
 10
360.2746724149211
 20
22.39805126991308
 42
1.0
 10
360.0612969809465
 20
22.19465972265487
 42
1.0
 10
359.8220695504509
 20
22.19465972265487
 42
1.0
 97
        0
 75
     0
 76
     1
 98
        1
 10
0.0
 20
0.0
  0
HATCH
  5
7A
330
1F
100
AcDbEntity
  8
0
  6
Continuous
 62
     7
100
AcDbHatch
 10
0.0
 20
0.0
 30
0.0
210
0.0
220
0.0
230
1.0
  2
SOLID
 70
     1
 71
     0
 91
        1
 92
        0
 93
       14
 72
     4
 94
        3
 73
     1
 74
     0
 95
        8
 96
        4
 40
12.0
 40
12.0
 40
12.0
 40
12.0
 40
13.0
 40
13.0
 40
13.0
 40
13.0
 10
367.3558525889321
 20
22.57713422342731
 42
1.0
 10
367.2756921071812
 20
22.35420898476778
 42
1.0
 10
367.2136666080648
 20
22.12322911286372
 42
1.0
 10
367.1514481836012
 20
21.89302094234835
 42
1.0
 72
     1
 10
367.1514481836012
 20
21.89302094234835
 11
367.053635032584
 21
21.89302094234835
 72
     4
 94
        3
 73
     1
 74
     0
 95
        8
 96
        4
 40
0.0
 40
0.0
 40
0.0
 40
0.0
 40
1.0
 40
1.0
 40
1.0
 40
1.0
 10
367.053635032584
 20
21.89302094234835
 42
1.0
 10
366.5559840995485
 20
22.46123432111253
 42
1.0
 10
365.8092665433118
 20
22.75414322945944
 42
1.0
 10
365.054542585167
 20
22.75414322945944
 42
1.0
 72
     4
 94
        3
 73
     1
 74
     0
 95
        8
 96
        4
 40
1.0
 40
1.0
 40
1.0
 40
1.0
 40
2.0
 40
2.0
 40
2.0
 40
2.0
 10
365.054542585167
 20
22.75414322945944
 42
1.0
 10
363.5437441914476
 20
22.75414322945944
 42
1.0
 10
362.4959666309456
 20
21.75937190809358
 42
1.0
 10
362.4959666309456
 20
19.9654555673962
 42
1.0
 72
     4
 94
        3
 73
     1
 74
     0
 95
        8
 96
        4
 40
2.0
 40
2.0
 40
2.0
 40
2.0
 40
3.0
 40
3.0
 40
3.0
 40
3.0
 10
362.4959666309456
 20
19.9654555673962
 42
1.0
 10
362.4959666309456
 20
18.20477061774959
 42
1.0
 10
363.401654673254
 20
17.11223437670327
 42
1.0
 10
365.15196988549
 20
17.11223437670327
 42
1.0
 72
     4
 94
        3
 73
     1
 74
     0
 95
        8
 96
        4
 40
3.0
 40
3.0
 40
3.0
 40
3.0
 40
4.0
 40
4.0
 40
4.0
 40
4.0
 10
365.15196988549
 20
17.11223437670327
 42
1.0
 10
365.6323539999531
 20
17.11223437670327
 42
1.0
 10
366.1301978583356
 20
17.20184820046559
 42
1.0
 10
366.5384278929558
 20
17.41435547037771
 42
1.0
 72
     1
 10
366.5384278929558
 20
17.41435547037771
 11
366.5384278929558
 21
19.69815749888666
 72
     4
 94
        3
 73
     1
 74
     0
 95
        8
 96
        4
 40
5.0
 40
5.0
 40
5.0
 40
5.0
 40
6.0
 40
6.0
 40
6.0
 40
6.0
 10
366.5384278929558
 20
19.69815749888666
 42
1.0
 10
366.6629612045565
 20
19.68865592553832
 42
1.0
 10
366.7963690821275
 20
19.67081033092475
 42
1.0
 10
366.9296804970246
 20
19.67081033092475
 42
1.0
 72
     4
 94
        3
 73
     1
 74
     0
 95
        8
 96
        4
 40
6.0
 40
6.0
 40
6.0
 40
6.0
 40
7.0
 40
7.0
 40
7.0
 40
7.0
 10
366.9296804970246
 20
19.67081033092475
 42
1.0
 10
367.0532491818895
 20
19.67081033092475
 42
1.0
 10
367.1784577322055
 20
19.68865592553832
 42
1.0
 10
367.3206437130728
 20
19.69815749888666
 42
1.0
 72
     1
 10
367.3206437130728
 20
19.69815749888666
 11
367.3206437130728
 21
17.18361675515765
 72
     4
 94
        3
 73
     1
 74
     0
 95
        8
 96
        4
 40
8.0
 40
8.0
 40
8.0
 40
8.0
 40
9.0
 40
9.0
 40
9.0
 40
9.0
 10
367.3206437130728
 20
17.18361675515765
 42
1.0
 10
366.5473024589257
 20
16.91718685071036
 42
1.0
 10
365.7300706882967
 20
16.7746150191488
 42
1.0
 10
364.9031926503091
 20
16.7746150191488
 42
1.0
 72
     4
 94
        3
 73
     1
 74
     0
 95
        8
 96
        4
 40
9.0
 40
9.0
 40
9.0
 40
9.0
 40
10.0
 40
10.0
 40
10.0
 40
10.0
 10
364.9031926503091
 20
16.7746150191488
 42
1.0
 10
362.6556123557321
 20
16.7746150191488
 42
1.0
 10
361.6255356958334
 20
18.11660373409106
 42
1.0
 10
361.6255356958334
 20
19.9202145734839
 42
1.0
 72
     4
 94
        3
 73
     1
 74
     0
 95
        8
 96
        4
 40
10.0
 40
10.0
 40
10.0
 40
10.0
 40
11.0
 40
11.0
 40
11.0
 40
11.0
 10
361.6255356958334
 20
19.9202145734839
 42
1.0
 10
361.6255356958334
 20
21.99830995056854
 42
1.0
 10
363.1180544129081
 20
23.0913767363196
 42
1.0
 10
365.0897514610264
 20
23.0913767363196
 42
1.0
 72
     4
 94
        3
 73
     1
 74
     0
 95
        8
 96
        4
 40
11.0
 40
11.0
 40
11.0
 40
11.0
 40
12.0
 40
12.0
 40
12.0
 40
12.0
 10
365.0897514610264
 20
23.0913767363196
 42
1.0
 10
366.4145698200701
 20
23.0913767363196
 42
1.0
 10
367.1598404362031
 20
22.70152284101775
 42
1.0
 10
367.3558525889321
 20
22.57713422342731
 42
1.0
 97
        0
 75
     0
 76
     1
 98
        1
 10
0.0
 20
0.0
  0
HATCH
  5
7B
330
1F
100
AcDbEntity
  8
0
  6
Continuous
 62
     7
100
AcDbHatch
 10
0.0
 20
0.0
 30
0.0
210
0.0
220
0.0
230
1.0
  2
SOLID
 70
     1
 71
     0
 91
        1
 92
        0
 93
        6
 72
     4
 94
        3
 73
     1
 74
     0
 95
        8
 96
        4
 40
4.0
 40
4.0
 40
4.0
 40
4.0
 40
5.0
 40
5.0
 40
5.0
 40
5.0
 10
369.2039809521852
 20
21.10058007883118
 42
1.0
 10
369.3193503097952
 20
21.10058007883118
 42
1.0
 10
369.4260380267825
 20
21.11992084488537
 42
1.0
 10
369.5594459043533
 20
21.12821663481386
 42
1.0
 72
     1
 10
369.5594459043533
 20
21.12821663481386
 11
369.5594459043533
 21
16.88130273613601
 72
     4
 94
        3
 73
     1
 74
     0
 95
        8
 96
        4
 40
0.0
 40
0.0
 40
0.0
 40
0.0
 40
1.0
 40
1.0
 40
1.0
 40
1.0
 10
369.5594459043533
 20
16.88130273613601
 42
1.0
 10
369.4260380267825
 20
16.89037022745316
 42
1.0
 10
369.3193503097952
 20
16.90734765800448
 42
1.0
 10
369.2039809521852
 20
16.90734765800448
 42
1.0
 72
     4
 94
        3
 73
     1
 74
     0
 95
        8
 96
        4
 40
1.0
 40
1.0
 40
1.0
 40
1.0
 40
2.0
 40
2.0
 40
2.0
 40
2.0
 10
369.2039809521852
 20
16.90734765800448
 42
1.0
 10
369.0786759391958
 20
16.90734765800448
 42
1.0
 10
368.9633065815856
 20
16.89037022745316
 42
1.0
 10
368.8486124626907
 20
16.88130273613601
 42
1.0
 72
     1
 10
368.8486124626907
 20
16.88130273613601
 11
368.8486124626907
 21
21.12821663481386
 72
     4
 94
        3
 73
     1
 74
     0
 95
        8
 96
        4
 40
3.0
 40
3.0
 40
3.0
 40
3.0
 40
4.0
 40
4.0
 40
4.0
 40
4.0
 10
368.8486124626907
 20
21.12821663481386
 42
1.0
 10
368.9633065815856
 20
21.11992084488537
 42
1.0
 10
369.0786759391958
 20
21.10058007883118
 42
1.0
 10
369.2039809521852
 20
21.10058007883118
 42
1.0
 97
        0
 75
     0
 76
     1
 98
        1
 10
0.0
 20
0.0
  0
HATCH
  5
7C
330
1F
100
AcDbEntity
  8
0
  6
Continuous
 62
     7
100
AcDbHatch
 10
0.0
 20
0.0
 30
0.0
210
0.0
220
0.0
230
1.0
  2
SOLID
 70
     1
 71
     0
 91
        1
 92
        0
 93
        2
 72
     4
 94
        3
 73
     1
 74
     0
 95
       11
 96
        7
 40
0.0
 40
0.0
 40
0.0
 40
0.0
 40
1.0
 40
1.0
 40
1.0
 40
2.0
 40
2.0
 40
2.0
 40
2.0
 10
369.2039809521852
 20
22.19465972265487
 42
1.0
 10
368.955300179678
 20
22.19465972265487
 42
1.0
 10
368.7501240729583
 20
22.39805126991308
 42
1.0
 10
368.7501240729583
 20
22.64750374380904
 42
1.0
 10
368.7501240729583
 20
22.89681152369462
 42
1.0
 10
368.955300179678
 20
23.10145708570941
 42
1.0
 10
369.2039809521852
 20
23.10145708570941
 42
1.0
 72
     4
 94
        3
 73
     1
 74
     0
 95
       11
 96
        7
 40
2.0
 40
2.0
 40
2.0
 40
2.0
 40
3.0
 40
3.0
 40
3.0
 40
4.0
 40
4.0
 40
4.0
 40
4.0
 10
369.2039809521852
 20
23.10145708570941
 42
1.0
 10
369.4432083826809
 20
23.10145708570941
 42
1.0
 10
369.6569696673498
 20
22.89681152369462
 42
1.0
 10
369.6569696673498
 20
22.64750374380904
 42
1.0
 10
369.6569696673498
 20
22.39805126991308
 42
1.0
 10
369.4432083826809
 20
22.19465972265487
 42
1.0
 10
369.2039809521852
 20
22.19465972265487
 42
1.0
 97
        0
 75
     0
 76
     1
 98
        1
 10
0.0
 20
0.0
  0
HATCH
  5
7D
330
1F
100
AcDbEntity
  8
0
  6
Continuous
 62
     7
100
AcDbHatch
 10
0.0
 20
0.0
 30
0.0
210
0.0
220
0.0
230
1.0
  2
SOLID
 70
     1
 71
     0
 91
        1
 92
        0
 93
       11
 72
     4
 94
        3
 73
     1
 74
     0
 95
        8
 96
        4
 40
9.0
 40
9.0
 40
9.0
 40
9.0
 40
10.0
 40
10.0
 40
10.0
 40
10.0
 10
375.201258294436
 20
22.42583251990612
 42
1.0
 10
374.7564689065262
 20
22.47879052770539
 42
1.0
 10
374.1354422139731
 20
22.53280962491409
 42
1.0
 10
373.3447376785806
 20
22.53280962491409
 42
1.0
 72
     1
 10
373.3447376785806
 20
22.53280962491409
 11
373.3447376785806
 21
16.8641323802375
 72
     4
 94
        3
 73
     1
 74
     0
 95
        8
 96
        4
 40
0.0
 40
0.0
 40
0.0
 40
0.0
 40
1.0
 40
1.0
 40
1.0
 40
1.0
 10
373.3447376785806
 20
16.8641323802375
 42
1.0
 10
373.2025516977134
 20
16.87358572224905
 42
1.0
 10
373.0777289980919
 20
16.89037022745316
 42
1.0
 10
372.9534850745118
 20
16.89037022745316
 42
1.0
 72
     4
 94
        3
 73
     1
 74
     0
 95
        8
 96
        4
 40
1.0
 40
1.0
 40
1.0
 40
1.0
 40
2.0
 40
2.0
 40
2.0
 40
2.0
 10
372.9534850745118
 20
16.89037022745316
 42
1.0
 10
372.8204630476353
 20
16.89037022745316
 42
1.0
 10
372.6862834686758
 20
16.87358572224905
 42
1.0
 10
372.5620395450958
 20
16.8641323802375
 42
1.0
 72
     1
 10
372.5620395450958
 20
16.8641323802375
 11
372.5620395450958
 21
22.53280962491409
 72
     4
 94
        3
 73
     1
 74
     0
 95
        8
 96
        4
 40
3.0
 40
3.0
 40
3.0
 40
3.0
 40
4.0
 40
4.0
 40
4.0
 40
4.0
 10
372.5620395450958
 20
22.53280962491409
 42
1.0
 10
371.6651296060838
 20
22.53280962491409
 42
1.0
 10
371.1236846192401
 20
22.47879052770539
 42
1.0
 10
370.6165803441933
 20
22.42583251990612
 42
1.0
 72
     4
 94
        3
 73
     1
 74
     0
 95
        8
 96
        4
 40
4.0
 40
4.0
 40
4.0
 40
4.0
 40
5.0
 40
5.0
 40
5.0
 40
5.0
 10
370.6165803441933
 20
22.42583251990612
 42
1.0
 10
370.6248761341216
 20
22.51486756762691
 42
1.0
 10
370.6432040421031
 20
22.60269683192786
 42
1.0
 10
370.6432040421031
 20
22.69216596167979
 42
1.0
 72
     4
 94
        3
 73
     1
 74
     0
 95
        8
 96
        4
 40
5.0
 40
5.0
 40
5.0
 40
5.0
 40
6.0
 40
6.0
 40
6.0
 40
6.0
 10
370.6432040421031
 20
22.69216596167979
 42
1.0
 10
370.6432040421031
 20
22.78086339004306
 42
1.0
 10
370.6248761341216
 20
22.86073448377311
 42
1.0
 10
370.6165803441933
 20
22.95845117211671
 42
1.0
 72
     1
 10
370.6165803441933
 20
22.95845117211671
 11
375.201258294436
 21
22.95845117211671
 72
     4
 94
        3
 73
     1
 74
     0
 95
        8
 96
        4
 40
7.0
 40
7.0
 40
7.0
 40
7.0
 40
8.0
 40
8.0
 40
8.0
 40
8.0
 10
375.201258294436
 20
22.95845117211671
 42
1.0
 10
375.1914191017301
 20
22.86073448377311
 42
1.0
 10
375.1745381338523
 20
22.78086339004306
 42
1.0
 10
375.1745381338523
 20
22.69216596167979
 42
1.0
 72
     4
 94
        3
 73
     1
 74
     0
 95
        8
 96
        4
 40
8.0
 40
8.0
 40
8.0
 40
8.0
 40
9.0
 40
9.0
 40
9.0
 40
9.0
 10
375.1745381338523
 20
22.69216596167979
 42
1.0
 10
375.1745381338523
 20
22.60269683192786
 42
1.0
 10
375.1914191017301
 20
22.51486756762691
 42
1.0
 10
375.201258294436
 20
22.42583251990612
 42
1.0
 97
        0
 75
     0
 76
     1
 98
        1
 10
0.0
 20
0.0
  0
HATCH
  5
7E
330
1F
100
AcDbEntity
  8
0
  6
Continuous
 62
     7
100
AcDbHatch
 10
0.0
 20
0.0
 30
0.0
210
0.0
220
0.0
230
1.0
  2
SOLID
 70
     1
 71
     0
 91
        1
 92
        0
 93
       20
 72
     4
 94
        3
 73
     1
 74
     0
 95
        8
 96
        4
 40
16.0
 40
16.0
 40
16.0
 40
16.0
 40
17.0
 40
17.0
 40
17.0
 40
17.0
 10
379.3230118741347
 20
22.42583251990612
 42
1.0
 10
379.0569678203817
 20
22.47879052770539
 42
1.0
 10
378.7895732891986
 20
22.50555891962577
 42
1.0
 10
378.5238186234664
 20
22.52292220087144
 42
1.0
 72
     1
 10
378.5238186234664
 20
22.52292220087144
 11
377.636362026466
 21
22.54057487013784
 72
     1
 10
377.636362026466
 20
22.54057487013784
 11
376.950608879936
 21
22.54057487013784
 72
     1
 10
376.950608879936
 20
22.54057487013784
 11
376.950608879936
 21
20.31127425220559
 72
     1
 10
376.950608879936
 20
20.31127425220559
 11
378.3282887841056
 21
20.31127425220559
 72
     4
 94
        3
 73
     1
 74
     0
 95
        8
 96
        4
 40
1.0
 40
1.0
 40
1.0
 40
1.0
 40
2.0
 40
2.0
 40
2.0
 40
2.0
 10
378.3282887841056
 20
20.31127425220559
 42
1.0
 10
378.5941399125113
 20
20.31127425220559
 42
1.0
 10
378.85227402703
 20
20.34648312806483
 42
1.0
 10
379.1186074688038
 20
20.35550238804521
 42
1.0
 72
     4
 94
        3
 73
     1
 74
     0
 95
        8
 96
        4
 40
2.0
 40
2.0
 40
2.0
 40
2.0
 40
3.0
 40
3.0
 40
3.0
 40
3.0
 10
379.1186074688038
 20
20.35550238804521
 42
1.0
 10
379.1107939922432
 20
20.28436116627481
 42
1.0
 10
379.0924660842617
 20
20.20487592323912
 42
1.0
 10
379.0924660842617
 20
20.12514952351947
 42
1.0
 72
     4
 94
        3
 73
     1
 74
     0
 95
        8
 96
        4
 40
3.0
 40
3.0
 40
3.0
 40
3.0
 40
4.0
 40
4.0
 40
4.0
 40
4.0
 10
379.0924660842617
 20
20.12514952351947
 42
1.0
 10
379.0924660842617
 20
20.0529954436764
 42
1.0
 10
379.1107939922432
 20
19.97259380524166
 42
1.0
 10
379.1186074688038
 20
19.87569704962349
 42
1.0
 72
     4
 94
        3
 73
     1
 74
     0
 95
        8
 96
        4
 40
4.0
 40
4.0
 40
4.0
 40
4.0
 40
5.0
 40
5.0
 40
5.0
 40
5.0
 10
379.1186074688038
 20
19.87569704962349
 42
1.0
 10
378.85227402703
 20
19.88587386168694
 42
1.0
 10
378.5941399125113
 20
19.9202145734839
 42
1.0
 10
378.3282887841056
 20
19.9202145734839
 42
1.0
 72
     1
 10
378.3282887841056
 20
19.9202145734839
 11
376.950608879936
 21
19.9202145734839
 72
     1
 10
376.950608879936
 20
19.9202145734839
 11
376.950608879936
 21
17.32541688533052
 72
     4
 94
        3
 73
     1
 74
     0
 95
        8
 96
        4
 40
7.0
 40
7.0
 40
7.0
 40
7.0
 40
8.0
 40
8.0
 40
8.0
 40
8.0
 10
376.950608879936
 20
17.32541688533052
 42
1.0
 10
377.4928255681685
 20
17.30737836536974
 42
1.0
 10
378.0254924517159
 20
17.34374479331203
 42
1.0
 10
378.5597992007144
 20
17.36120453723132
 42
1.0
 72
     4
 94
        3
 73
     1
 74
     0
 95
        8
 96
        4
 40
8.0
 40
8.0
 40
8.0
 40
8.0
 40
9.0
 40
9.0
 40
9.0
 40
9.0
 10
378.5597992007144
 20
17.36120453723132
 42
1.0
 10
378.83452489509
 20
17.37036849122208
 42
1.0
 10
379.1016300382524
 20
17.39718511447925
 42
1.0
 10
379.3765486579755
 20
17.44117209363492
 42
1.0
 72
     4
 94
        3
 73
     1
 74
     0
 95
        8
 96
        4
 40
9.0
 40
9.0
 40
9.0
 40
9.0
 40
10.0
 40
10.0
 40
10.0
 40
10.0
 10
379.3765486579755
 20
17.44117209363492
 42
1.0
 10
379.3679634800263
 20
17.34374479331203
 42
1.0
 10
379.350503736107
 20
17.26310199819333
 42
1.0
 10
379.350503736107
 20
17.17397048779896
 42
1.0
 72
     4
 94
        3
 73
     1
 74
     0
 95
        8
 96
        4
 40
10.0
 40
10.0
 40
10.0
 40
10.0
 40
11.0
 40
11.0
 40
11.0
 40
11.0
 10
379.350503736107
 20
17.17397048779896
 42
1.0
 10
379.350503736107
 20
17.08599652948759
 42
1.0
 10
379.3679634800263
 20
16.99667209374605
 42
1.0
 10
379.3765486579755
 20
16.90734765800448
 42
1.0
 72
     1
 10
379.3765486579755
 20
16.90734765800448
 11
376.1693576865551
 21
16.90734765800448
 72
     1
 10
376.1693576865551
 20
16.90734765800448
 11
376.1693576865551
 21
22.95845117211671
 72
     1
 10
376.1693576865551
 20
22.95845117211671
 11
379.3230118741347
 21
22.95845117211671
 72
     4
 94
        3
 73
     1
 74
     0
 95
        8
 96
        4
 40
14.0
 40
14.0
 40
14.0
 40
14.0
 40
15.0
 40
15.0
 40
15.0
 40
15.0
 10
379.3230118741347
 20
22.95845117211671
 42
1.0
 10
379.3152948602477
 20
22.86073448377311
 42
1.0
 10
379.2966775642455
 20
22.78086339004306
 42
1.0
 10
379.2966775642455
 20
22.69216596167979
 42
1.0
 72
     4
 94
        3
 73
     1
 74
     0
 95
        8
 96
        4
 40
15.0
 40
15.0
 40
15.0
 40
15.0
 40
16.0
 40
16.0
 40
16.0
 40
16.0
 10
379.2966775642455
 20
22.69216596167979
 42
1.0
 10
379.2966775642455
 20
22.60269683192786
 42
1.0
 10
379.3152948602477
 20
22.51486756762691
 42
1.0
 10
379.3230118741347
 20
22.42583251990612
 42
1.0
 97
        0
 75
     0
 76
     1
 98
        1
 10
0.0
 20
0.0
  0
HATCH
  5
7F
330
1F
100
AcDbEntity
  8
0
  6
Continuous
 62
     7
100
AcDbHatch
 10
0.0
 20
0.0
 30
0.0
210
0.0
220
0.0
230
1.0
  2
SOLID
 70
     1
 71
     0
 91
        1
 92
        0
 93
       11
 72
     4
 94
        3
 73
     1
 74
     0
 95
        8
 96
        4
 40
9.0
 40
9.0
 40
9.0
 40
9.0
 40
10.0
 40
10.0
 40
10.0
 40
10.0
 10
383.4099424286684
 20
17.12130186802043
 42
1.0
 10
384.3698424935328
 20
17.12130186802043
 42
1.0
 10
385.1158848110546
 20
17.69023871683654
 42
1.0
 10
385.2942442945169
 20
17.84110633832662
 42
1.0
 72
     1
 10
385.2942442945169
 20
17.84110633832662
 11
385.249582076646
 21
17.2810440554805
 72
     4
 94
        3
 73
     1
 74
     0
 95
        8
 96
        4
 40
0.0
 40
0.0
 40
0.0
 40
0.0
 40
1.0
 40
1.0
 40
1.0
 40
1.0
 10
385.249582076646
 20
17.2810440554805
 42
1.0
 10
384.6903879578623
 20
16.90734765800448
 42
1.0
 10
383.9617089215861
 20
16.7746150191488
 42
1.0
 10
383.2860843557829
 20
16.7746150191488
 42
1.0
 72
     4
 94
        3
 73
     1
 74
     0
 95
        8
 96
        4
 40
1.0
 40
1.0
 40
1.0
 40
1.0
 40
2.0
 40
2.0
 40
2.0
 40
2.0
 10
383.2860843557829
 20
16.7746150191488
 42
1.0
 10
381.332039976931
 20
16.7746150191488
 42
1.0
 10
380.158378627398
 20
18.00924077838873
 42
1.0
 10
380.158378627398
 20
19.95585753137431
 42
1.0
 72
     4
 94
        3
 73
     1
 74
     0
 95
        8
 96
        4
 40
2.0
 40
2.0
 40
2.0
 40
2.0
 40
3.0
 40
3.0
 40
3.0
 40
3.0
 10
380.158378627398
 20
19.95585753137431
 42
1.0
 10
380.158378627398
 20
21.95451589676006
 42
1.0
 10
381.6330999811959
 20
23.0913767363196
 42
1.0
 10
383.5084308184008
 20
23.0913767363196
 42
1.0
 72
     4
 94
        3
 73
     1
 74
     0
 95
        8
 96
        4
 40
3.0
 40
3.0
 40
3.0
 40
3.0
 40
4.0
 40
4.0
 40
4.0
 40
4.0
 10
383.5084308184008
 20
23.0913767363196
 42
1.0
 10
384.1566599849054
 20
23.0913767363196
 42
1.0
 10
384.8234099847388
 20
22.94147374156541
 42
1.0
 10
385.4184882180969
 20
22.68358078373056
 42
1.0
 72
     4
 94
        3
 73
     1
 74
     0
 95
        8
 96
        4
 40
4.0
 40
4.0
 40
4.0
 40
4.0
 40
5.0
 40
5.0
 40
5.0
 40
5.0
 10
385.4184882180969
 20
22.68358078373056
 42
1.0
 10
385.3290673196817
 20
22.46123432111253
 42
1.0
 10
385.276688087924
 20
22.23015798653489
 42
1.0
 10
385.2320258700533
 20
21.99830995056854
 42
1.0
 72
     1
 10
385.2320258700533
 20
21.99830995056854
 11
385.1694215948954
 21
21.98986946662968
 72
     4
 94
        3
 73
     1
 74
     0
 95
        8
 96
        4
 40
6.0
 40
6.0
 40
6.0
 40
6.0
 40
7.0
 40
7.0
 40
7.0
 40
7.0
 10
385.1694215948954
 20
21.98986946662968
 42
1.0
 10
385.0451776713151
 20
22.15043158681523
 42
1.0
 10
384.3874951627991
 20
22.75414322945944
 42
1.0
 10
383.4729325545208
 20
22.75414322945944
 42
1.0
 72
     4
 94
        3
 73
     1
 74
     0
 95
        8
 96
        4
 40
7.0
 40
7.0
 40
7.0
 40
7.0
 40
8.0
 40
8.0
 40
8.0
 40
8.0
 10
383.4729325545208
 20
22.75414322945944
 42
1.0
 10
381.8379866998947
 20
22.75414322945944
 42
1.0
 10
381.0292436445413
 20
21.42995187779396
 42
1.0
 10
381.0292436445413
 20
19.9202145734839
 42
1.0
 72
     4
 94
        3
 73
     1
 74
     0
 95
        8
 96
        4
 40
8.0
 40
8.0
 40
8.0
 40
8.0
 40
9.0
 40
9.0
 40
9.0
 40
9.0
 10
381.0292436445413
 20
19.9202145734839
 42
1.0
 10
381.0292436445413
 20
18.21345225837241
 42
1.0
 10
382.0062176026305
 20
17.12130186802043
 42
1.0
 10
383.4099424286684
 20
17.12130186802043
 42
1.0
 97
        0
 75
     0
 76
     1
 98
        1
 10
0.0
 20
0.0
  0
HATCH
  5
80
330
1F
100
AcDbEntity
  8
0
  6
Continuous
 62
     7
100
AcDbHatch
 10
0.0
 20
0.0
 30
0.0
210
0.0
220
0.0
230
1.0
  2
SOLID
 70
     1
 71
     0
 91
        1
 92
        0
 93
        8
 72
     1
 10
353.7333938249764
 20
14.67033002618525
 11
353.7333938249764
 21
14.39618310785101
 72
     1
 10
353.7333938249764
 20
14.39618310785101
 11
353.1555824101903
 21
14.39618310785101
 72
     1
 10
353.1555824101903
 20
14.39618310785101
 11
353.1555824101903
 21
12.8543237332365
 72
     1
 10
353.1555824101903
 20
12.8543237332365
 11
352.8374485127005
 21
12.8543237332365
 72
     1
 10
352.8374485127005
 20
12.8543237332365
 11
352.8374485127005
 21
14.39618310785101
 72
     1
 10
352.8374485127005
 20
14.39618310785101
 11
352.2623380527748
 21
14.39618310785101
 72
     1
 10
352.2623380527748
 20
14.39618310785101
 11
352.2623380527748
 21
14.67033002618525
 72
     1
 10
352.2623380527748
 20
14.67033002618525
 11
353.7333938249764
 21
14.67033002618525
 97
        0
 75
     0
 76
     1
 98
        1
 10
0.0
 20
0.0
  0
HATCH
  5
81
330
1F
100
AcDbEntity
  8
0
  6
Continuous
 62
     7
100
AcDbHatch
 10
0.0
 20
0.0
 30
0.0
210
0.0
220
0.0
230
1.0
  2
SOLID
 70
     1
 71
     0
 91
        2
 92
        0
 93
        8
 72
     1
 10
354.1959805761628
 20
14.67033002618525
 11
353.4990859908336
 21
12.8543237332365
 72
     1
 10
353.4990859908336
 20
12.8543237332365
 11
353.8275413943975
 21
12.8543237332365
 72
     1
 10
353.8275413943975
 20
12.8543237332365
 11
353.9986661773407
 21
13.33451492235256
 72
     1
 10
353.9986661773407
 20
13.33451492235256
 11
354.7231490873158
 21
13.33451492235256
 72
     1
 10
354.7231490873158
 20
13.33451492235256
 11
354.8937915568913
 21
12.8543237332365
 72
     1
 10
354.8937915568913
 20
12.8543237332365
 11
355.2351247273789
 21
12.8543237332365
 72
     1
 10
355.2351247273789
 20
12.8543237332365
 11
354.5349986424844
 21
14.67033002618525
 72
     1
 10
354.5349986424844
 20
14.67033002618525
 11
354.1959805761628
 21
14.67033002618525
 97
        0
 92
        0
 93
        4
 72
     1
 10
354.6396124119896
 20
13.57644330770875
 11
354.0843250314861
 21
13.57644330770875
 72
     1
 10
354.0843250314861
 20
13.57644330770875
 11
354.3597259645768
 21
14.35798388911056
 72
     1
 10
354.3597259645768
 20
14.35798388911056
 11
354.3667677397487
 21
14.35798388911056
 72
     1
 10
354.3667677397487
 20
14.35798388911056
 11
354.6396124119896
 21
13.57644330770875
 97
        0
 75
     0
 76
     1
 98
        1
 10
0.0
 20
0.0
  0
HATCH
  5
82
330
1F
100
AcDbEntity
  8
0
  6
Continuous
 62
     7
100
AcDbHatch
 10
0.0
 20
0.0
 30
0.0
210
0.0
220
0.0
230
1.0
  2
SOLID
 70
     1
 71
     0
 91
        1
 92
        0
 93
       12
 72
     1
 10
356.5350074853005
 20
14.67033002618525
 11
356.9267424027372
 21
14.67033002618525
 72
     1
 10
356.9267424027372
 20
14.67033002618525
 11
356.201584254047
 21
13.9460882728941
 72
     1
 10
356.201584254047
 20
13.9460882728941
 11
356.9773370750336
 21
12.8543237332365
 72
     1
 10
356.9773370750336
 20
12.8543237332365
 11
356.5807790239173
 21
12.8543237332365
 72
     1
 10
356.5807790239173
 20
12.8543237332365
 11
355.9854596338752
 21
13.72171609413075
 72
     1
 10
355.9854596338752
 20
13.72171609413075
 11
355.7256374225686
 21
13.46377490495913
 72
     1
 10
355.7256374225686
 20
13.46377490495913
 11
355.7256374225686
 21
12.8543237332365
 72
     1
 10
355.7256374225686
 20
12.8543237332365
 11
355.4076964504259
 21
12.8543237332365
 72
     1
 10
355.4076964504259
 20
12.8543237332365
 11
355.4076964504259
 21
14.67033002618525
 72
     1
 10
355.4076964504259
 20
14.67033002618525
 11
355.7256374225686
 21
14.67033002618525
 72
     1
 10
355.7256374225686
 20
14.67033002618525
 11
355.7256374225686
 21
13.84403076423906
 72
     1
 10
355.7256374225686
 20
13.84403076423906
 11
356.5350074853005
 21
14.67033002618525
 97
        0
 75
     0
 76
     1
 98
        1
 10
0.0
 20
0.0
  0
HATCH
  5
83
330
1F
100
AcDbEntity
  8
0
  6
Continuous
 62
     7
100
AcDbHatch
 10
0.0
 20
0.0
 30
0.0
210
0.0
220
0.0
230
1.0
  2
SOLID
 70
     1
 71
     0
 91
        2
 92
        0
 93
        8
 72
     1
 10
357.636804143011
 20
14.67033002618525
 11
356.9397648636715
 21
12.8543237332365
 72
     1
 10
356.9397648636715
 20
12.8543237332365
 11
357.2676897225305
 21
12.8543237332365
 72
     1
 10
357.2676897225305
 20
12.8543237332365
 11
357.4380428040852
 21
13.33451492235256
 72
     1
 10
357.4380428040852
 20
13.33451492235256
 11
358.1628633334178
 21
13.33451492235256
 72
     1
 10
358.1628633334178
 20
13.33451492235256
 11
358.3333611089828
 21
12.8543237332365
 72
     1
 10
358.3333611089828
 20
12.8543237332365
 11
358.6749354361543
 21
12.8543237332365
 72
     1
 10
358.6749354361543
 20
12.8543237332365
 11
357.9747128885862
 21
14.67033002618525
 72
     1
 10
357.9747128885862
 20
14.67033002618525
 11
357.636804143011
 21
14.67033002618525
 97
        0
 92
        0
 93
        4
 72
     1
 10
358.0789890387338
 20
13.57644330770875
 11
357.5241357402615
 21
13.57644330770875
 72
     1
 10
357.5241357402615
 20
13.57644330770875
 11
357.7991025913212
 21
14.35798388911056
 72
     1
 10
357.7991025913212
 20
14.35798388911056
 11
357.8067713738714
 21
14.35798388911056
 72
     1
 10
357.8067713738714
 20
14.35798388911056
 11
358.0789890387338
 21
13.57644330770875
 97
        0
 75
     0
 76
     1
 98
        1
 10
0.0
 20
0.0
  0
HATCH
  5
84
330
1F
100
AcDbEntity
  8
0
  6
Continuous
 62
     7
100
AcDbHatch
 10
0.0
 20
0.0
 30
0.0
210
0.0
220
0.0
230
1.0
  2
SOLID
 70
     1
 71
     0
 91
        1
 92
        0
 93
       16
 72
     4
 94
        3
 73
     1
 74
     0
 95
        8
 96
        4
 40
14.0
 40
14.0
 40
14.0
 40
14.0
 40
15.0
 40
15.0
 40
15.0
 40
15.0
 10
359.4965080270947
 20
12.810529679428
 42
1.0
 10
359.0821043813651
 20
12.810529679428
 42
1.0
 10
358.7456425758936
 20
13.00904986167002
 42
1.0
 10
358.7384078753744
 20
13.46030224870999
 42
1.0
 72
     1
 10
358.7384078753744
 20
13.46030224870999
 11
359.0561076908332
 21
13.46030224870999
 72
     4
 94
        3
 73
     1
 74
     0
 95
        8
 96
        4
 40
0.0
 40
0.0
 40
0.0
 40
0.0
 40
1.0
 40
1.0
 40
1.0
 40
1.0
 10
359.0561076908332
 20
13.46030224870999
 42
1.0
 10
359.0561076908332
 20
13.17940294322464
 42
1.0
 10
359.2625378123094
 20
13.070014271377
 42
1.0
 10
359.5169098825584
 20
13.070014271377
 42
1.0
 72
     4
 94
        3
 73
     1
 74
     0
 95
        8
 96
        4
 40
1.0
 40
1.0
 40
1.0
 40
1.0
 40
2.0
 40
2.0
 40
2.0
 40
2.0
 10
359.5169098825584
 20
13.070014271377
 42
1.0
 10
359.7971339493287
 20
13.070014271377
 42
1.0
 10
359.9006383980874
 20
13.20834174530077
 42
1.0
 10
359.9006383980874
 20
13.34551166714148
 42
1.0
 72
     4
 94
        3
 73
     1
 74
     0
 95
        8
 96
        4
 40
2.0
 40
2.0
 40
2.0
 40
2.0
 40
3.0
 40
3.0
 40
3.0
 40
3.0
 10
359.9006383980874
 20
13.34551166714148
 42
1.0
 10
359.9006383980874
 20
13.48518961849547
 42
1.0
 10
359.824625811301
 20
13.54190967056458
 42
1.0
 10
359.7506871719965
 20
13.5693050698633
 42
1.0
 72
     4
 94
        3
 73
     1
 74
     0
 95
        8
 96
        4
 40
3.0
 40
3.0
 40
3.0
 40
3.0
 40
4.0
 40
4.0
 40
4.0
 40
4.0
 10
359.7506871719965
 20
13.5693050698633
 42
1.0
 10
359.6235975995457
 20
13.61792225735114
 42
1.0
 10
359.4582605770174
 20
13.64975493963487
 42
1.0
 10
359.2087116404479
 20
13.7192080646175
 42
1.0
 72
     4
 94
        3
 73
     1
 74
     0
 95
        8
 96
        4
 40
4.0
 40
4.0
 40
4.0
 40
4.0
 40
5.0
 40
5.0
 40
5.0
 40
5.0
 10
359.2087116404479
 20
13.7192080646175
 42
1.0
 10
358.8987770702128
 20
13.80332351598533
 42
1.0
 10
358.807185761642
 20
13.9921974308687
 42
1.0
 10
358.807185761642
 20
14.17933501762744
 42
1.0
 72
     4
 94
        3
 73
     1
 74
     0
 95
        8
 96
        4
 40
5.0
 40
5.0
 40
5.0
 40
5.0
 40
6.0
 40
6.0
 40
6.0
 40
6.0
 10
358.807185761642
 20
14.17933501762744
 42
1.0
 10
358.807185761642
 20
14.54338514774476
 42
1.0
 10
359.142827634388
 20
14.71470285603529
 42
1.0
 10
359.4709454185941
 20
14.71470285603529
 42
1.0
 72
     4
 94
        3
 73
     1
 74
     0
 95
        8
 96
        4
 40
6.0
 40
6.0
 40
6.0
 40
6.0
 40
7.0
 40
7.0
 40
7.0
 40
7.0
 10
359.4709454185941
 20
14.71470285603529
 42
1.0
 10
359.8499954944543
 20
14.71470285603529
 42
1.0
 10
360.1686117053121
 20
14.51271001754413
 42
1.0
 10
360.1686117053121
 20
14.1338046356944
 42
1.0
 72
     1
 10
360.1686117053121
 20
14.1338046356944
 11
359.8499954944543
 21
14.1338046356944
 72
     4
 94
        3
 73
     1
 74
     0
 95
        8
 96
        4
 40
8.0
 40
8.0
 40
8.0
 40
8.0
 40
9.0
 40
9.0
 40
9.0
 40
9.0
 10
359.8499954944543
 20
14.1338046356944
 42
1.0
 10
359.8345614666803
 20
14.36859478320512
 42
1.0
 10
359.6767967640287
 20
14.45502533873909
 42
1.0
 10
359.4582605770174
 20
14.45502533873909
 42
1.0
 72
     4
 94
        3
 73
     1
 74
     0
 95
        8
 96
        4
 40
9.0
 40
9.0
 40
9.0
 40
9.0
 40
10.0
 40
10.0
 40
10.0
 40
10.0
 10
359.4582605770174
 20
14.45502533873909
 42
1.0
 10
359.310769149103
 20
14.45502533873909
 42
1.0
 10
359.1250302711111
 20
14.40119916687754
 42
1.0
 10
359.1250302711111
 20
14.21811301240944
 42
1.0
 72
     4
 94
        3
 73
     1
 74
     0
 95
        8
 96
        4
 40
10.0
 40
10.0
 40
10.0
 40
10.0
 40
11.0
 40
11.0
 40
11.0
 40
11.0
 10
359.1250302711111
 20
14.21811301240944
 42
1.0
 10
359.1250302711111
 20
14.0907822832746
 42
1.0
 10
359.2116055206556
 20
14.01901405412586
 42
1.0
 10
359.3409619659356
 20
13.98390164094019
 42
1.0
 72
     4
 94
        3
 73
     1
 74
     0
 95
        8
 96
        4
 40
11.0
 40
11.0
 40
11.0
 40
11.0
 40
12.0
 40
12.0
 40
12.0
 40
12.0
 10
359.3409619659356
 20
13.98390164094019
 42
1.0
 10
359.3697078426646
 20
13.97599170170609
 42
1.0
 10
359.7710890274602
 20
13.87258371562082
 42
1.0
 10
359.8650919028706
 20
13.84403076423906
 42
1.0
 72
     4
 94
        3
 73
     1
 74
     0
 95
        8
 96
        4
 40
12.0
 40
12.0
 40
12.0
 40
12.0
 40
13.0
 40
13.0
 40
13.0
 40
13.0
 10
359.8650919028706
 20
13.84403076423906
 42
1.0
 10
360.1043675647032
 20
13.77264838578469
 42
1.0
 10
360.2186276015669
 20
13.5693050698633
 42
1.0
 10
360.2186276015669
 20
13.38062408032715
 42
1.0
 72
     4
 94
        3
 73
     1
 74
     0
 95
        8
 96
        4
 40
13.0
 40
13.0
 40
13.0
 40
13.0
 40
14.0
 40
14.0
 40
14.0
 40
14.0
 10
360.2186276015669
 20
13.38062408032715
 42
1.0
 10
360.2186276015669
 20
12.97374452313719
 42
1.0
 10
359.8575678143308
 20
12.810529679428
 42
1.0
 10
359.4965080270947
 20
12.810529679428
 42
1.0
 97
        0
 75
     0
 76
     1
 98
        1
 10
0.0
 20
0.0
  0
HATCH
  5
85
330
1F
100
AcDbEntity
  8
0
  6
Continuous
 62
     7
100
AcDbHatch
 10
0.0
 20
0.0
 30
0.0
210
0.0
220
0.0
230
1.0
  2
SOLID
 70
     1
 71
     0
 91
        1
 92
        0
 93
       12
 72
     1
 10
360.4882407742427
 20
12.8543237332365
 11
360.4882407742427
 21
14.67033002618525
 72
     1
 10
360.4882407742427
 20
14.67033002618525
 11
360.8073392984684
 21
14.67033002618525
 72
     1
 10
360.8073392984684
 20
14.67033002618525
 11
360.8073392984684
 21
13.94782460101867
 72
     1
 10
360.8073392984684
 20
13.94782460101867
 11
361.634024411109
 21
13.94782460101867
 72
     1
 10
361.634024411109
 20
13.94782460101867
 11
361.634024411109
 21
14.67033002618525
 72
     1
 10
361.634024411109
 20
14.67033002618525
 11
361.9515313012205
 21
14.67033002618525
 72
     1
 10
361.9515313012205
 20
14.67033002618525
 11
361.9515313012205
 21
12.8543237332365
 72
     1
 10
361.9515313012205
 20
12.8543237332365
 11
361.634024411109
 21
12.8543237332365
 72
     1
 10
361.634024411109
 20
12.8543237332365
 11
361.634024411109
 21
13.67406353337878
 72
     1
 10
361.634024411109
 20
13.67406353337878
 11
360.8073392984684
 21
13.67406353337878
 72
     1
 10
360.8073392984684
 20
13.67406353337878
 11
360.8073392984684
 21
12.8543237332365
 72
     1
 10
360.8073392984684
 20
12.8543237332365
 11
360.4882407742427
 21
12.8543237332365
 97
        0
 75
     0
 76
     1
 98
        1
 10
0.0
 20
0.0
  0
HATCH
  5
86
330
1F
100
AcDbEntity
  8
0
  6
Continuous
 62
     7
100
AcDbHatch
 10
0.0
 20
0.0
 30
0.0
210
0.0
220
0.0
230
1.0
  2
SOLID
 70
     1
 71
     0
 91
        2
 92
        0
 93
        2
 72
     4
 94
        3
 73
     1
 74
     0
 95
       11
 96
        7
 40
0.0
 40
0.0
 40
0.0
 40
0.0
 40
1.0
 40
1.0
 40
1.0
 40
2.0
 40
2.0
 40
2.0
 40
2.0
 10
363.1067682800984
 20
14.71470285603529
 42
1.0
 10
362.5617541743318
 20
14.71470285603529
 42
1.0
 10
362.2367714270172
 20
14.28139252628248
 42
1.0
 10
362.2367714270172
 20
13.76203749169012
 42
1.0
 10
362.2367714270172
 20
13.24403293452797
 42
1.0
 10
362.5617541743318
 20
12.810529679428
 42
1.0
 10
363.1067682800984
 20
12.810529679428
 42
1.0
 72
     4
 94
        3
 73
     1
 74
     0
 95
       11
 96
        7
 40
2.0
 40
2.0
 40
2.0
 40
2.0
 40
3.0
 40
3.0
 40
3.0
 40
4.0
 40
4.0
 40
4.0
 40
4.0
 10
363.1067682800984
 20
12.810529679428
 42
1.0
 10
363.6508177591292
 20
12.810529679428
 42
1.0
 10
363.976668670506
 20
13.24403293452797
 42
1.0
 10
363.976668670506
 20
13.76203749169012
 42
1.0
 10
363.976668670506
 20
14.28139252628248
 42
1.0
 10
363.6508177591292
 20
14.71470285603529
 42
1.0
 10
363.1067682800984
 20
14.71470285603529
 42
1.0
 97
        0
 92
        0
 93
        2
 72
     4
 94
        3
 73
     1
 74
     0
 95
       11
 96
        7
 40
2.0
 40
2.0
 40
2.0
 40
2.0
 40
3.0
 40
3.0
 40
3.0
 40
4.0
 40
4.0
 40
4.0
 40
4.0
 10
363.1067682800984
 20
13.070014271377
 42
1.0
 10
362.7166732281127
 20
13.070014271377
 42
1.0
 10
362.5544230111393
 20
13.41438601608259
 42
1.0
 10
362.5544230111393
 20
13.76203749169012
 42
1.0
 10
362.5544230111393
 20
14.1108465193807
 42
1.0
 10
362.7166732281127
 20
14.45502533873909
 42
1.0
 10
363.1067682800984
 20
14.45502533873909
 42
1.0
 72
     4
 94
        3
 73
     1
 74
     0
 95
       11
 96
        7
 40
0.0
 40
0.0
 40
0.0
 40
0.0
 40
1.0
 40
1.0
 40
1.0
 40
2.0
 40
2.0
 40
2.0
 40
2.0
 10
363.1067682800984
 20
14.45502533873909
 42
1.0
 10
363.4959951680219
 20
14.45502533873909
 42
1.0
 10
363.6582453849953
 20
14.1108465193807
 42
1.0
 10
363.6582453849953
 20
13.76203749169012
 42
1.0
 10
363.6582453849953
 20
13.41438601608259
 42
1.0
 10
363.4959951680219
 20
13.070014271377
 42
1.0
 10
363.1067682800984
 20
13.070014271377
 42
1.0
 97
        0
 75
     0
 76
     1
 98
        1
 10
0.0
 20
0.0
  0
HATCH
  5
87
330
1F
100
AcDbEntity
  8
0
  6
Continuous
 62
     7
100
AcDbHatch
 10
0.0
 20
0.0
 30
0.0
210
0.0
220
0.0
230
1.0
  2
SOLID
 70
     1
 71
     0
 91
        2
 92
        0
 93
        5
 72
     4
 94
        3
 73
     1
 74
     0
 95
        8
 96
        4
 40
2.0
 40
2.0
 40
2.0
 40
2.0
 40
3.0
 40
3.0
 40
3.0
 40
3.0
 10
366.5286851629235
 20
13.76203749169012
 42
1.0
 10
366.5286851629235
 20
14.26383631968965
 42
1.0
 10
366.2868532402409
 20
14.67033002618525
 42
1.0
 10
365.7265980320477
 20
14.67033002618525
 42
1.0
 72
     1
 10
365.7265980320477
 20
14.67033002618525
 11
364.9738997900483
 21
14.67033002618525
 72
     1
 10
364.9738997900483
 20
14.67033002618525
 11
364.9738997900483
 21
12.8543237332365
 72
     1
 10
364.9738997900483
 20
12.8543237332365
 11
365.7265980320477
 21
12.8543237332365
 72
     4
 94
        3
 73
     1
 74
     0
 95
        8
 96
        4
 40
1.0
 40
1.0
 40
1.0
 40
1.0
 40
2.0
 40
2.0
 40
2.0
 40
2.0
 10
365.7265980320477
 20
12.8543237332365
 42
1.0
 10
366.2868532402409
 20
12.8543237332365
 42
1.0
 10
366.5286851629235
 20
13.26101036507926
 42
1.0
 10
366.5286851629235
 20
13.76203749169012
 42
1.0
 97
        0
 92
        0
 93
        5
 72
     4
 94
        3
 73
     1
 74
     0
 95
        8
 96
        4
 40
1.0
 40
1.0
 40
1.0
 40
1.0
 40
2.0
 40
2.0
 40
2.0
 40
2.0
 10
365.6052479886752
 20
14.4110383595834
 42
1.0
 10
366.1031883097313
 20
14.4110383595834
 42
1.0
 10
366.2105512654335
 20
14.12666639784894
 42
1.0
 10
366.2105512654335
 20
13.76203749169012
 42
1.0
 72
     4
 94
        3
 73
     1
 74
     0
 95
        8
 96
        4
 40
2.0
 40
2.0
 40
2.0
 40
2.0
 40
3.0
 40
3.0
 40
3.0
 40
3.0
 10
366.2105512654335
 20
13.76203749169012
 42
1.0
 10
366.2105512654335
 20
13.39933783900301
 42
1.0
 10
366.1031883097313
 20
13.11400125053267
 42
1.0
 10
365.6052479886752
 20
13.11400125053267
 42
1.0
 72
     1
 10
365.6052479886752
 20
13.11400125053267
 11
365.2920336875383
 21
13.11400125053267
 72
     1
 10
365.2920336875383
 20
13.11400125053267
 11
365.2920336875383
 21
14.4110383595834
 72
     1
 10
365.2920336875383
 20
14.4110383595834
 11
365.6052479886752
 21
14.4110383595834
 97
        0
 75
     0
 76
     1
 98
        1
 10
0.0
 20
0.0
  0
HATCH
  5
88
330
1F
100
AcDbEntity
  8
0
  6
Continuous
 62
     7
100
AcDbHatch
 10
0.0
 20
0.0
 30
0.0
210
0.0
220
0.0
230
1.0
  2
SOLID
 70
     1
 71
     0
 91
        1
 92
        0
 93
        4
 72
     1
 10
366.8111278711862
 20
12.8543237332365
 11
366.8111278711862
 21
14.67033002618525
 72
     1
 10
366.8111278711862
 20
14.67033002618525
 11
367.1292617686761
 21
14.67033002618525
 72
     1
 10
367.1292617686761
 20
14.67033002618525
 11
367.1292617686761
 21
12.8543237332365
 72
     1
 10
367.1292617686761
 20
12.8543237332365
 11
366.8111278711862
 21
12.8543237332365
 97
        0
 75
     0
 76
     1
 98
        1
 10
0.0
 20
0.0
  0
HATCH
  5
89
330
1F
100
AcDbEntity
  8
0
  6
Continuous
 62
     7
100
AcDbHatch
 10
0.0
 20
0.0
 30
0.0
210
0.0
220
0.0
230
1.0
  2
SOLID
 70
     1
 71
     0
 91
        1
 92
        0
 93
       15
 72
     4
 94
        3
 73
     1
 74
     0
 95
        8
 96
        4
 40
10.0
 40
10.0
 40
10.0
 40
10.0
 40
11.0
 40
11.0
 40
11.0
 40
11.0
 10
368.3044665209865
 20
13.070014271377
 42
1.0
 10
368.6303174323634
 20
13.06615576443354
 42
1.0
 10
368.8080981397841
 20
13.26101036507926
 42
1.0
 10
368.8134035868314
 20
13.5693050698633
 42
1.0
 72
     1
 10
368.8134035868314
 20
13.5693050698633
 11
368.3292574280983
 21
13.5693050698633
 72
     1
 10
368.3292574280983
 20
13.5693050698633
 11
368.3292574280983
 21
13.81104052987232
 72
     1
 10
368.3292574280983
 20
13.81104052987232
 11
369.1037562343283
 21
13.81104052987232
 72
     1
 10
369.1037562343283
 20
13.81104052987232
 11
369.1037562343283
 21
12.8543237332365
 72
     1
 10
369.1037562343283
 20
12.8543237332365
 11
368.8996412170183
 21
12.8543237332365
 72
     1
 10
368.8996412170183
 20
12.8543237332365
 11
368.8515063428983
 21
13.06789209255811
 72
     4
 94
        3
 73
     1
 74
     0
 95
        8
 96
        4
 40
2.0
 40
2.0
 40
2.0
 40
2.0
 40
3.0
 40
3.0
 40
3.0
 40
3.0
 10
368.8515063428983
 20
13.06789209255811
 42
1.0
 10
368.6808638733231
 20
12.87477382003696
 42
1.0
 10
368.5247872674591
 20
12.810529679428
 42
1.0
 10
368.3044665209865
 20
12.810529679428
 42
1.0
 72
     4
 94
        3
 73
     1
 74
     0
 95
        8
 96
        4
 40
3.0
 40
3.0
 40
3.0
 40
3.0
 40
4.0
 40
4.0
 40
4.0
 40
4.0
 10
368.3044665209865
 20
12.810529679428
 42
1.0
 10
367.75945241522
 20
12.810529679428
 42
1.0
 10
367.4339873545374
 20
13.24403293452797
 42
1.0
 10
367.4339873545374
 20
13.76203749169012
 42
1.0
 72
     4
 94
        3
 73
     1
 74
     0
 95
        8
 96
        4
 40
4.0
 40
4.0
 40
4.0
 40
4.0
 40
5.0
 40
5.0
 40
5.0
 40
5.0
 10
367.4339873545374
 20
13.76203749169012
 42
1.0
 10
367.4339873545374
 20
14.28139252628248
 42
1.0
 10
367.75945241522
 20
14.71470285603529
 42
1.0
 10
368.3044665209865
 20
14.71470285603529
 42
1.0
 72
     4
 94
        3
 73
     1
 74
     0
 95
        8
 96
        4
 40
5.0
 40
5.0
 40
5.0
 40
5.0
 40
6.0
 40
6.0
 40
6.0
 40
6.0
 10
368.3044665209865
 20
14.71470285603529
 42
1.0
 10
368.7007351840819
 20
14.71470285603529
 42
1.0
 10
369.0347854227137
 20
14.50383545157413
 42
1.0
 10
369.0830167595072
 20
14.09329031278784
 42
1.0
 72
     1
 10
369.0830167595072
 20
14.09329031278784
 11
368.7722140252099
 21
14.09329031278784
 72
     4
 94
        3
 73
     1
 74
     0
 95
        8
 96
        4
 40
7.0
 40
7.0
 40
7.0
 40
7.0
 40
8.0
 40
8.0
 40
8.0
 40
8.0
 10
368.7722140252099
 20
14.09329031278784
 42
1.0
 10
368.742021208377
 20
14.33290359397794
 42
1.0
 10
368.5329865947141
 20
14.45502533873909
 42
1.0
 10
368.3044665209865
 20
14.45502533873909
 42
1.0
 72
     4
 94
        3
 73
     1
 74
     0
 95
        8
 96
        4
 40
8.0
 40
8.0
 40
8.0
 40
8.0
 40
9.0
 40
9.0
 40
9.0
 40
9.0
 10
368.3044665209865
 20
14.45502533873909
 42
1.0
 10
367.9150467077158
 20
14.45502533873909
 42
1.0
 10
367.7521212520275
 20
14.1108465193807
 42
1.0
 10
367.7521212520275
 20
13.76203749169012
 42
1.0
 72
     4
 94
        3
 73
     1
 74
     0
 95
        8
 96
        4
 40
9.0
 40
9.0
 40
9.0
 40
9.0
 40
10.0
 40
10.0
 40
10.0
 40
10.0
 10
367.7521212520275
 20
13.76203749169012
 42
1.0
 10
367.7521212520275
 20
13.41438601608259
 42
1.0
 10
367.9150467077158
 20
13.070014271377
 42
1.0
 10
368.3044665209865
 20
13.070014271377
 42
1.0
 97
        0
 75
     0
 76
     1
 98
        1
 10
0.0
 20
0.0
  0
HATCH
  5
8A
330
1F
100
AcDbEntity
  8
0
  6
Continuous
 62
     7
100
AcDbHatch
 10
0.0
 20
0.0
 30
0.0
210
0.0
220
0.0
230
1.0
  2
SOLID
 70
     1
 71
     0
 91
        1
 92
        0
 93
        4
 72
     1
 10
369.4493819937906
 20
12.8543237332365
 11
369.4493819937906
 21
14.67033002618525
 72
     1
 10
369.4493819937906
 20
14.67033002618525
 11
369.7670335779125
 21
14.67033002618525
 72
     1
 10
369.7670335779125
 20
14.67033002618525
 11
369.7670335779125
 21
12.8543237332365
 72
     1
 10
369.7670335779125
 20
12.8543237332365
 11
369.4493819937906
 21
12.8543237332365
 97
        0
 75
     0
 76
     1
 98
        1
 10
0.0
 20
0.0
  0
HATCH
  5
8B
330
1F
100
AcDbEntity
  8
0
  6
Continuous
 62
     7
100
AcDbHatch
 10
0.0
 20
0.0
 30
0.0
210
0.0
220
0.0
230
1.0
  2
SOLID
 70
     1
 71
     0
 91
        1
 92
        0
 93
        8
 72
     1
 10
369.9834958174418
 20
14.39618310785101
 11
369.9834958174418
 21
14.67033002618525
 72
     1
 10
369.9834958174418
 20
14.67033002618525
 11
371.4543586642963
 21
14.67033002618525
 72
     1
 10
371.4543586642963
 20
14.67033002618525
 11
371.4543586642963
 21
14.39618310785101
 72
     1
 10
371.4543586642963
 20
14.39618310785101
 11
370.8765472495102
 21
14.39618310785101
 72
     1
 10
370.8765472495102
 20
14.39618310785101
 11
370.8765472495102
 21
12.8543237332365
 72
     1
 10
370.8765472495102
 20
12.8543237332365
 11
370.5588956653881
 21
12.8543237332365
 72
     1
 10
370.5588956653881
 20
12.8543237332365
 11
370.5588956653881
 21
14.39618310785101
 72
     1
 10
370.5588956653881
 20
14.39618310785101
 11
369.9834958174418
 21
14.39618310785101
 97
        0
 75
     0
 76
     1
 98
        1
 10
0.0
 20
0.0
  0
HATCH
  5
8C
330
1F
100
AcDbEntity
  8
0
  6
Continuous
 62
     7
100
AcDbHatch
 10
0.0
 20
0.0
 30
0.0
210
0.0
220
0.0
230
1.0
  2
SOLID
 70
     1
 71
     0
 91
        1
 92
        0
 93
       12
 72
     1
 10
371.6651296060838
 20
12.8543237332365
 11
371.6651296060838
 21
14.67033002618525
 72
     1
 10
371.6651296060838
 20
14.67033002618525
 11
372.9727776092291
 21
14.67033002618525
 72
     1
 10
372.9727776092291
 20
14.67033002618525
 11
372.9727776092291
 21
14.39618310785101
 72
     1
 10
372.9727776092291
 20
14.39618310785101
 11
371.9836493542682
 21
14.39618310785101
 72
     1
 10
371.9836493542682
 20
14.39618310785101
 11
371.9836493542682
 21
13.91965750033127
 72
     1
 10
371.9836493542682
 20
13.91965750033127
 11
372.8988872012616
 21
13.91965750033127
 72
     1
 10
372.8988872012616
 20
13.91965750033127
 11
372.8988872012616
 21
13.6611375351181
 72
     1
 10
372.8988872012616
 20
13.6611375351181
 11
371.9836493542682
 21
13.6611375351181
 72
     1
 10
371.9836493542682
 20
13.6611375351181
 11
371.9836493542682
 21
13.12943527830661
 72
     1
 10
371.9836493542682
 20
13.12943527830661
 11
372.9899479651276
 21
13.12943527830661
 72
     1
 10
372.9899479651276
 20
13.12943527830661
 11
372.9899479651276
 21
12.8543237332365
 72
     1
 10
372.9899479651276
 20
12.8543237332365
 11
371.6651296060838
 21
12.8543237332365
 97
        0
 75
     0
 76
     1
 98
        1
 10
0.0
 20
0.0
  0
HATCH
  5
8D
330
1F
100
AcDbEntity
  8
0
  6
Continuous
 62
     7
100
AcDbHatch
 10
0.0
 20
0.0
 30
0.0
210
0.0
220
0.0
230
1.0
  2
SOLID
 70
     1
 71
     0
 91
        1
 92
        0
 93
       10
 72
     4
 94
        3
 73
     1
 74
     0
 95
        8
 96
        4
 40
8.0
 40
8.0
 40
8.0
 40
8.0
 40
9.0
 40
9.0
 40
9.0
 40
9.0
 10
374.0417769579201
 20
14.71470285603529
 42
1.0
 10
374.4518397833386
 20
14.7118089758277
 42
1.0
 10
374.774507426487
 20
14.48570046893975
 42
1.0
 10
374.8131889585953
 20
14.09329031278784
 42
1.0
 72
     1
 10
374.8131889585953
 20
14.09329031278784
 11
374.4947656730849
 21
14.09329031278784
 72
     4
 94
        3
 73
     1
 74
     0
 95
        8
 96
        4
 40
0.0
 40
0.0
 40
0.0
 40
0.0
 40
1.0
 40
1.0
 40
1.0
 40
1.0
 10
374.4947656730849
 20
14.09329031278784
 42
1.0
 10
374.4412288892439
 20
14.3022284637773
 42
1.0
 10
374.3063740715693
 20
14.45502533873909
 42
1.0
 10
374.0417769579201
 20
14.45502533873909
 42
1.0
 72
     4
 94
        3
 73
     1
 74
     0
 95
        8
 96
        4
 40
1.0
 40
1.0
 40
1.0
 40
1.0
 40
2.0
 40
2.0
 40
2.0
 40
2.0
 10
374.0417769579201
 20
14.45502533873909
 42
1.0
 10
373.6529359206911
 20
14.45502533873909
 42
1.0
 10
373.4897210769819
 20
14.1108465193807
 42
1.0
 10
373.4897210769819
 20
13.76203749169012
 42
1.0
 72
     4
 94
        3
 73
     1
 74
     0
 95
        8
 96
        4
 40
2.0
 40
2.0
 40
2.0
 40
2.0
 40
3.0
 40
3.0
 40
3.0
 40
3.0
 10
373.4897210769819
 20
13.76203749169012
 42
1.0
 10
373.4897210769819
 20
13.41438601608259
 42
1.0
 10
373.6529359206911
 20
13.070014271377
 42
1.0
 10
374.0417769579201
 20
13.070014271377
 42
1.0
 72
     4
 94
        3
 73
     1
 74
     0
 95
        8
 96
        4
 40
3.0
 40
3.0
 40
3.0
 40
3.0
 40
4.0
 40
4.0
 40
4.0
 40
4.0
 10
374.0417769579201
 20
13.070014271377
 42
1.0
 10
374.3241232035093
 20
13.070014271377
 42
1.0
 10
374.4784634812486
 20
13.28184630257406
 42
1.0
 10
374.5048942538115
 20
13.5463469535496
 42
1.0
 72
     1
 10
374.5048942538115
 20
13.5463469535496
 11
374.8149252867199
 21
13.5463469535496
 72
     4
 94
        3
 73
     1
 74
     0
 95
        8
 96
        4
 40
5.0
 40
5.0
 40
5.0
 40
5.0
 40
6.0
 40
6.0
 40
6.0
 40
6.0
 10
374.8149252867199
 20
13.5463469535496
 42
1.0
 10
374.7885909768307
 20
13.11187907171378
 42
1.0
 10
374.4820326001713
 20
12.810529679428
 42
1.0
 10
374.0417769579201
 20
12.810529679428
 42
1.0
 72
     4
 94
        3
 73
     1
 74
     0
 95
        8
 96
        4
 40
6.0
 40
6.0
 40
6.0
 40
6.0
 40
7.0
 40
7.0
 40
7.0
 40
7.0
 10
374.0417769579201
 20
12.810529679428
 42
1.0
 10
373.4970522401744
 20
12.810529679428
 42
1.0
 10
373.1712013287976
 20
13.24403293452797
 42
1.0
 10
373.1712013287976
 20
13.76203749169012
 42
1.0
 72
     4
 94
        3
 73
     1
 74
     0
 95
        8
 96
        4
 40
7.0
 40
7.0
 40
7.0
 40
7.0
 40
8.0
 40
8.0
 40
8.0
 40
8.0
 10
373.1712013287976
 20
13.76203749169012
 42
1.0
 10
373.1712013287976
 20
14.28139252628248
 42
1.0
 10
373.4970522401744
 20
14.71470285603529
 42
1.0
 10
374.0417769579201
 20
14.71470285603529
 42
1.0
 97
        0
 75
     0
 76
     1
 98
        1
 10
0.0
 20
0.0
  0
HATCH
  5
8E
330
1F
100
AcDbEntity
  8
0
  6
Continuous
 62
     7
100
AcDbHatch
 10
0.0
 20
0.0
 30
0.0
210
0.0
220
0.0
230
1.0
  2
SOLID
 70
     1
 71
     0
 91
        1
 92
        0
 93
       10
 72
     4
 94
        3
 73
     1
 74
     0
 95
        8
 96
        4
 40
8.0
 40
8.0
 40
8.0
 40
8.0
 40
9.0
 40
9.0
 40
9.0
 40
9.0
 10
376.5856905857564
 20
14.71470285603529
 42
1.0
 10
376.9958498738484
 20
14.7118089758277
 42
1.0
 10
377.318228128976
 20
14.48570046893975
 42
1.0
 10
377.3566202730636
 20
14.09329031278784
 42
1.0
 72
     1
 10
377.3566202730636
 20
14.09329031278784
 11
377.0381005248796
 21
14.09329031278784
 72
     4
 94
        3
 73
     1
 74
     0
 95
        8
 96
        4
 40
0.0
 40
0.0
 40
0.0
 40
0.0
 40
1.0
 40
1.0
 40
1.0
 40
1.0
 10
377.0381005248796
 20
14.09329031278784
 42
1.0
 10
376.985431905101
 20
14.3022284637773
 42
1.0
 10
376.8506735500999
 20
14.45502533873909
 42
1.0
 10
376.5856905857564
 20
14.45502533873909
 42
1.0
 72
     4
 94
        3
 73
     1
 74
     0
 95
        8
 96
        4
 40
1.0
 40
1.0
 40
1.0
 40
1.0
 40
2.0
 40
2.0
 40
2.0
 40
2.0
 10
376.5856905857564
 20
14.45502533873909
 42
1.0
 10
376.1964636978331
 20
14.45502533873909
 42
1.0
 10
376.0335382421445
 20
14.1108465193807
 42
1.0
 10
376.0335382421445
 20
13.76203749169012
 42
1.0
 72
     4
 94
        3
 73
     1
 74
     0
 95
        8
 96
        4
 40
2.0
 40
2.0
 40
2.0
 40
2.0
 40
3.0
 40
3.0
 40
3.0
 40
3.0
 10
376.0335382421445
 20
13.76203749169012
 42
1.0
 10
376.0335382421445
 20
13.41438601608259
 42
1.0
 10
376.1964636978331
 20
13.070014271377
 42
1.0
 10
376.5856905857564
 20
13.070014271377
 42
1.0
 72
     4
 94
        3
 73
     1
 74
     0
 95
        8
 96
        4
 40
3.0
 40
3.0
 40
3.0
 40
3.0
 40
4.0
 40
4.0
 40
4.0
 40
4.0
 10
376.5856905857564
 20
13.070014271377
 42
1.0
 10
376.8678439059985
 20
13.070014271377
 42
1.0
 10
377.0233417358207
 20
13.28184630257406
 42
1.0
 10
377.0487114189741
 20
13.5463469535496
 42
1.0
 72
     1
 10
377.0487114189741
 20
13.5463469535496
 11
377.359803541292
 21
13.5463469535496
 72
     4
 94
        3
 73
     1
 74
     0
 95
        8
 96
        4
 40
5.0
 40
5.0
 40
5.0
 40
5.0
 40
6.0
 40
6.0
 40
6.0
 40
6.0
 10
377.359803541292
 20
13.5463469535496
 42
1.0
 10
377.3337586194237
 20
13.11187907171378
 42
1.0
 10
377.0259462280075
 20
12.810529679428
 42
1.0
 10
376.5856905857564
 20
12.810529679428
 42
1.0
 72
     4
 94
        3
 73
     1
 74
     0
 95
        8
 96
        4
 40
6.0
 40
6.0
 40
6.0
 40
6.0
 40
7.0
 40
7.0
 40
7.0
 40
7.0
 10
376.5856905857564
 20
12.810529679428
 42
1.0
 10
376.0412552560315
 20
12.810529679428
 42
1.0
 10
375.7156937326754
 20
13.24403293452797
 42
1.0
 10
375.7156937326754
 20
13.76203749169012
 42
1.0
 72
     4
 94
        3
 73
     1
 74
     0
 95
        8
 96
        4
 40
7.0
 40
7.0
 40
7.0
 40
7.0
 40
8.0
 40
8.0
 40
8.0
 40
8.0
 10
375.7156937326754
 20
13.76203749169012
 42
1.0
 10
375.7156937326754
 20
14.28139252628248
 42
1.0
 10
376.0412552560315
 20
14.71470285603529
 42
1.0
 10
376.5856905857564
 20
14.71470285603529
 42
1.0
 97
        0
 75
     0
 76
     1
 98
        1
 10
0.0
 20
0.0
  0
HATCH
  5
8F
330
1F
100
AcDbEntity
  8
0
  6
Continuous
 62
     7
100
AcDbHatch
 10
0.0
 20
0.0
 30
0.0
210
0.0
220
0.0
230
1.0
  2
SOLID
 70
     1
 71
     0
 91
        2
 92
        0
 93
        2
 72
     4
 94
        3
 73
     1
 74
     0
 95
       11
 96
        7
 40
0.0
 40
0.0
 40
0.0
 40
0.0
 40
1.0
 40
1.0
 40
1.0
 40
2.0
 40
2.0
 40
2.0
 40
2.0
 10
378.4229186668944
 20
14.71470285603529
 42
1.0
 10
377.8779045611279
 20
14.71470285603529
 42
1.0
 10
377.5514748737095
 20
14.28139252628248
 42
1.0
 10
377.5514748737095
 20
13.76203749169012
 42
1.0
 10
377.5514748737095
 20
13.24403293452797
 42
1.0
 10
377.8779045611279
 20
12.810529679428
 42
1.0
 10
378.4229186668944
 20
12.810529679428
 42
1.0
 72
     4
 94
        3
 73
     1
 74
     0
 95
       11
 96
        7
 40
2.0
 40
2.0
 40
2.0
 40
2.0
 40
3.0
 40
3.0
 40
3.0
 40
4.0
 40
4.0
 40
4.0
 40
4.0
 10
378.4229186668944
 20
12.810529679428
 42
1.0
 10
378.9672575339458
 20
12.810529679428
 42
1.0
 10
379.2920473559132
 20
13.24403293452797
 42
1.0
 10
379.2920473559132
 20
13.76203749169012
 42
1.0
 10
379.2920473559132
 20
14.28139252628248
 42
1.0
 10
378.9672575339458
 20
14.71470285603529
 42
1.0
 10
378.4229186668944
 20
14.71470285603529
 42
1.0
 97
        0
 92
        0
 93
        2
 72
     4
 94
        3
 73
     1
 74
     0
 95
       11
 96
        7
 40
2.0
 40
2.0
 40
2.0
 40
2.0
 40
3.0
 40
3.0
 40
3.0
 40
4.0
 40
4.0
 40
4.0
 40
4.0
 10
378.4229186668944
 20
13.070014271377
 42
1.0
 10
378.03340239095
 20
13.070014271377
 42
1.0
 10
377.8704769352617
 20
13.41438601608259
 42
1.0
 10
377.8704769352617
 20
13.76203749169012
 42
1.0
 10
377.8704769352617
 20
14.1108465193807
 42
1.0
 10
378.03340239095
 20
14.45502533873909
 42
1.0
 10
378.4229186668944
 20
14.45502533873909
 42
1.0
 72
     4
 94
        3
 73
     1
 74
     0
 95
       11
 96
        7
 40
0.0
 40
0.0
 40
0.0
 40
0.0
 40
1.0
 40
1.0
 40
1.0
 40
2.0
 40
2.0
 40
2.0
 40
2.0
 10
378.4229186668944
 20
14.45502533873909
 42
1.0
 10
378.8117597041235
 20
14.45502533873909
 42
1.0
 10
378.9749745478329
 20
14.1108465193807
 42
1.0
 10
378.9749745478329
 20
13.76203749169012
 42
1.0
 10
378.9749745478329
 20
13.41438601608259
 42
1.0
 10
378.8117597041235
 20
13.070014271377
 42
1.0
 10
378.4229186668944
 20
13.070014271377
 42
1.0
 97
        0
 75
     0
 76
     1
 98
        1
 10
0.0
 20
0.0
  0
HATCH
  5
90
330
1F
100
AcDbEntity
  8
0
  6
Continuous
 62
     7
100
AcDbHatch
 10
0.0
 20
0.0
 30
0.0
210
0.0
220
0.0
230
1.0
  2
SOLID
 70
     1
 71
     0
 91
        1
 92
        0
 93
        4
 72
     1
 10
379.565133184838
 20
12.8543237332365
 11
379.565133184838
 21
13.19773085120619
 72
     1
 10
379.565133184838
 20
13.19773085120619
 11
379.9191511969023
 21
13.19773085120619
 72
     1
 10
379.9191511969023
 20
13.19773085120619
 11
379.9191511969023
 21
12.8543237332365
 72
     1
 10
379.9191511969023
 20
12.8543237332365
 11
379.565133184838
 21
12.8543237332365
 97
        0
 75
     0
 76
     1
 98
        1
 10
0.0
 20
0.0
  0
HATCH
  5
91
330
1F
100
AcDbEntity
  8
0
  6
Continuous
 62
     7
100
AcDbHatch
 10
0.0
 20
0.0
 30
0.0
210
0.0
220
0.0
230
1.0
  2
SOLID
 70
     1
 71
     0
 91
        1
 92
        0
 93
        7
 72
     4
 94
        3
 73
     1
 74
     0
 95
        8
 96
        4
 40
4.0
 40
4.0
 40
4.0
 40
4.0
 40
5.0
 40
5.0
 40
5.0
 40
5.0
 10
380.2826225509781
 20
12.60718636350657
 42
1.0
 10
380.3941334016446
 20
12.635353464194
 42
1.0
 10
380.4504676030194
 20
12.74551383743036
 42
1.0
 10
380.4484418868741
 20
12.8543237332365
 42
1.0
 72
     1
 10
380.4484418868741
 20
12.8543237332365
 11
380.2720116568835
 21
12.8543237332365
 72
     1
 10
380.2720116568835
 20
12.8543237332365
 11
380.2720116568835
 21
13.19773085120619
 72
     1
 10
380.2720116568835
 20
13.19773085120619
 11
380.6261261316213
 21
13.19773085120619
 72
     1
 10
380.6261261316213
 20
13.19773085120619
 11
380.6261261316213
 21
12.8543237332365
 72
     4
 94
        3
 73
     1
 74
     0
 95
        8
 96
        4
 40
2.0
 40
2.0
 40
2.0
 40
2.0
 40
3.0
 40
3.0
 40
3.0
 40
3.0
 10
380.6261261316213
 20
12.8543237332365
 42
1.0
 10
380.6239074901288
 20
12.64557850759426
 42
1.0
 10
380.4839401507541
 20
12.4935533340211
 42
1.0
 10
380.2826225509781
 20
12.45246023507307
 42
1.0
 72
     1
 10
380.2826225509781
 20
12.45246023507307
 11
380.2826225509781
 21
12.60718636350657
 97
        0
 75
     0
 76
     1
 98
        1
 10
0.0
 20
0.0
  0
HATCH
  5
92
330
1F
100
AcDbEntity
  8
0
  6
Continuous
 62
     7
100
AcDbHatch
 10
0.0
 20
0.0
 30
0.0
210
0.0
220
0.0
230
1.0
  2
SOLID
 70
     1
 71
     0
 91
        1
 92
        0
 93
        6
 72
     1
 10
380.9976038876049
 20
12.8543237332365
 11
380.9976038876049
 21
14.67033002618525
 72
     1
 10
380.9976038876049
 20
14.67033002618525
 11
381.3161236357892
 21
14.67033002618525
 72
     1
 10
381.3161236357892
 20
14.67033002618525
 11
381.3161236357892
 21
13.12943527830661
 72
     1
 10
381.3161236357892
 20
13.12943527830661
 11
382.2391749593431
 21
13.12943527830661
 72
     1
 10
382.2391749593431
 20
13.12943527830661
 11
382.2391749593431
 21
12.8543237332365
 72
     1
 10
382.2391749593431
 20
12.8543237332365
 11
380.9976038876049
 21
12.8543237332365
 97
        0
 75
     0
 76
     1
 98
        1
 10
0.0
 20
0.0
  0
HATCH
  5
93
330
1F
100
AcDbEntity
  8
0
  6
Continuous
 62
     7
100
AcDbHatch
 10
0.0
 20
0.0
 30
0.0
210
0.0
220
0.0
230
1.0
  2
SOLID
 70
     1
 71
     0
 91
        1
 92
        0
 93
        8
 72
     1
 10
382.6257973550798
 20
14.39618310785101
 11
382.0508798205014
 21
14.39618310785101
 72
     1
 10
382.0508798205014
 20
14.39618310785101
 11
382.0508798205014
 21
14.67033002618525
 72
     1
 10
382.0508798205014
 20
14.67033002618525
 11
383.521453279335
 21
14.67033002618525
 72
     1
 10
383.521453279335
 20
14.67033002618525
 11
383.521453279335
 21
14.39618310785101
 72
     1
 10
383.521453279335
 20
14.39618310785101
 11
382.9446064912847
 21
14.39618310785101
 72
     1
 10
382.9446064912847
 20
14.39618310785101
 11
382.9446064912847
 21
12.8543237332365
 72
     1
 10
382.9446064912847
 20
12.8543237332365
 11
382.6257973550798
 21
12.8543237332365
 72
     1
 10
382.6257973550798
 20
12.8543237332365
 11
382.6257973550798
 21
14.39618310785101
 97
        0
 75
     0
 76
     1
 98
        1
 10
0.0
 20
0.0
  0
HATCH
  5
94
330
1F
100
AcDbEntity
  8
0
  6
Continuous
 62
     7
100
AcDbHatch
 10
0.0
 20
0.0
 30
0.0
210
0.0
220
0.0
230
1.0
  2
SOLID
 70
     1
 71
     0
 91
        2
 92
        0
 93
        5
 72
     4
 94
        3
 73
     1
 74
     0
 95
        8
 96
        4
 40
2.0
 40
2.0
 40
2.0
 40
2.0
 40
3.0
 40
3.0
 40
3.0
 40
3.0
 10
385.2882636087545
 20
13.76203749169012
 42
1.0
 10
385.2882636087545
 20
14.26383631968965
 42
1.0
 10
385.0461422980512
 20
14.67033002618525
 42
1.0
 10
384.4859835525314
 20
14.67033002618525
 42
1.0
 72
     1
 10
384.4859835525314
 20
14.67033002618525
 11
383.7331888478584
 21
14.67033002618525
 72
     1
 10
383.7331888478584
 20
14.67033002618525
 11
383.7331888478584
 21
12.8543237332365
 72
     1
 10
383.7331888478584
 20
12.8543237332365
 11
384.4859835525314
 21
12.8543237332365
 72
     4
 94
        3
 73
     1
 74
     0
 95
        8
 96
        4
 40
1.0
 40
1.0
 40
1.0
 40
1.0
 40
2.0
 40
2.0
 40
2.0
 40
2.0
 10
384.4859835525314
 20
12.8543237332365
 42
1.0
 10
385.0461422980512
 20
12.8543237332365
 42
1.0
 10
385.2882636087545
 20
13.26101036507926
 42
1.0
 10
385.2882636087545
 20
13.76203749169012
 42
1.0
 97
        0
 92
        0
 93
        5
 72
     4
 94
        3
 73
     1
 74
     0
 95
        8
 96
        4
 40
1.0
 40
1.0
 40
1.0
 40
1.0
 40
2.0
 40
2.0
 40
2.0
 40
2.0
 10
384.3645370464853
 20
14.4110383595834
 42
1.0
 10
384.8624773675414
 20
14.4110383595834
 42
1.0
 10
384.9686827711607
 20
14.12666639784894
 42
1.0
 10
384.9686827711607
 20
13.76203749169012
 42
1.0
 72
     4
 94
        3
 73
     1
 74
     0
 95
        8
 96
        4
 40
2.0
 40
2.0
 40
2.0
 40
2.0
 40
3.0
 40
3.0
 40
3.0
 40
3.0
 10
384.9686827711607
 20
13.76203749169012
 42
1.0
 10
384.9686827711607
 20
13.39933783900301
 42
1.0
 10
384.8624773675414
 20
13.11400125053267
 42
1.0
 10
384.3645370464853
 20
13.11400125053267
 42
1.0
 72
     1
 10
384.3645370464853
 20
13.11400125053267
 11
384.0507439693069
 21
13.11400125053267
 72
     1
 10
384.0507439693069
 20
13.11400125053267
 11
384.0507439693069
 21
14.4110383595834
 72
     1
 10
384.0507439693069
 20
14.4110383595834
 11
384.3645370464853
 21
14.4110383595834
 97
        0
 75
     0
 76
     1
 98
        1
 10
0.0
 20
0.0
  0
HATCH
  5
95
330
1F
100
AcDbEntity
  8
0
  6
Continuous
 62
     7
100
AcDbHatch
 10
0.0
 20
0.0
 30
0.0
210
0.0
220
0.0
230
1.0
  2
SOLID
 70
     1
 71
     0
 91
        1
 92
        0
 93
        4
 72
     1
 10
385.5517996329941
 20
12.3943865506406
 11
385.5517996329941
 21
12.7377936686103
 72
     1
 10
385.5517996329941
 20
12.7377936686103
 11
385.9051424063431
 21
12.7377936686103
 72
     1
 10
385.9051424063431
 20
12.7377936686103
 11
385.9051424063431
 21
12.3943865506406
 72
     1
 10
385.9051424063431
 20
12.3943865506406
 11
385.5517996329941
 21
12.3943865506406
 97
        0
 75
     0
 76
     1
 98
        1
 10
0.0
 20
0.0
  0
HATCH
  5
96
330
1F
100
AcDbEntity
  8
0
  6
Continuous
 62
     7
100
AcDbHatch
 10
0.0
 20
0.0
 30
0.0
210
0.0
220
0.0
230
1.0
  2
ANSI31
 70
     0
 71
     0
 91
        1
 92
        0
 93
        3
 72
     4
 94
        3
 73
     1
 74
     0
 95
       14
 96
       10
 40
5.0
 40
5.0
 40
5.0
 40
5.0
 40
6.0
 40
6.0
 40
6.0
 40
7.0
 40
7.0
 40
7.0
 40
8.0
 40
8.0
 40
8.0
 40
8.0
 10
340.7609234069766
 20
13.66965489072315
 42
1.0
 10
341.7976077600161
 20
12.83544568954278
 42
1.0
 10
343.1140820977948
 20
12.33654074175086
 42
1.0
 10
344.5475174272975
 20
12.33654074175086
 42
1.0
 10
347.8839683813245
 20
12.33654074175086
 42
1.0
 10
350.5898910694502
 20
15.04116118378303
 42
1.0
 10
350.5898910694501
 20
18.37862499588271
 42
1.0
 10
350.5898910694501
 20
21.71464186787857
 42
1.0
 10
347.8839683813245
 20
24.42032339932019
 42
1.0
 10
344.5475174272975
 20
24.42032339932018
 42
1.0
 72
     4
 94
        3
 73
     1
 74
     0
 95
        8
 96
        4
 40
0.0
 40
0.0
 40
0.0
 40
0.0
 40
1.0
 40
1.0
 40
1.0
 40
1.0
 10
344.5475174272975
 20
24.42032339932018
 42
1.0
 10
343.1140820977948
 20
24.42032339932017
 42
1.0
 10
341.7976077600161
 20
23.92103260083391
 42
1.0
 10
340.7609234069766
 20
23.08701632500076
 42
1.0
 72
     4
 94
        3
 73
     1
 74
     0
 95
       17
 96
       13
 40
1.0
 40
1.0
 40
1.0
 40
1.0
 40
2.0
 40
2.0
 40
2.0
 40
3.0
 40
3.0
 40
3.0
 40
4.0
 40
4.0
 40
4.0
 40
5.0
 40
5.0
 40
5.0
 40
5.0
 10
340.7609234069766
 20
23.08701632500076
 42
1.0
 10
341.1867096481898
 20
23.20788405500527
 42
1.0
 10
341.6361292444316
 20
23.2729963596765
 42
1.0
 10
342.100114704385
 20
23.2729963596765
 42
1.0
 10
344.802902355619
 20
23.2729963596765
 42
1.0
 10
346.9944860681788
 20
21.0816055724639
 42
1.0
 10
346.9944860681788
 20
18.37862499588273
 42
1.0
 10
346.9944860681788
 20
15.6749691805864
 42
1.0
 10
344.802902355619
 20
13.48444655743612
 42
1.0
 10
342.100114704385
 20
13.48444655743612
 42
1.0
 10
341.6361292444316
 20
13.48444655743612
 42
1.0
 10
341.1867096481898
 20
13.54849777269788
 42
1.0
 10
340.7609234069766
 20
13.66965489072315
 42
1.0
 97
        0
 75
     0
 76
     1
 52
0.0
 41
0.001953125
 77
     0
 78
     1
 53
45.0
 43
0.0
 44
0.0
 45
-0.0043848906841158
 46
0.0043848906841158
 79
     0
 98
        1
 10
0.0
 20
0.0
  0
HATCH
  5
97
330
1F
100
AcDbEntity
  8
0
  6
Continuous
 62
     7
100
AcDbHatch
 10
0.0
 20
0.0
 30
0.0
210
0.0
220
0.0
230
1.0
  2
ANSI31
 70
     0
 71
     0
 91
        1
 92
        0
 93
        3
 72
     4
 94
        3
 73
     1
 74
     0
 95
        8
 96
        4
 40
3.0
 40
3.0
 40
3.0
 40
3.0
 40
4.0
 40
4.0
 40
4.0
 40
4.0
 10
340.7609234069766
 20
13.66965489072315
 42
1.0
 10
339.385413912963
 20
14.7766605328075
 42
1.0
 10
338.5049508597976
 20
16.47406596858107
 42
1.0
 10
338.5049508597976
 20
18.37862499588273
 42
1.0
 72
     4
 94
        3
 73
     1
 74
     0
 95
        8
 96
        4
 40
0.0
 40
0.0
 40
0.0
 40
0.0
 40
1.0
 40
1.0
 40
1.0
 40
1.0
 10
338.5049508597976
 20
18.37862499588273
 42
1.0
 10
338.5049508597976
 20
20.28279817249002
 42
1.0
 10
339.385413912963
 20
21.97957660088526
 42
1.0
 10
340.7609234069766
 20
23.08701632500076
 42
1.0
 72
     4
 94
        3
 73
     1
 74
     0
 95
       11
 96
        7
 40
1.0
 40
1.0
 40
1.0
 40
1.0
 40
2.0
 40
2.0
 40
2.0
 40
3.0
 40
3.0
 40
3.0
 40
3.0
 10
340.7609234069766
 20
23.08701632500076
 42
1.0
 10
338.7094034964653
 20
22.50515347792401
 42
1.0
 10
337.2055986465808
 20
20.61781303785764
 42
1.0
 10
337.2055986465808
 20
18.37862499588273
 42
1.0
 10
337.2055986465808
 20
16.13914756588701
 42
1.0
 10
338.7094034964653
 20
14.25151773779991
 42
1.0
 10
340.7609234069766
 20
13.66965489072315
 42
1.0
 97
        0
 75
     0
 76
     1
 52
0.0
 41
0.001953125
 77
     0
 78
     1
 53
45.0
 43
0.0
 44
0.0
 45
-0.0043848906841158
 46
0.0043848906841158
 79
     0
 98
        1
 10
0.0
 20
0.0
  0
LINE
  5
98
330
1F
100
AcDbEntity
  8
FORMAT
370
    70
100
AcDbLine
 10
410.0
 20
287.0
 30
0.0
 11
410.0
 21
10.0
 31
0.0
  0
LINE
  5
99
330
1F
100
AcDbEntity
  8
0
  6
SLD-実線
 62
   179
370
    18
100
AcDbLine
 10
352.2623380528
 20
14.6703300262
 30
0.0
 11
353.733393825
 21
14.6703300262
 31
0.0
  0
LINE
  5
9A
330
1F
100
AcDbEntity
  8
FORMAT
370
    50
100
AcDbLine
 10
410.0
 20
71.4183039484
 30
0.0
 11
10.0
 21
71.4183039484
 31
0.0
  0
LINE
  5
9B
330
1F
100
AcDbEntity
  8
0
  6
SLD-実線
 62
   179
370
    18
100
AcDbLine
 10
353.733393825
 20
14.6703300262
 30
0.0
 11
353.733393825
 21
14.3961831079
 31
0.0
  0
LINE
  5
9C
330
1F
100
AcDbEntity
  8
0
  6
SLD-実線
 62
     7
370
    35
100
AcDbLine
 10
420.0
 20
148.5
 30
0.0
 11
405.0
 21
148.5
 31
0.0
  0
LINE
  5
9D
330
1F
100
AcDbEntity
  8
FORMAT
370
    70
100
AcDbLine
 10
10.0
 20
10.0
 30
0.0
 11
410.0
 21
10.0
 31
0.0
  0
LINE
  5
9E
330
1F
100
AcDbEntity
  8
0
  6
SLD-実線
 62
   179
370
    18
100
AcDbLine
 10
353.733393825
 20
14.3961831079
 30
0.0
 11
353.1555824102
 21
14.3961831079
 31
0.0
  0
LINE
  5
9F
330
1F
100
AcDbEntity
  8
0
  6
SLD-実線
 62
     7
370
    35
100
AcDbLine
 10
60.0
 20
287.0
 30
0.0
 11
60.0
 21
297.0
 31
0.0
  0
LINE
  5
A0
330
1F
100
AcDbEntity
  8
0
  6
SLD-実線
 62
     7
370
    35
100
AcDbLine
 10
60.0
 20
10.0
 30
0.0
 11
60.0
 21
0.0
 31
0.0
  0
LINE
  5
A1
330
1F
100
AcDbEntity
  8
0
  6
SLD-実線
 62
     7
370
    35
100
AcDbLine
 10
110.0
 20
287.0
 30
0.0
 11
110.0
 21
297.0
 31
0.0
  0
LINE
  5
A2
330
1F
100
AcDbEntity
  8
0
  6
SLD-実線
 62
     7
370
    35
100
AcDbLine
 10
110.0
 20
10.0
 30
0.0
 11
110.0
 21
0.0
 31
0.0
  0
LINE
  5
A3
330
1F
100
AcDbEntity
  8
0
  6
SLD-実線
 62
     7
370
    35
100
AcDbLine
 10
160.0
 20
287.0
 30
0.0
 11
160.0
 21
297.0
 31
0.0
  0
LINE
  5
A4
330
1F
100
AcDbEntity
  8
0
  6
SLD-実線
 62
     7
370
    35
100
AcDbLine
 10
160.0
 20
10.0
 30
0.0
 11
160.0
 21
0.0
 31
0.0
  0
LINE
  5
A5
330
1F
100
AcDbEntity
  8
0
  6
SLD-実線
 62
   179
370
    18
100
AcDbLine
 10
353.1555824102
 20
14.3961831079
 30
0.0
 11
353.1555824102
 21
12.8543237332
 31
0.0
  0
LINE
  5
A6
330
1F
100
AcDbEntity
  8
0
  6
SLD-実線
 62
   179
370
    18
100
AcDbLine
 10
353.1555824102
 20
12.8543237332
 30
0.0
 11
352.8374485127
 21
12.8543237332
 31
0.0
  0
LINE
  5
A7
330
1F
100
AcDbEntity
  8
0
  6
SLD-実線
 62
   179
370
    18
100
AcDbLine
 10
352.8374485127
 20
12.8543237332
 30
0.0
 11
352.8374485127
 21
14.3961831079
 31
0.0
  0
LINE
  5
A8
330
1F
100
AcDbEntity
  8
0
  6
SLD-実線
 62
   179
370
    18
100
AcDbLine
 10
352.8374485127
 20
14.3961831079
 30
0.0
 11
352.2623380528
 21
14.3961831079
 31
0.0
  0
LINE
  5
A9
330
1F
100
AcDbEntity
  8
0
  6
SLD-実線
 62
   179
370
    18
100
AcDbLine
 10
352.2623380528
 20
14.3961831079
 30
0.0
 11
352.2623380528
 21
14.6703300262
 31
0.0
  0
LINE
  5
AA
330
1F
100
AcDbEntity
  8
0
  6
SLD-実線
 62
   179
370
    18
100
AcDbLine
 10
354.3597259646
 20
14.3579838891
 30
0.0
 11
354.3645490983
 21
14.3579838891
 31
0.0
  0
LINE
  5
AB
330
1F
100
AcDbEntity
  8
0
  6
SLD-実線
 62
   179
370
    18
100
AcDbLine
 10
354.3645490983
 20
14.3579838891
 30
0.0
 11
354.3667677397
 21
14.3579838891
 31
0.0
  0
LINE
  5
AC
330
1F
100
AcDbEntity
  8
0
  6
SLD-実線
 62
   179
370
    18
100
AcDbLine
 10
354.3667677397
 20
14.3579838891
 30
0.0
 11
354.639612412
 21
13.5764433077
 31
0.0
  0
LINE
  5
AD
330
1F
100
AcDbEntity
  8
0
  6
SLD-実線
 62
   179
370
    18
100
AcDbLine
 10
354.639612412
 20
13.5764433077
 30
0.0
 11
354.0843250315
 21
13.5764433077
 31
0.0
  0
LINE
  5
AE
330
1F
100
AcDbEntity
  8
0
  6
SLD-実線
 62
   179
370
    18
100
AcDbLine
 10
354.0843250315
 20
13.5764433077
 30
0.0
 11
354.3597259646
 21
14.3579838891
 31
0.0
  0
LINE
  5
AF
330
1F
100
AcDbEntity
  8
0
  6
SLD-実線
 62
   179
370
    18
100
AcDbLine
 10
353.4990859908
 20
12.8543237332
 30
0.0
 11
353.8275413944
 21
12.8543237332
 31
0.0
  0
LINE
  5
B0
330
1F
100
AcDbEntity
  8
0
  6
SLD-実線
 62
   179
370
    18
100
AcDbLine
 10
353.8275413944
 20
12.8543237332
 30
0.0
 11
353.9986661773
 21
13.3345149224
 31
0.0
  0
LINE
  5
B1
330
1F
100
AcDbEntity
  8
0
  6
SLD-実線
 62
   179
370
    18
100
AcDbLine
 10
353.9986661773
 20
13.3345149224
 30
0.0
 11
354.7231490873
 21
13.3345149224
 31
0.0
  0
LINE
  5
B2
330
1F
100
AcDbEntity
  8
レイヤー_1
 62
     7
370
    35
100
AcDbLine
 10
260.0
 20
63.9183039484
 30
0.0
 11
410.0
 21
63.9183039484
 31
0.0
  0
LINE
  5
B3
330
1F
100
AcDbEntity
  8
FORMAT
370
    50
100
AcDbLine
 10
410.0
 20
26.4821127524
 30
0.0
 11
260.0
 21
26.4821127524
 31
0.0
  0
LINE
  5
B4
330
1F
100
AcDbEntity
  8
FORMAT
370
    50
100
AcDbLine
 10
333.0
 20
10.0
 30
0.0
 11
333.0
 21
71.4183039484
 31
0.0
  0
LINE
  5
B5
330
1F
100
AcDbEntity
  8
0
  6
SLD-実線
 62
   179
370
    18
100
AcDbLine
 10
354.7231490873
 20
13.3345149224
 30
0.0
 11
354.8937915569
 21
12.8543237332
 31
0.0
  0
LINE
  5
B6
330
1F
100
AcDbEntity
  8
0
  6
SLD-実線
 62
   179
370
    18
100
AcDbLine
 10
354.8937915569
 20
12.8543237332
 30
0.0
 11
355.2351247274
 21
12.8543237332
 31
0.0
  0
LINE
  5
B7
330
1F
100
AcDbEntity
  8
0
  6
SLD-実線
 62
   179
370
    18
100
AcDbLine
 10
355.2351247274
 20
12.8543237332
 30
0.0
 11
354.5349986425
 21
14.6703300262
 31
0.0
  0
LINE
  5
B8
330
1F
100
AcDbEntity
  8
0
  6
SLD-実線
 62
   179
370
    18
100
AcDbLine
 10
354.5349986425
 20
14.6703300262
 30
0.0
 11
354.1959805762
 21
14.6703300262
 31
0.0
  0
LINE
  5
B9
330
1F
100
AcDbEntity
  8
0
  6
SLD-実線
 62
   179
370
    18
100
AcDbLine
 10
354.1959805762
 20
14.6703300262
 30
0.0
 11
353.4990859908
 21
12.8543237332
 31
0.0
  0
LINE
  5
BA
330
1F
100
AcDbEntity
  8
0
  6
SLD-実線
 62
   179
370
    18
100
AcDbLine
 10
355.4076964504
 20
14.6703300262
 30
0.0
 11
355.7256374226
 21
14.6703300262
 31
0.0
  0
LINE
  5
BB
330
1F
100
AcDbEntity
  8
0
  6
SLD-実線
 62
   179
370
    18
100
AcDbLine
 10
355.7256374226
 20
14.6703300262
 30
0.0
 11
355.7256374226
 21
13.8440307642
 31
0.0
  0
LINE
  5
BC
330
1F
100
AcDbEntity
  8
0
  6
SLD-実線
 62
   179
370
    18
100
AcDbLine
 10
355.7256374226
 20
13.8440307642
 30
0.0
 11
356.5350074853
 21
14.6703300262
 31
0.0
  0
LINE
  5
BD
330
1F
100
AcDbEntity
  8
0
  6
SLD-実線
 62
   179
370
    18
100
AcDbLine
 10
356.5350074853
 20
14.6703300262
 30
0.0
 11
356.9267424027
 21
14.6703300262
 31
0.0
  0
LINE
  5
BE
330
1F
100
AcDbEntity
  8
0
  6
SLD-実線
 62
   179
370
    18
100
AcDbLine
 10
356.9267424027
 20
14.6703300262
 30
0.0
 11
356.201584254
 21
13.9460882729
 31
0.0
  0
LINE
  5
BF
330
1F
100
AcDbEntity
  8
0
  6
SLD-実線
 62
     7
370
    35
100
AcDbLine
 10
210.0
 20
282.0
 30
0.0
 11
210.0
 21
297.0
 31
0.0
  0
LINE
  5
C0
330
1F
100
AcDbEntity
  8
0
  6
SLD-実線
 62
     7
370
    35
100
AcDbLine
 10
210.0
 20
10.0
 30
0.0
 11
210.0
 21
0.0
 31
0.0
  0
LINE
  5
C1
330
1F
100
AcDbEntity
  8
FORMAT
370
    70
100
AcDbLine
 10
410.0
 20
287.0
 30
0.0
 11
10.0
 21
287.0
 31
0.0
  0
LINE
  5
C2
330
1F
100
AcDbEntity
  8
0
  6
SLD-実線
 62
     7
370
    35
100
AcDbLine
 10
260.0
 20
287.0
 30
0.0
 11
260.0
 21
297.0
 31
0.0
  0
LINE
  5
C3
330
1F
100
AcDbEntity
  8
FORMAT
370
    70
100
AcDbLine
 10
10.0
 20
287.0
 30
0.0
 11
10.0
 21
10.0
 31
0.0
  0
LINE
  5
C4
330
1F
100
AcDbEntity
  8
0
  6
SLD-実線
 62
     7
370
    35
100
AcDbLine
 10
260.0
 20
10.0
 30
0.0
 11
260.0
 21
0.0
 31
0.0
  0
LINE
  5
C5
330
1F
100
AcDbEntity
  8
0
  6
SLD-実線
 62
     7
370
    35
100
AcDbLine
 10
310.0
 20
287.0
 30
0.0
 11
310.0
 21
297.0
 31
0.0
  0
LINE
  5
C6
330
1F
100
AcDbEntity
  8
0
  6
SLD-実線
 62
     7
370
    35
100
AcDbLine
 10
309.9987854449
 20
10.0
 30
0.0
 11
309.9987854449
 21
0.0
 31
0.0
  0
LINE
  5
C7
330
1F
100
AcDbEntity
  8
0
  6
SLD-実線
 62
     7
370
    35
100
AcDbLine
 10
360.0
 20
287.0
 30
0.0
 11
360.0
 21
297.0
 31
0.0
  0
LINE
  5
C8
330
1F
100
AcDbEntity
  8
0
  6
SLD-実線
 62
     7
370
    35
100
AcDbLine
 10
360.0039151785
 20
10.0
 30
0.0
 11
360.0039151785
 21
0.0
 31
0.0
  0
LINE
  5
C9
330
1F
100
AcDbEntity
  8
0
  6
SLD-実線
 62
     7
370
    35
100
AcDbLine
 10
410.0
 20
248.5
 30
0.0
 11
420.0
 21
248.5
 31
0.0
  0
LINE
  5
CA
330
1F
100
AcDbEntity
  8
0
  6
SLD-実線
 62
     7
370
    35
100
AcDbLine
 10
10.0
 20
248.5
 30
0.0
 11
0.0
 21
248.5
 31
0.0
  0
LINE
  5
CB
330
1F
100
AcDbEntity
  8
0
  6
SLD-実線
 62
     7
370
    35
100
AcDbLine
 10
410.0
 20
198.5
 30
0.0
 11
420.0
 21
198.5
 31
0.0
  0
LINE
  5
CC
330
1F
100
AcDbEntity
  8
0
  6
SLD-実線
 62
     7
370
    35
100
AcDbLine
 10
10.0
 20
198.5
 30
0.0
 11
0.0
 21
198.5
 31
0.0
  0
LINE
  5
CD
330
1F
100
AcDbEntity
  8
0
  6
SLD-実線
 62
   179
370
    18
100
AcDbLine
 10
356.201584254
 20
13.9460882729
 30
0.0
 11
356.977337075
 21
12.8543237332
 31
0.0
  0
LINE
  5
CE
330
1F
100
AcDbEntity
  8
0
  6
SLD-実線
 62
     7
370
    35
100
AcDbLine
 10
15.0
 20
148.5
 30
0.0
 11
0.0
 21
148.5
 31
0.0
  0
LINE
  5
CF
330
1F
100
AcDbEntity
  8
0
  6
SLD-実線
 62
     7
370
    35
100
AcDbLine
 10
410.0
 20
98.5
 30
0.0
 11
420.0
 21
98.5
 31
0.0
  0
LINE
  5
D0
330
1F
100
AcDbEntity
  8
0
  6
SLD-実線
 62
     7
370
    35
100
AcDbLine
 10
10.0
 20
98.5
 30
0.0
 11
0.0
 21
98.5
 31
0.0
  0
LINE
  5
D1
330
1F
100
AcDbEntity
  8
0
  6
SLD-実線
 62
   179
370
    18
100
AcDbLine
 10
356.977337075
 20
12.8543237332
 30
0.0
 11
356.5807790239
 21
12.8543237332
 31
0.0
  0
LINE
  5
D2
330
1F
100
AcDbEntity
  8
0
  6
SLD-実線
 62
   179
370
    18
100
AcDbLine
 10
356.5807790239
 20
12.8543237332
 30
0.0
 11
355.9854596339
 21
13.7217160941
 31
0.0
  0
LINE
  5
D3
330
1F
100
AcDbEntity
  8
0
  6
SLD-実線
 62
     7
370
    35
100
AcDbLine
 10
410.0
 20
48.5
 30
0.0
 11
420.0
 21
48.5
 31
0.0
  0
LINE
  5
D4
330
1F
100
AcDbEntity
  8
0
  6
SLD-実線
 62
     7
370
    35
100
AcDbLine
 10
10.0
 20
48.5
 30
0.0
 11
0.0
 21
48.5
 31
0.0
  0
LINE
  5
D5
330
1F
100
AcDbEntity
  8
0
  6
SLD-実線
 62
   179
370
    18
100
AcDbLine
 10
355.9854596339
 20
13.7217160941
 30
0.0
 11
355.7256374226
 21
13.463774905
 31
0.0
  0
LINE
  5
D6
330
1F
100
AcDbEntity
  8
0
  6
SLD-実線
 62
   179
370
    18
100
AcDbLine
 10
355.7256374226
 20
13.463774905
 30
0.0
 11
355.7256374226
 21
12.8543237332
 31
0.0
  0
LINE
  5
D7
330
1F
100
AcDbEntity
  8
0
  6
SLD-実線
 62
   179
370
    18
100
AcDbLine
 10
355.7256374226
 20
12.8543237332
 30
0.0
 11
355.4076964504
 21
12.8543237332
 31
0.0
  0
LINE
  5
D8
330
1F
100
AcDbEntity
  8
0
  6
SLD-実線
 62
   179
370
    18
100
AcDbLine
 10
355.4076964504
 20
12.8543237332
 30
0.0
 11
355.4076964504
 21
14.6703300262
 31
0.0
  0
LINE
  5
D9
330
1F
100
AcDbEntity
  8
0
  6
SLD-実線
 62
   179
370
    18
100
AcDbLine
 10
357.7991025913
 20
14.3579838891
 30
0.0
 11
357.8044080384
 21
14.3579838891
 31
0.0
  0
LINE
  5
DA
330
1F
100
AcDbEntity
  8
0
  6
SLD-実線
 62
   179
370
    18
100
AcDbLine
 10
357.8044080384
 20
14.3579838891
 30
0.0
 11
357.8067713739
 21
14.3579838891
 31
0.0
  0
LINE
  5
DB
330
1F
100
AcDbEntity
  8
0
  6
SLD-実線
 62
   179
370
    18
100
AcDbLine
 10
357.8067713739
 20
14.3579838891
 30
0.0
 11
358.0789890387
 21
13.5764433077
 31
0.0
  0
LINE
  5
DC
330
1F
100
AcDbEntity
  8
0
  6
SLD-実線
 62
   179
370
    18
100
AcDbLine
 10
358.0789890387
 20
13.5764433077
 30
0.0
 11
357.5241357403
 21
13.5764433077
 31
0.0
  0
LINE
  5
DD
330
1F
100
AcDbEntity
  8
0
  6
SLD-実線
 62
   179
370
    18
100
AcDbLine
 10
357.5241357403
 20
13.5764433077
 30
0.0
 11
357.7991025913
 21
14.3579838891
 31
0.0
  0
LINE
  5
DE
330
1F
100
AcDbEntity
  8
0
  6
SLD-実線
 62
   179
370
    18
100
AcDbLine
 10
356.9397648637
 20
12.8543237332
 30
0.0
 11
357.2676897225
 21
12.8543237332
 31
0.0
  0
LINE
  5
DF
330
1F
100
AcDbEntity
  8
0
  6
SLD-実線
 62
   179
370
    18
100
AcDbLine
 10
357.2676897225
 20
12.8543237332
 30
0.0
 11
357.4380428041
 21
13.3345149224
 31
0.0
  0
LINE
  5
E0
330
1F
100
AcDbEntity
  8
0
  6
SLD-実線
 62
   179
370
    18
100
AcDbLine
 10
357.4380428041
 20
13.3345149224
 30
0.0
 11
358.1628633334
 21
13.3345149224
 31
0.0
  0
LINE
  5
E1
330
1F
100
AcDbEntity
  8
0
  6
SLD-実線
 62
   179
370
    18
100
AcDbLine
 10
358.1628633334
 20
13.3345149224
 30
0.0
 11
358.333361109
 21
12.8543237332
 31
0.0
  0
LINE
  5
E2
330
1F
100
AcDbEntity
  8
0
  6
SLD-実線
 62
   179
370
    18
100
AcDbLine
 10
358.333361109
 20
12.8543237332
 30
0.0
 11
358.6749354362
 21
12.8543237332
 31
0.0
  0
LINE
  5
E3
330
1F
100
AcDbEntity
  8
0
  6
SLD-実線
 62
   179
370
    18
100
AcDbLine
 10
358.6749354362
 20
12.8543237332
 30
0.0
 11
357.9747128886
 21
14.6703300262
 31
0.0
  0
LINE
  5
E4
330
1F
100
AcDbEntity
  8
0
  6
SLD-実線
 62
   179
370
    18
100
AcDbLine
 10
357.9747128886
 20
14.6703300262
 30
0.0
 11
357.636804143
 21
14.6703300262
 31
0.0
  0
LINE
  5
E5
330
1F
100
AcDbEntity
  8
0
  6
SLD-実線
 62
   179
370
    18
100
AcDbLine
 10
357.636804143
 20
14.6703300262
 30
0.0
 11
356.9397648637
 21
12.8543237332
 31
0.0
  0
LINE
  5
E6
330
1F
100
AcDbEntity
  8
0
  6
SLD-実線
 62
   179
370
    18
100
AcDbLine
 10
360.1686117053
 20
14.1338046357
 30
0.0
 11
359.8499954945
 21
14.1338046357
 31
0.0
  0
LINE
  5
E7
330
1F
100
AcDbEntity
  8
0
  6
SLD-実線
 62
   179
370
    18
100
AcDbLine
 10
358.7384078754
 20
13.4603022487
 30
0.0
 11
359.0561076908
 21
13.4603022487
 31
0.0
  0
LINE
  5
E8
330
1F
100
AcDbEntity
  8
0
  6
SLD-実線
 62
   179
370
    18
100
AcDbLine
 10
360.4882407742
 20
14.6703300262
 30
0.0
 11
360.8073392985
 21
14.6703300262
 31
0.0
  0
LINE
  5
E9
330
1F
100
AcDbEntity
  8
0
  6
SLD-実線
 62
   179
370
    18
100
AcDbLine
 10
360.8073392985
 20
14.6703300262
 30
0.0
 11
360.8073392985
 21
13.947824601
 31
0.0
  0
LINE
  5
EA
330
1F
100
AcDbEntity
  8
0
  6
SLD-実線
 62
   179
370
    18
100
AcDbLine
 10
360.8073392985
 20
13.947824601
 30
0.0
 11
361.6340244111
 21
13.947824601
 31
0.0
  0
LINE
  5
EB
330
1F
100
AcDbEntity
  8
0
  6
SLD-実線
 62
   179
370
    18
100
AcDbLine
 10
361.6340244111
 20
13.947824601
 30
0.0
 11
361.6340244111
 21
14.6703300262
 31
0.0
  0
LINE
  5
EC
330
1F
100
AcDbEntity
  8
0
  6
SLD-実線
 62
   179
370
    18
100
AcDbLine
 10
361.6340244111
 20
14.6703300262
 30
0.0
 11
361.9515313012
 21
14.6703300262
 31
0.0
  0
LINE
  5
ED
330
1F
100
AcDbEntity
  8
0
  6
SLD-実線
 62
   179
370
    18
100
AcDbLine
 10
361.9515313012
 20
14.6703300262
 30
0.0
 11
361.9515313012
 21
12.8543237332
 31
0.0
  0
LINE
  5
EE
330
1F
100
AcDbEntity
  8
0
  6
SLD-実線
 62
   179
370
    18
100
AcDbLine
 10
361.9515313012
 20
12.8543237332
 30
0.0
 11
361.6340244111
 21
12.8543237332
 31
0.0
  0
LINE
  5
EF
330
1F
100
AcDbEntity
  8
0
  6
SLD-実線
 62
   179
370
    18
100
AcDbLine
 10
361.6340244111
 20
12.8543237332
 30
0.0
 11
361.6340244111
 21
13.6740635334
 31
0.0
  0
LINE
  5
F0
330
1F
100
AcDbEntity
  8
0
  6
SLD-実線
 62
   179
370
    18
100
AcDbLine
 10
361.6340244111
 20
13.6740635334
 30
0.0
 11
360.8073392985
 21
13.6740635334
 31
0.0
  0
LINE
  5
F1
330
1F
100
AcDbEntity
  8
0
  6
SLD-実線
 62
   179
370
    18
100
AcDbLine
 10
360.8073392985
 20
13.6740635334
 30
0.0
 11
360.8073392985
 21
12.8543237332
 31
0.0
  0
LINE
  5
F2
330
1F
100
AcDbEntity
  8
0
  6
SLD-実線
 62
   179
370
    18
100
AcDbLine
 10
360.8073392985
 20
12.8543237332
 30
0.0
 11
360.4882407742
 21
12.8543237332
 31
0.0
  0
LINE
  5
F3
330
1F
100
AcDbEntity
  8
0
  6
SLD-実線
 62
   179
370
    18
100
AcDbLine
 10
360.4882407742
 20
12.8543237332
 30
0.0
 11
360.4882407742
 21
14.6703300262
 31
0.0
  0
LINE
  5
F4
330
1F
100
AcDbEntity
  8
0
  6
SLD-実線
 62
   179
370
    18
100
AcDbLine
 10
365.2920336875
 20
14.4110383596
 30
0.0
 11
365.6052479887
 21
14.4110383596
 31
0.0
  0
LINE
  5
F5
330
1F
100
AcDbEntity
  8
0
  6
SLD-実線
 62
   179
370
    18
100
AcDbLine
 10
365.6052479887
 20
13.1140012505
 30
0.0
 11
365.2920336875
 21
13.1140012505
 31
0.0
  0
LINE
  5
F6
330
1F
100
AcDbEntity
  8
0
  6
SLD-実線
 62
   179
370
    18
100
AcDbLine
 10
365.2920336875
 20
13.1140012505
 30
0.0
 11
365.2920336875
 21
14.4110383596
 31
0.0
  0
LINE
  5
F7
330
1F
100
AcDbEntity
  8
0
  6
SLD-実線
 62
   179
370
    18
100
AcDbLine
 10
364.97389979
 20
12.8543237332
 30
0.0
 11
365.726598032
 21
12.8543237332
 31
0.0
  0
LINE
  5
F8
330
1F
100
AcDbEntity
  8
0
  6
SLD-実線
 62
   179
370
    18
100
AcDbLine
 10
365.726598032
 20
14.6703300262
 30
0.0
 11
364.97389979
 21
14.6703300262
 31
0.0
  0
LINE
  5
F9
330
1F
100
AcDbEntity
  8
0
  6
SLD-実線
 62
   179
370
    18
100
AcDbLine
 10
364.97389979
 20
14.6703300262
 30
0.0
 11
364.97389979
 21
12.8543237332
 31
0.0
  0
LINE
  5
FA
330
1F
100
AcDbEntity
  8
0
  6
SLD-実線
 62
   179
370
    18
100
AcDbLine
 10
366.8111278712
 20
14.6703300262
 30
0.0
 11
367.1292617687
 21
14.6703300262
 31
0.0
  0
LINE
  5
FB
330
1F
100
AcDbEntity
  8
0
  6
SLD-実線
 62
   179
370
    18
100
AcDbLine
 10
367.1292617687
 20
14.6703300262
 30
0.0
 11
367.1292617687
 21
12.8543237332
 31
0.0
  0
LINE
  5
FC
330
1F
100
AcDbEntity
  8
0
  6
SLD-実線
 62
   179
370
    18
100
AcDbLine
 10
367.1292617687
 20
12.8543237332
 30
0.0
 11
366.8111278712
 21
12.8543237332
 31
0.0
  0
LINE
  5
FD
330
1F
100
AcDbEntity
  8
0
  6
SLD-実線
 62
   179
370
    18
100
AcDbLine
 10
366.8111278712
 20
12.8543237332
 30
0.0
 11
366.8111278712
 21
14.6703300262
 31
0.0
  0
LINE
  5
FE
330
1F
100
AcDbEntity
  8
0
  6
SLD-実線
 62
   179
370
    18
100
AcDbLine
 10
369.1037562343
 20
12.8543237332
 30
0.0
 11
368.899641217
 21
12.8543237332
 31
0.0
  0
LINE
  5
FF
330
1F
100
AcDbEntity
  8
0
  6
SLD-実線
 62
   179
370
    18
100
AcDbLine
 10
368.899641217
 20
12.8543237332
 30
0.0
 11
368.8515063429
 21
13.0678920926
 31
0.0
  0
LINE
  5
100
330
1F
100
AcDbEntity
  8
0
  6
SLD-実線
 62
   179
370
    18
100
AcDbLine
 10
369.0830167595
 20
14.0932903128
 30
0.0
 11
368.7722140252
 21
14.0932903128
 31
0.0
  0
LINE
  5
101
330
1F
100
AcDbEntity
  8
0
  6
SLD-実線
 62
   179
370
    18
100
AcDbLine
 10
368.8134035868
 20
13.5693050699
 30
0.0
 11
368.3292574281
 21
13.5693050699
 31
0.0
  0
LINE
  5
102
330
1F
100
AcDbEntity
  8
0
  6
SLD-実線
 62
   179
370
    18
100
AcDbLine
 10
368.3292574281
 20
13.5693050699
 30
0.0
 11
368.3292574281
 21
13.8110405299
 31
0.0
  0
LINE
  5
103
330
1F
100
AcDbEntity
  8
0
  6
SLD-実線
 62
   179
370
    18
100
AcDbLine
 10
368.3292574281
 20
13.8110405299
 30
0.0
 11
369.1037562343
 21
13.8110405299
 31
0.0
  0
LINE
  5
104
330
1F
100
AcDbEntity
  8
0
  6
SLD-実線
 62
   179
370
    18
100
AcDbLine
 10
369.1037562343
 20
13.8110405299
 30
0.0
 11
369.1037562343
 21
12.8543237332
 31
0.0
  0
LINE
  5
105
330
1F
100
AcDbEntity
  8
0
  6
SLD-実線
 62
   179
370
    18
100
AcDbLine
 10
369.4493819938
 20
14.6703300262
 30
0.0
 11
369.7670335779
 21
14.6703300262
 31
0.0
  0
LINE
  5
106
330
1F
100
AcDbEntity
  8
0
  6
SLD-実線
 62
   179
370
    18
100
AcDbLine
 10
369.7670335779
 20
14.6703300262
 30
0.0
 11
369.7670335779
 21
12.8543237332
 31
0.0
  0
LINE
  5
107
330
1F
100
AcDbEntity
  8
0
  6
SLD-実線
 62
   179
370
    18
100
AcDbLine
 10
369.7670335779
 20
12.8543237332
 30
0.0
 11
369.4493819938
 21
12.8543237332
 31
0.0
  0
LINE
  5
108
330
1F
100
AcDbEntity
  8
0
  6
SLD-実線
 62
   179
370
    18
100
AcDbLine
 10
369.4493819938
 20
12.8543237332
 30
0.0
 11
369.4493819938
 21
14.6703300262
 31
0.0
  0
LINE
  5
109
330
1F
100
AcDbEntity
  8
0
  6
SLD-実線
 62
   179
370
    18
100
AcDbLine
 10
369.9834958174
 20
14.6703300262
 30
0.0
 11
371.4543586643
 21
14.6703300262
 31
0.0
  0
LINE
  5
10A
330
1F
100
AcDbEntity
  8
0
  6
SLD-実線
 62
   179
370
    18
100
AcDbLine
 10
371.4543586643
 20
14.6703300262
 30
0.0
 11
371.4543586643
 21
14.3961831079
 31
0.0
  0
LINE
  5
10B
330
1F
100
AcDbEntity
  8
0
  6
SLD-実線
 62
   179
370
    18
100
AcDbLine
 10
371.4543586643
 20
14.3961831079
 30
0.0
 11
370.8765472495
 21
14.3961831079
 31
0.0
  0
LINE
  5
10C
330
1F
100
AcDbEntity
  8
0
  6
SLD-実線
 62
   179
370
    18
100
AcDbLine
 10
370.8765472495
 20
14.3961831079
 30
0.0
 11
370.8765472495
 21
12.8543237332
 31
0.0
  0
LINE
  5
10D
330
1F
100
AcDbEntity
  8
0
  6
SLD-実線
 62
   179
370
    18
100
AcDbLine
 10
370.8765472495
 20
12.8543237332
 30
0.0
 11
370.5588956654
 21
12.8543237332
 31
0.0
  0
LINE
  5
10E
330
1F
100
AcDbEntity
  8
0
  6
SLD-実線
 62
   179
370
    18
100
AcDbLine
 10
370.5588956654
 20
12.8543237332
 30
0.0
 11
370.5588956654
 21
14.3961831079
 31
0.0
  0
LINE
  5
10F
330
1F
100
AcDbEntity
  8
0
  6
SLD-実線
 62
   179
370
    18
100
AcDbLine
 10
370.5588956654
 20
14.3961831079
 30
0.0
 11
369.9834958174
 21
14.3961831079
 31
0.0
  0
LINE
  5
110
330
1F
100
AcDbEntity
  8
0
  6
SLD-実線
 62
   179
370
    18
100
AcDbLine
 10
369.9834958174
 20
14.3961831079
 30
0.0
 11
369.9834958174
 21
14.6703300262
 31
0.0
  0
LINE
  5
111
330
1F
100
AcDbEntity
  8
0
  6
SLD-実線
 62
   179
370
    18
100
AcDbLine
 10
371.6651296061
 20
14.6703300262
 30
0.0
 11
372.9727776092
 21
14.6703300262
 31
0.0
  0
LINE
  5
112
330
1F
100
AcDbEntity
  8
0
  6
SLD-実線
 62
   179
370
    18
100
AcDbLine
 10
372.9727776092
 20
14.6703300262
 30
0.0
 11
372.9727776092
 21
14.3961831079
 31
0.0
  0
LINE
  5
113
330
1F
100
AcDbEntity
  8
0
  6
SLD-実線
 62
   179
370
    18
100
AcDbLine
 10
372.9727776092
 20
14.3961831079
 30
0.0
 11
371.9836493543
 21
14.3961831079
 31
0.0
  0
LINE
  5
114
330
1F
100
AcDbEntity
  8
0
  6
SLD-実線
 62
   179
370
    18
100
AcDbLine
 10
371.9836493543
 20
14.3961831079
 30
0.0
 11
371.9836493543
 21
13.9196575003
 31
0.0
  0
LINE
  5
115
330
1F
100
AcDbEntity
  8
0
  6
SLD-実線
 62
   179
370
    18
100
AcDbLine
 10
371.9836493543
 20
13.9196575003
 30
0.0
 11
372.8988872013
 21
13.9196575003
 31
0.0
  0
LINE
  5
116
330
1F
100
AcDbEntity
  8
0
  6
SLD-実線
 62
   179
370
    18
100
AcDbLine
 10
372.8988872013
 20
13.9196575003
 30
0.0
 11
372.8988872013
 21
13.6611375351
 31
0.0
  0
LINE
  5
117
330
1F
100
AcDbEntity
  8
0
  6
SLD-実線
 62
   179
370
    18
100
AcDbLine
 10
372.8988872013
 20
13.6611375351
 30
0.0
 11
371.9836493543
 21
13.6611375351
 31
0.0
  0
LINE
  5
118
330
1F
100
AcDbEntity
  8
0
  6
SLD-実線
 62
   179
370
    18
100
AcDbLine
 10
371.9836493543
 20
13.6611375351
 30
0.0
 11
371.9836493543
 21
13.1294352783
 31
0.0
  0
LINE
  5
119
330
1F
100
AcDbEntity
  8
0
  6
SLD-実線
 62
   179
370
    18
100
AcDbLine
 10
371.9836493543
 20
13.1294352783
 30
0.0
 11
372.9899479651
 21
13.1294352783
 31
0.0
  0
LINE
  5
11A
330
1F
100
AcDbEntity
  8
0
  6
SLD-実線
 62
   179
370
    18
100
AcDbLine
 10
372.9899479651
 20
13.1294352783
 30
0.0
 11
372.9899479651
 21
12.8543237332
 31
0.0
  0
LINE
  5
11B
330
1F
100
AcDbEntity
  8
0
  6
SLD-実線
 62
   179
370
    18
100
AcDbLine
 10
372.9899479651
 20
12.8543237332
 30
0.0
 11
371.6651296061
 21
12.8543237332
 31
0.0
  0
LINE
  5
11C
330
1F
100
AcDbEntity
  8
0
  6
SLD-実線
 62
   179
370
    18
100
AcDbLine
 10
371.6651296061
 20
12.8543237332
 30
0.0
 11
371.6651296061
 21
14.6703300262
 31
0.0
  0
LINE
  5
11D
330
1F
100
AcDbEntity
  8
0
  6
SLD-実線
 62
   179
370
    18
100
AcDbLine
 10
374.5048942538
 20
13.5463469535
 30
0.0
 11
374.8149252867
 21
13.5463469535
 31
0.0
  0
LINE
  5
11E
330
1F
100
AcDbEntity
  8
0
  6
SLD-実線
 62
   179
370
    18
100
AcDbLine
 10
374.8131889586
 20
14.0932903128
 30
0.0
 11
374.4947656731
 21
14.0932903128
 31
0.0
  0
LINE
  5
11F
330
1F
100
AcDbEntity
  8
0
  6
SLD-実線
 62
   179
370
    18
100
AcDbLine
 10
377.048711419
 20
13.5463469535
 30
0.0
 11
377.3598035413
 21
13.5463469535
 31
0.0
  0
LINE
  5
120
330
1F
100
AcDbEntity
  8
0
  6
SLD-実線
 62
   179
370
    18
100
AcDbLine
 10
377.3566202731
 20
14.0932903128
 30
0.0
 11
377.0381005249
 21
14.0932903128
 31
0.0
  0
LINE
  5
121
330
1F
100
AcDbEntity
  8
0
  6
SLD-実線
 62
   179
370
    18
100
AcDbLine
 10
379.5651331848
 20
13.1977308512
 30
0.0
 11
379.9191511969
 21
13.1977308512
 31
0.0
  0
LINE
  5
122
330
1F
100
AcDbEntity
  8
0
  6
SLD-実線
 62
   179
370
    18
100
AcDbLine
 10
379.9191511969
 20
13.1977308512
 30
0.0
 11
379.9191511969
 21
12.8543237332
 31
0.0
  0
LINE
  5
123
330
1F
100
AcDbEntity
  8
0
  6
SLD-実線
 62
   179
370
    18
100
AcDbLine
 10
379.9191511969
 20
12.8543237332
 30
0.0
 11
379.5651331848
 21
12.8543237332
 31
0.0
  0
LINE
  5
124
330
1F
100
AcDbEntity
  8
0
  6
SLD-実線
 62
   179
370
    18
100
AcDbLine
 10
379.5651331848
 20
12.8543237332
 30
0.0
 11
379.5651331848
 21
13.1977308512
 31
0.0
  0
LINE
  5
125
330
1F
100
AcDbEntity
  8
0
  6
SLD-実線
 62
   179
370
    18
100
AcDbLine
 10
380.2720116569
 20
13.1977308512
 30
0.0
 11
380.6261261316
 21
13.1977308512
 31
0.0
  0
LINE
  5
126
330
1F
100
AcDbEntity
  8
0
  6
SLD-実線
 62
   179
370
    18
100
AcDbLine
 10
380.6261261316
 20
13.1977308512
 30
0.0
 11
380.6261261316
 21
12.8543237332
 31
0.0
  0
LINE
  5
127
330
1F
100
AcDbEntity
  8
0
  6
SLD-実線
 62
   179
370
    18
100
AcDbLine
 10
380.282622551
 20
12.4524602351
 30
0.0
 11
380.282622551
 21
12.6071863635
 31
0.0
  0
LINE
  5
128
330
1F
100
AcDbEntity
  8
0
  6
SLD-実線
 62
   179
370
    18
100
AcDbLine
 10
380.4484418869
 20
12.8543237332
 30
0.0
 11
380.2720116569
 21
12.8543237332
 31
0.0
  0
LINE
  5
129
330
1F
100
AcDbEntity
  8
0
  6
SLD-実線
 62
   179
370
    18
100
AcDbLine
 10
380.2720116569
 20
12.8543237332
 30
0.0
 11
380.2720116569
 21
13.1977308512
 31
0.0
  0
LINE
  5
12A
330
1F
100
AcDbEntity
  8
0
  6
SLD-実線
 62
   179
370
    18
100
AcDbLine
 10
380.9976038876
 20
14.6703300262
 30
0.0
 11
381.3161236358
 21
14.6703300262
 31
0.0
  0
LINE
  5
12B
330
1F
100
AcDbEntity
  8
0
  6
SLD-実線
 62
   179
370
    18
100
AcDbLine
 10
381.3161236358
 20
14.6703300262
 30
0.0
 11
381.3161236358
 21
13.1294352783
 31
0.0
  0
LINE
  5
12C
330
1F
100
AcDbEntity
  8
0
  6
SLD-実線
 62
   179
370
    18
100
AcDbLine
 10
381.3161236358
 20
13.1294352783
 30
0.0
 11
382.2391749593
 21
13.1294352783
 31
0.0
  0
LINE
  5
12D
330
1F
100
AcDbEntity
  8
0
  6
SLD-実線
 62
   179
370
    18
100
AcDbLine
 10
382.2391749593
 20
13.1294352783
 30
0.0
 11
382.2391749593
 21
12.8543237332
 31
0.0
  0
LINE
  5
12E
330
1F
100
AcDbEntity
  8
0
  6
SLD-実線
 62
   179
370
    18
100
AcDbLine
 10
382.2391749593
 20
12.8543237332
 30
0.0
 11
380.9976038876
 21
12.8543237332
 31
0.0
  0
LINE
  5
12F
330
1F
100
AcDbEntity
  8
0
  6
SLD-実線
 62
   179
370
    18
100
AcDbLine
 10
380.9976038876
 20
12.8543237332
 30
0.0
 11
380.9976038876
 21
14.6703300262
 31
0.0
  0
LINE
  5
130
330
1F
100
AcDbEntity
  8
0
  6
SLD-実線
 62
   179
370
    18
100
AcDbLine
 10
382.0508798205
 20
14.6703300262
 30
0.0
 11
383.5214532793
 21
14.6703300262
 31
0.0
  0
LINE
  5
131
330
1F
100
AcDbEntity
  8
0
  6
SLD-実線
 62
   179
370
    18
100
AcDbLine
 10
383.5214532793
 20
14.6703300262
 30
0.0
 11
383.5214532793
 21
14.3961831079
 31
0.0
  0
LINE
  5
132
330
1F
100
AcDbEntity
  8
0
  6
SLD-実線
 62
   179
370
    18
100
AcDbLine
 10
383.5214532793
 20
14.3961831079
 30
0.0
 11
382.9446064913
 21
14.3961831079
 31
0.0
  0
LINE
  5
133
330
1F
100
AcDbEntity
  8
0
  6
SLD-実線
 62
   179
370
    18
100
AcDbLine
 10
382.9446064913
 20
14.3961831079
 30
0.0
 11
382.9446064913
 21
12.8543237332
 31
0.0
  0
LINE
  5
134
330
1F
100
AcDbEntity
  8
0
  6
SLD-実線
 62
   179
370
    18
100
AcDbLine
 10
382.9446064913
 20
12.8543237332
 30
0.0
 11
382.6257973551
 21
12.8543237332
 31
0.0
  0
LINE
  5
135
330
1F
100
AcDbEntity
  8
0
  6
SLD-実線
 62
   179
370
    18
100
AcDbLine
 10
382.6257973551
 20
12.8543237332
 30
0.0
 11
382.6257973551
 21
14.3961831079
 31
0.0
  0
LINE
  5
136
330
1F
100
AcDbEntity
  8
0
  6
SLD-実線
 62
   179
370
    18
100
AcDbLine
 10
382.6257973551
 20
14.3961831079
 30
0.0
 11
382.0508798205
 21
14.3961831079
 31
0.0
  0
LINE
  5
137
330
1F
100
AcDbEntity
  8
0
  6
SLD-実線
 62
   179
370
    18
100
AcDbLine
 10
382.0508798205
 20
14.3961831079
 30
0.0
 11
382.0508798205
 21
14.6703300262
 31
0.0
  0
LINE
  5
138
330
1F
100
AcDbEntity
  8
0
  6
SLD-実線
 62
   179
370
    18
100
AcDbLine
 10
384.0507439693
 20
14.4110383596
 30
0.0
 11
384.3645370465
 21
14.4110383596
 31
0.0
  0
LINE
  5
139
330
1F
100
AcDbEntity
  8
0
  6
SLD-実線
 62
   179
370
    18
100
AcDbLine
 10
384.3645370465
 20
13.1140012505
 30
0.0
 11
384.0507439693
 21
13.1140012505
 31
0.0
  0
LINE
  5
13A
330
1F
100
AcDbEntity
  8
0
  6
SLD-実線
 62
   179
370
    18
100
AcDbLine
 10
384.0507439693
 20
13.1140012505
 30
0.0
 11
384.0507439693
 21
14.4110383596
 31
0.0
  0
LINE
  5
13B
330
1F
100
AcDbEntity
  8
0
  6
SLD-実線
 62
   179
370
    18
100
AcDbLine
 10
383.7331888479
 20
12.8543237332
 30
0.0
 11
384.4859835525
 21
12.8543237332
 31
0.0
  0
LINE
  5
13C
330
1F
100
AcDbEntity
  8
0
  6
SLD-実線
 62
   179
370
    18
100
AcDbLine
 10
384.4859835525
 20
14.6703300262
 30
0.0
 11
383.7331888479
 21
14.6703300262
 31
0.0
  0
LINE
  5
13D
330
1F
100
AcDbEntity
  8
0
  6
SLD-実線
 62
   179
370
    18
100
AcDbLine
 10
383.7331888479
 20
14.6703300262
 30
0.0
 11
383.7331888479
 21
12.8543237332
 31
0.0
  0
LINE
  5
13E
330
1F
100
AcDbEntity
  8
0
  6
SLD-実線
 62
   179
370
    18
100
AcDbLine
 10
385.551799633
 20
12.7377936686
 30
0.0
 11
385.9051424063
 21
12.7377936686
 31
0.0
  0
LINE
  5
13F
330
1F
100
AcDbEntity
  8
0
  6
SLD-実線
 62
   179
370
    18
100
AcDbLine
 10
385.9051424063
 20
12.7377936686
 30
0.0
 11
385.9051424063
 21
12.3943865506
 31
0.0
  0
LINE
  5
140
330
1F
100
AcDbEntity
  8
0
  6
SLD-実線
 62
   179
370
    18
100
AcDbLine
 10
385.9051424063
 20
12.3943865506
 30
0.0
 11
385.551799633
 21
12.3943865506
 31
0.0
  0
LINE
  5
141
330
1F
100
AcDbEntity
  8
0
  6
SLD-実線
 62
   179
370
    18
100
AcDbLine
 10
385.551799633
 20
12.3943865506
 30
0.0
 11
385.551799633
 21
12.7377936686
 31
0.0
  0
LINE
  5
142
330
1F
100
AcDbEntity
  8
0
  6
SLD-実線
 62
   179
370
    18
100
AcDbLine
 10
353.3445527877
 20
17.3073783654
 30
0.0
 11
353.3445527877
 21
22.6026968319
 31
0.0
  0
LINE
  5
143
330
1F
100
AcDbEntity
  8
0
  6
SLD-実線
 62
   179
370
    18
100
AcDbLine
 10
352.5633015944
 20
17.561937696
 30
0.0
 11
354.2954335926
 21
16.907347658
 31
0.0
  0
LINE
  5
144
330
1F
100
AcDbEntity
  8
0
  6
SLD-実線
 62
   179
370
    18
100
AcDbLine
 10
354.5795161663
 20
22.9584511721
 30
0.0
 11
352.5633015944
 21
22.9584511721
 31
0.0
  0
LINE
  5
145
330
1F
100
AcDbEntity
  8
0
  6
SLD-実線
 62
   179
370
    18
100
AcDbLine
 10
352.5633015944
 20
22.9584511721
 30
0.0
 11
352.5633015944
 21
17.561937696
 31
0.0
  0
LINE
  5
146
330
1F
100
AcDbEntity
  8
0
  6
SLD-実線
 62
   179
370
    18
100
AcDbLine
 10
359.4666045983
 20
16.8813027361
 30
0.0
 11
359.4666045983
 21
21.1282166348
 31
0.0
  0
LINE
  5
147
330
1F
100
AcDbEntity
  8
0
  6
SLD-実線
 62
   179
370
    18
100
AcDbLine
 10
360.1771486519
 20
21.1282166348
 30
0.0
 11
360.1771486519
 21
16.8813027361
 31
0.0
  0
LINE
  5
148
330
1F
100
AcDbEntity
  8
0
  6
SLD-実線
 62
   179
370
    18
100
AcDbLine
 10
366.538427893
 20
17.4143554704
 30
0.0
 11
366.538427893
 21
19.6981574989
 31
0.0
  0
LINE
  5
149
330
1F
100
AcDbEntity
  8
0
  6
SLD-実線
 62
   179
370
    18
100
AcDbLine
 10
367.3206437131
 20
19.6981574989
 30
0.0
 11
367.3206437131
 21
17.1836167552
 31
0.0
  0
LINE
  5
14A
330
1F
100
AcDbEntity
  8
0
  6
SLD-実線
 62
   179
370
    18
100
AcDbLine
 10
367.1514481836
 20
21.8930209423
 30
0.0
 11
367.0536350326
 21
21.8930209423
 31
0.0
  0
LINE
  5
14B
330
1F
100
AcDbEntity
  8
0
  6
SLD-実線
 62
   179
370
    18
100
AcDbLine
 10
368.8486124627
 20
16.8813027361
 30
0.0
 11
368.8486124627
 21
21.1282166348
 31
0.0
  0
LINE
  5
14C
330
1F
100
AcDbEntity
  8
0
  6
SLD-実線
 62
   179
370
    18
100
AcDbLine
 10
369.5594459044
 20
21.1282166348
 30
0.0
 11
369.5594459044
 21
16.8813027361
 31
0.0
  0
LINE
  5
14D
330
1F
100
AcDbEntity
  8
0
  6
SLD-実線
 62
   179
370
    18
100
AcDbLine
 10
372.5620395451
 20
16.8641323802
 30
0.0
 11
372.5620395451
 21
22.5328096249
 31
0.0
  0
LINE
  5
14E
330
1F
100
AcDbEntity
  8
0
  6
SLD-実線
 62
   179
370
    18
100
AcDbLine
 10
370.6165803442
 20
22.9584511721
 30
0.0
 11
375.2012582944
 21
22.9584511721
 31
0.0
  0
LINE
  5
14F
330
1F
100
AcDbEntity
  8
0
  6
SLD-実線
 62
   179
370
    18
100
AcDbLine
 10
373.3447376786
 20
22.5328096249
 30
0.0
 11
373.3447376786
 21
16.8641323802
 31
0.0
  0
LINE
  5
150
330
1F
100
AcDbEntity
  8
0
  6
SLD-実線
 62
   179
370
    18
100
AcDbLine
 10
376.9506088799
 20
20.3112742522
 30
0.0
 11
378.3282887841
 21
20.3112742522
 31
0.0
  0
LINE
  5
151
330
1F
100
AcDbEntity
  8
0
  6
SLD-実線
 62
   179
370
    18
100
AcDbLine
 10
378.3282887841
 20
19.9202145735
 30
0.0
 11
376.9506088799
 21
19.9202145735
 31
0.0
  0
LINE
  5
152
330
1F
100
AcDbEntity
  8
0
  6
SLD-実線
 62
   179
370
    18
100
AcDbLine
 10
376.9506088799
 20
19.9202145735
 30
0.0
 11
376.9506088799
 21
17.3254168853
 31
0.0
  0
LINE
  5
153
330
1F
100
AcDbEntity
  8
0
  6
SLD-実線
 62
   179
370
    18
100
AcDbLine
 10
379.376548658
 20
16.907347658
 30
0.0
 11
376.1693576866
 21
16.907347658
 31
0.0
  0
LINE
  5
154
330
1F
100
AcDbEntity
  8
0
  6
SLD-実線
 62
   179
370
    18
100
AcDbLine
 10
376.1693576866
 20
16.907347658
 30
0.0
 11
376.1693576866
 21
22.9584511721
 31
0.0
  0
LINE
  5
155
330
1F
100
AcDbEntity
  8
0
  6
SLD-実線
 62
   179
370
    18
100
AcDbLine
 10
376.1693576866
 20
22.9584511721
 30
0.0
 11
379.3230118741
 21
22.9584511721
 31
0.0
  0
LINE
  5
156
330
1F
100
AcDbEntity
  8
0
  6
SLD-実線
 62
   179
370
    18
100
AcDbLine
 10
378.5238186235
 20
22.5229222009
 30
0.0
 11
377.6363620265
 21
22.5405748701
 31
0.0
  0
LINE
  5
157
330
1F
100
AcDbEntity
  8
0
  6
SLD-実線
 62
   179
370
    18
100
AcDbLine
 10
377.6363620265
 20
22.5405748701
 30
0.0
 11
376.9506088799
 21
22.5405748701
 31
0.0
  0
LINE
  5
158
330
1F
100
AcDbEntity
  8
0
  6
SLD-実線
 62
   179
370
    18
100
AcDbLine
 10
376.9506088799
 20
22.5405748701
 30
0.0
 11
376.9506088799
 21
20.3112742522
 31
0.0
  0
LINE
  5
159
330
1F
100
AcDbEntity
  8
0
  6
SLD-実線
 62
   179
370
    18
100
AcDbLine
 10
385.2320258701
 20
21.9983099506
 30
0.0
 11
385.1694215949
 21
21.9898694666
 31
0.0
  0
LINE
  5
15A
330
1F
100
AcDbEntity
  8
0
  6
SLD-実線
 62
   179
370
    18
100
AcDbLine
 10
385.2942442945
 20
17.8411063383
 30
0.0
 11
385.2495820766
 21
17.2810440555
 31
0.0
  0
LINE
  5
15B
330
1F
100
AcDbEntity
  8
レイヤー_1
 62
     7
370
    35
100
AcDbLine
 10
260.0
 20
56.4183039484
 30
0.0
 11
410.0
 21
56.4183039484
 31
0.0
  0
LINE
  5
15C
330
1F
100
AcDbEntity
  8
FORMAT
370
    50
100
AcDbLine
 10
392.7629249112
 20
10.0
 30
0.0
 11
392.7558225395
 21
26.4821127524
 31
0.0
  0
LINE
  5
15D
330
1F
100
AcDbEntity
  8
レイヤー_1
 62
     7
370
    35
100
AcDbLine
 10
260.0
 20
48.9183039484
 30
0.0
 11
410.0
 21
48.9183039484
 31
0.0
  0
LINE
  5
15E
330
1F
100
AcDbEntity
  8
FORMAT
370
    50
100
AcDbLine
 10
260.0
 20
10.0
 30
0.0
 11
260.0
 21
71.4183039484
 31
0.0
  0
LINE
  5
15F
330
1F
100
AcDbEntity
  8
レイヤー_1
 62
     7
370
    35
100
AcDbLine
 10
260.0
 20
41.4183039484
 30
0.0
 11
410.0
 21
41.4183039484
 31
0.0
  0
LINE
  5
160
330
1F
100
AcDbEntity
  8
レイヤー_1
 62
     7
370
    35
100
AcDbLine
 10
260.0
 20
33.9183039484
 30
0.0
 11
410.0
 21
33.9183039484
 31
0.0
  0
LINE
  5
161
330
1F
100
AcDbEntity
  8
FORMAT
 62
     7
100
AcDbLine
 10
333.0
 20
19.4657688322
 30
0.0
 11
260.0
 21
19.4657688322
 31
0.0
  0
LINE
  5
162
330
1F
100
AcDbEntity
  8
FORMAT
370
    50
100
AcDbLine
 10
299.5921729633
 20
10.0
 30
0.0
 11
299.5850705916
 21
26.4821127524
 31
0.0
  0
LINE
  5
163
330
1F
100
AcDbEntity
  8
FORMAT
370
    50
100
AcDbLine
 10
210.0
 20
10.0
 30
0.0
 11
210.0
 21
71.4183039484
 31
0.0
  0
LINE
  5
164
330
1F
100
AcDbEntity
  8
FORMAT
 62
     7
100
AcDbLine
 10
260.0
 20
63.9183039484
 30
0.0
 11
210.0
 21
63.9183039484
 31
0.0
  0
LINE
  5
165
330
1F
100
AcDbEntity
  8
0
  6
SLD-実線
 62
     7
100
AcDbLine
 10
227.6777366283
 20
63.9183039484
 30
0.0
 11
227.6777366283
 21
10.0
 31
0.0
  0
LINE
  5
166
330
1F
100
AcDbEntity
  8
FORMAT
 62
     7
100
AcDbLine
 10
210.0
 20
23.947130671
 30
0.0
 11
260.0
 21
23.947130671
 31
0.0
  0
LINE
  5
167
330
1F
100
AcDbEntity
  8
FORMAT
 62
     7
100
AcDbLine
 10
210.0
 20
50.7133687799
 30
0.0
 11
260.0
 21
50.7133687799
 31
0.0
  0
LINE
  5
168
330
1F
100
AcDbEntity
  8
FORMAT
 62
     7
100
AcDbLine
 10
260.0
 20
37.4806218497
 30
0.0
 11
210.0
 21
37.4806218497
 31
0.0
  0
LINE
  5
169
330
1F
100
AcDbEntity
  8
レイヤー_1
 62
     7
370
    25
100
AcDbLine
 10
20.0
 20
287.0
 30
0.0
 11
20.0
 21
237.0
 31
0.0
  0
LINE
  5
16A
330
1F
100
AcDbEntity
  8
レイヤー_1
 62
     7
370
    25
100
AcDbLine
 10
70.0
 20
287.0
 30
0.0
 11
70.0
 21
237.0
 31
0.0
  0
LINE
  5
16B
330
1F
100
AcDbEntity
  8
レイヤー_1
 62
     7
370
    25
100
AcDbLine
 10
60.0
 20
287.0
 30
0.0
 11
60.0
 21
237.0
 31
0.0
  0
LINE
  5
16C
330
1F
100
AcDbEntity
  8
FORMAT
 62
     7
370
    35
100
AcDbLine
 10
260.0
 20
16.9562384825
 30
0.0
 11
210.0
 21
16.9562384825
 31
0.0
  0
LINE
  5
16D
330
1F
100
AcDbEntity
  8
FORMAT
 62
     7
100
AcDbLine
 10
210.0
 20
16.9562384825
 30
0.0
 11
10.0
 21
16.9562384825
 31
0.0
  0
LINE
  5
16E
330
1F
100
AcDbEntity
  8
FORMAT
 62
     7
370
    18
100
AcDbLine
 10
210.0
 20
23.947130671
 30
0.0
 11
10.0
 21
23.947130671
 31
0.0
  0
LINE
  5
16F
330
1F
100
AcDbEntity
  8
FORMAT
 62
     7
370
    18
100
AcDbLine
 10
210.0
 20
30.4849499307
 30
0.0
 11
10.0
 21
30.4849499307
 31
0.0
  0
LINE
  5
170
330
1F
100
AcDbEntity
  8
FORMAT
 62
     7
370
    18
100
AcDbLine
 10
210.0
 20
37.4806218497
 30
0.0
 11
10.0
 21
37.4806218497
 31
0.0
  0
LINE
  5
171
330
1F
100
AcDbEntity
  8
FORMAT
 62
     7
370
    18
100
AcDbLine
 10
210.0
 20
43.9342364428
 30
0.0
 11
10.0
 21
43.9342364428
 31
0.0
  0
LINE
  5
172
330
1F
100
AcDbEntity
  8
FORMAT
 62
     7
370
    18
100
AcDbLine
 10
210.0
 20
50.7133687799
 30
0.0
 11
10.0
 21
50.7133687799
 31
0.0
  0
LINE
  5
173
330
1F
100
AcDbEntity
  8
FORMAT
 62
     7
370
    18
100
AcDbLine
 10
210.0
 20
63.9183039484
 30
0.0
 11
10.0
 21
63.9183039484
 31
0.0
  0
LINE
  5
174
330
1F
100
AcDbEntity
  8
FORMAT
 62
     7
370
    18
100
AcDbLine
 10
210.0
 20
63.9183039484
 30
0.0
 11
10.0
 21
63.9183039484
 31
0.0
  0
LINE
  5
175
330
1F
100
AcDbEntity
  8
FORMAT
 62
     7
370
    18
100
AcDbLine
 10
20.0
 20
10.0
 30
0.0
 11
20.0
 21
71.4183039484
 31
0.0
  0
LINE
  5
176
330
1F
100
AcDbEntity
  8
FORMAT
 62
     7
370
    18
100
AcDbLine
 10
170.0277100038
 20
10.0
 30
0.0
 11
170.0277100038
 21
71.4183039484
 31
0.0
  0
LINE
  5
177
330
1F
100
AcDbEntity
  8
FORMAT
 62
     7
370
    18
100
AcDbLine
 10
160.0
 20
10.0
 30
0.0
 11
160.0
 21
71.4183039484
 31
0.0
  0
LINE
  5
178
330
1F
100
AcDbEntity
  8
0
  6
SLD-実線
 62
     7
370
    18
100
AcDbLine
 10
281.386764118
 20
16.8279349855
 30
0.0
 11
287.97458471
 21
17.8279349855
 31
0.0
  0
LINE
  5
179
330
1F
100
AcDbEntity
  8
0
  6
SLD-実線
 62
     7
370
    18
100
AcDbLine
 10
291.5066090033
 20
14.8279349855
 30
0.0
 11
268.7270365948
 21
14.8279349855
 31
0.0
  0
LINE
  5
17A
330
1F
100
AcDbEntity
  8
0
  6
SLD-実線
 62
     7
370
    18
100
AcDbLine
 10
273.5630784217
 20
18.6994881575
 30
0.0
 11
273.5630784217
 21
10.6994881575
 31
0.0
  0
LINE
  5
17B
330
1F
100
AcDbEntity
  8
0
  6
SLD-実線
 62
     7
370
    18
100
AcDbLine
 10
281.386764118
 20
12.8279349855
 30
0.0
 11
288.0142703762
 21
11.8279349855
 31
0.0
  0
LINE
  5
17C
330
1F
100
AcDbEntity
  8
レイヤー_1
 62
     7
370
    25
100
AcDbLine
 10
110.0
 20
287.0
 30
0.0
 11
110.0
 21
237.0
 31
0.0
  0
LINE
  5
17D
330
1F
100
AcDbEntity
  8
レイヤー_1
 62
     7
370
    25
100
AcDbLine
 10
10.0
 20
277.0
 30
0.0
 11
110.0
 21
277.0
 31
0.0
  0
LINE
  5
17E
330
1F
100
AcDbEntity
  8
0
  6
SLD-実線
 62
     7
370
    18
100
AcDbLine
 10
281.386764118
 20
16.8279349855
 30
0.0
 11
281.386764118
 21
12.8279349855
 31
0.0
  0
LINE
  5
17F
330
1F
100
AcDbEntity
  8
0
  6
SLD-実線
 62
     7
370
    18
100
AcDbLine
 10
288.0142703762
 20
11.8279349855
 30
0.0
 11
287.97458471
 21
17.8279349855
 31
0.0
  0
LINE
  5
180
330
1F
100
AcDbEntity
  8
レイヤー_1
 62
     7
370
    25
100
AcDbLine
 10
10.0
 20
267.0
 30
0.0
 11
110.0
 21
267.0
 31
0.0
  0
LINE
  5
181
330
1F
100
AcDbEntity
  8
レイヤー_1
 62
     7
370
    25
100
AcDbLine
 10
10.0
 20
257.0
 30
0.0
 11
110.0
 21
257.0
 31
0.0
  0
LINE
  5
182
330
1F
100
AcDbEntity
  8
レイヤー_1
 62
     7
370
    25
100
AcDbLine
 10
10.0
 20
247.0
 30
0.0
 11
110.0
 21
247.0
 31
0.0
  0
LINE
  5
183
330
1F
100
AcDbEntity
  8
レイヤー_1
 62
     7
370
    25
100
AcDbLine
 10
10.0
 20
237.0
 30
0.0
 11
110.0
 21
237.0
 31
0.0
  0
LINE
  5
184
330
1F
100
AcDbEntity
  8
0
  6
SLD-実線
 62
     7
370
    18
100
AcDbLine
 10
210.0
 20
57.4925011171
 30
0.0
 11
10.0
 21
57.4925011171
 31
0.0
  0
CIRCLE
  5
185
330
1F
100
AcDbEntity
  8
0
  6
SLD-実線
 62
     7
370
    18
100
AcDbCircle
 10
273.5630784217
 20
14.8279349855
 30
0.0
 40
2.999999999999964
  0
CIRCLE
  5
186
330
1F
100
AcDbEntity
  8
0
  6
SLD-実線
 62
     7
370
    18
100
AcDbCircle
 10
273.5630784217
 20
14.8279349855
 30
0.0
 40
1.999999999999994
  0
SPLINE
  5
187
330
1F
100
AcDbEntity
  8
0
  6
SLD-実線
 62
   179
370
    18
100
AcDbSpline
210
0.0
220
0.0
230
1.0
 70
     8
 71
     3
 72
     8
 73
     4
 74
     0
 42
0.000000001
 43
0.00000001
 40
0.0
 40
0.0
 40
0.0
 40
0.0
 40
1.0
 40
1.0
 40
1.0
 40
1.0
 10
359.0561076908332
 20
13.46030224870999
 30
0.0
 10
359.0561076908332
 20
13.17940294322464
 30
0.0
 10
359.2625378123094
 20
13.070014271377
 30
0.0
 10
359.5169098825584
 20
13.070014271377
 30
0.0
  0
SPLINE
  5
188
330
1F
100
AcDbEntity
  8
0
  6
SLD-実線
 62
   179
370
    18
100
AcDbSpline
210
0.0
220
0.0
230
1.0
 70
     8
 71
     3
 72
     8
 73
     4
 74
     0
 42
0.000000001
 43
0.00000001
 40
1.0
 40
1.0
 40
1.0
 40
1.0
 40
2.0
 40
2.0
 40
2.0
 40
2.0
 10
359.5169098825584
 20
13.070014271377
 30
0.0
 10
359.7971339493287
 20
13.070014271377
 30
0.0
 10
359.9006383980874
 20
13.20834174530077
 30
0.0
 10
359.9006383980874
 20
13.34551166714148
 30
0.0
  0
SPLINE
  5
189
330
1F
100
AcDbEntity
  8
0
  6
SLD-実線
 62
   179
370
    18
100
AcDbSpline
210
0.0
220
0.0
230
1.0
 70
     8
 71
     3
 72
     8
 73
     4
 74
     0
 42
0.000000001
 43
0.00000001
 40
2.0
 40
2.0
 40
2.0
 40
2.0
 40
3.0
 40
3.0
 40
3.0
 40
3.0
 10
359.9006383980874
 20
13.34551166714148
 30
0.0
 10
359.9006383980874
 20
13.48518961849547
 30
0.0
 10
359.824625811301
 20
13.54190967056458
 30
0.0
 10
359.7506871719965
 20
13.5693050698633
 30
0.0
  0
SPLINE
  5
18A
330
1F
100
AcDbEntity
  8
0
  6
SLD-実線
 62
   179
370
    18
100
AcDbSpline
210
0.0
220
0.0
230
1.0
 70
     8
 71
     3
 72
     8
 73
     4
 74
     0
 42
0.000000001
 43
0.00000001
 40
3.0
 40
3.0
 40
3.0
 40
3.0
 40
4.0
 40
4.0
 40
4.0
 40
4.0
 10
359.7506871719965
 20
13.5693050698633
 30
0.0
 10
359.6235975995457
 20
13.61792225735114
 30
0.0
 10
359.4582605770174
 20
13.64975493963487
 30
0.0
 10
359.2087116404479
 20
13.7192080646175
 30
0.0
  0
SPLINE
  5
18B
330
1F
100
AcDbEntity
  8
0
  6
SLD-実線
 62
   179
370
    18
100
AcDbSpline
210
0.0
220
0.0
230
1.0
 70
     8
 71
     3
 72
     8
 73
     4
 74
     0
 42
0.000000001
 43
0.00000001
 40
4.0
 40
4.0
 40
4.0
 40
4.0
 40
5.0
 40
5.0
 40
5.0
 40
5.0
 10
359.2087116404479
 20
13.7192080646175
 30
0.0
 10
358.8987770702128
 20
13.80332351598533
 30
0.0
 10
358.807185761642
 20
13.9921974308687
 30
0.0
 10
358.807185761642
 20
14.17933501762744
 30
0.0
  0
SPLINE
  5
18C
330
1F
100
AcDbEntity
  8
0
  6
SLD-実線
 62
   179
370
    18
100
AcDbSpline
210
0.0
220
0.0
230
1.0
 70
     8
 71
     3
 72
     8
 73
     4
 74
     0
 42
0.000000001
 43
0.00000001
 40
5.0
 40
5.0
 40
5.0
 40
5.0
 40
6.0
 40
6.0
 40
6.0
 40
6.0
 10
358.807185761642
 20
14.17933501762744
 30
0.0
 10
358.807185761642
 20
14.54338514774476
 30
0.0
 10
359.142827634388
 20
14.71470285603529
 30
0.0
 10
359.4709454185941
 20
14.71470285603529
 30
0.0
  0
SPLINE
  5
18D
330
1F
100
AcDbEntity
  8
0
  6
SLD-実線
 62
   179
370
    18
100
AcDbSpline
210
0.0
220
0.0
230
1.0
 70
     8
 71
     3
 72
     8
 73
     4
 74
     0
 42
0.000000001
 43
0.00000001
 40
6.0
 40
6.0
 40
6.0
 40
6.0
 40
7.0
 40
7.0
 40
7.0
 40
7.0
 10
359.4709454185941
 20
14.71470285603529
 30
0.0
 10
359.8499954944543
 20
14.71470285603529
 30
0.0
 10
360.1686117053121
 20
14.51271001754413
 30
0.0
 10
360.1686117053121
 20
14.1338046356944
 30
0.0
  0
SPLINE
  5
18E
330
1F
100
AcDbEntity
  8
0
  6
SLD-実線
 62
   179
370
    18
100
AcDbSpline
210
0.0
220
0.0
230
1.0
 70
     8
 71
     3
 72
     8
 73
     4
 74
     0
 42
0.000000001
 43
0.00000001
 40
8.0
 40
8.0
 40
8.0
 40
8.0
 40
9.0
 40
9.0
 40
9.0
 40
9.0
 10
359.8499954944543
 20
14.1338046356944
 30
0.0
 10
359.8345614666803
 20
14.36859478320512
 30
0.0
 10
359.6767967640287
 20
14.45502533873909
 30
0.0
 10
359.4582605770174
 20
14.45502533873909
 30
0.0
  0
SPLINE
  5
18F
330
1F
100
AcDbEntity
  8
0
  6
SLD-実線
 62
   179
370
    18
100
AcDbSpline
210
0.0
220
0.0
230
1.0
 70
     8
 71
     3
 72
     8
 73
     4
 74
     0
 42
0.000000001
 43
0.00000001
 40
9.0
 40
9.0
 40
9.0
 40
9.0
 40
10.0
 40
10.0
 40
10.0
 40
10.0
 10
359.4582605770174
 20
14.45502533873909
 30
0.0
 10
359.310769149103
 20
14.45502533873909
 30
0.0
 10
359.1250302711111
 20
14.40119916687754
 30
0.0
 10
359.1250302711111
 20
14.21811301240944
 30
0.0
  0
SPLINE
  5
190
330
1F
100
AcDbEntity
  8
0
  6
SLD-実線
 62
   179
370
    18
100
AcDbSpline
210
0.0
220
0.0
230
1.0
 70
     8
 71
     3
 72
     8
 73
     4
 74
     0
 42
0.000000001
 43
0.00000001
 40
10.0
 40
10.0
 40
10.0
 40
10.0
 40
11.0
 40
11.0
 40
11.0
 40
11.0
 10
359.1250302711111
 20
14.21811301240944
 30
0.0
 10
359.1250302711111
 20
14.0907822832746
 30
0.0
 10
359.2116055206556
 20
14.01901405412586
 30
0.0
 10
359.3409619659356
 20
13.98390164094019
 30
0.0
  0
SPLINE
  5
191
330
1F
100
AcDbEntity
  8
0
  6
SLD-実線
 62
   179
370
    18
100
AcDbSpline
210
0.0
220
0.0
230
1.0
 70
     8
 71
     3
 72
     8
 73
     4
 74
     0
 42
0.000000001
 43
0.00000001
 40
11.0
 40
11.0
 40
11.0
 40
11.0
 40
12.0
 40
12.0
 40
12.0
 40
12.0
 10
359.3409619659356
 20
13.98390164094019
 30
0.0
 10
359.3697078426646
 20
13.97599170170609
 30
0.0
 10
359.7710890274602
 20
13.87258371562082
 30
0.0
 10
359.8650919028706
 20
13.84403076423906
 30
0.0
  0
SPLINE
  5
192
330
1F
100
AcDbEntity
  8
0
  6
SLD-実線
 62
   179
370
    18
100
AcDbSpline
210
0.0
220
0.0
230
1.0
 70
     8
 71
     3
 72
     8
 73
     4
 74
     0
 42
0.000000001
 43
0.00000001
 40
12.0
 40
12.0
 40
12.0
 40
12.0
 40
13.0
 40
13.0
 40
13.0
 40
13.0
 10
359.8650919028706
 20
13.84403076423906
 30
0.0
 10
360.1043675647032
 20
13.77264838578469
 30
0.0
 10
360.2186276015669
 20
13.5693050698633
 30
0.0
 10
360.2186276015669
 20
13.38062408032715
 30
0.0
  0
SPLINE
  5
193
330
1F
100
AcDbEntity
  8
0
  6
SLD-実線
 62
   179
370
    18
100
AcDbSpline
210
0.0
220
0.0
230
1.0
 70
     8
 71
     3
 72
     8
 73
     4
 74
     0
 42
0.000000001
 43
0.00000001
 40
13.0
 40
13.0
 40
13.0
 40
13.0
 40
14.0
 40
14.0
 40
14.0
 40
14.0
 10
360.2186276015669
 20
13.38062408032715
 30
0.0
 10
360.2186276015669
 20
12.97374452313719
 30
0.0
 10
359.8575678143308
 20
12.810529679428
 30
0.0
 10
359.4965080270947
 20
12.810529679428
 30
0.0
  0
SPLINE
  5
194
330
1F
100
AcDbEntity
  8
0
  6
SLD-実線
 62
   179
370
    18
100
AcDbSpline
210
0.0
220
0.0
230
1.0
 70
     8
 71
     3
 72
     8
 73
     4
 74
     0
 42
0.000000001
 43
0.00000001
 40
14.0
 40
14.0
 40
14.0
 40
14.0
 40
15.0
 40
15.0
 40
15.0
 40
15.0
 10
359.4965080270947
 20
12.810529679428
 30
0.0
 10
359.0821043813651
 20
12.810529679428
 30
0.0
 10
358.7456425758936
 20
13.00904986167002
 30
0.0
 10
358.7384078753744
 20
13.46030224870999
 30
0.0
  0
SPLINE
  5
195
330
1F
100
AcDbEntity
  8
0
  6
SLD-実線
 62
   179
370
    18
100
AcDbSpline
210
0.0
220
0.0
230
1.0
 70
     8
 71
     3
 72
    11
 73
     7
 74
     0
 42
0.000000001
 43
0.00000001
 40
2.0
 40
2.0
 40
2.0
 40
2.0
 40
3.0
 40
3.0
 40
3.0
 40
4.0
 40
4.0
 40
4.0
 40
4.0
 10
363.1067682800984
 20
13.070014271377
 30
0.0
 10
362.7166732281127
 20
13.070014271377
 30
0.0
 10
362.5544230111393
 20
13.41438601608259
 30
0.0
 10
362.5544230111393
 20
13.76203749169012
 30
0.0
 10
362.5544230111393
 20
14.1108465193807
 30
0.0
 10
362.7166732281127
 20
14.45502533873909
 30
0.0
 10
363.1067682800984
 20
14.45502533873909
 30
0.0
  0
SPLINE
  5
196
330
1F
100
AcDbEntity
  8
0
  6
SLD-実線
 62
   179
370
    18
100
AcDbSpline
210
0.0
220
0.0
230
1.0
 70
     8
 71
     3
 72
    11
 73
     7
 74
     0
 42
0.000000001
 43
0.00000001
 40
0.0
 40
0.0
 40
0.0
 40
0.0
 40
1.0
 40
1.0
 40
1.0
 40
2.0
 40
2.0
 40
2.0
 40
2.0
 10
363.1067682800984
 20
14.45502533873909
 30
0.0
 10
363.4959951680219
 20
14.45502533873909
 30
0.0
 10
363.6582453849953
 20
14.1108465193807
 30
0.0
 10
363.6582453849953
 20
13.76203749169012
 30
0.0
 10
363.6582453849953
 20
13.41438601608259
 30
0.0
 10
363.4959951680219
 20
13.070014271377
 30
0.0
 10
363.1067682800984
 20
13.070014271377
 30
0.0
  0
SPLINE
  5
197
330
1F
100
AcDbEntity
  8
0
  6
SLD-実線
 62
   179
370
    18
100
AcDbSpline
210
0.0
220
0.0
230
1.0
 70
     8
 71
     3
 72
    11
 73
     7
 74
     0
 42
0.000000001
 43
0.00000001
 40
2.0
 40
2.0
 40
2.0
 40
2.0
 40
3.0
 40
3.0
 40
3.0
 40
4.0
 40
4.0
 40
4.0
 40
4.0
 10
363.1067682800984
 20
12.810529679428
 30
0.0
 10
363.6508177591292
 20
12.810529679428
 30
0.0
 10
363.976668670506
 20
13.24403293452797
 30
0.0
 10
363.976668670506
 20
13.76203749169012
 30
0.0
 10
363.976668670506
 20
14.28139252628248
 30
0.0
 10
363.6508177591292
 20
14.71470285603529
 30
0.0
 10
363.1067682800984
 20
14.71470285603529
 30
0.0
  0
SPLINE
  5
198
330
1F
100
AcDbEntity
  8
0
  6
SLD-実線
 62
   179
370
    18
100
AcDbSpline
210
0.0
220
0.0
230
1.0
 70
     8
 71
     3
 72
    11
 73
     7
 74
     0
 42
0.000000001
 43
0.00000001
 40
0.0
 40
0.0
 40
0.0
 40
0.0
 40
1.0
 40
1.0
 40
1.0
 40
2.0
 40
2.0
 40
2.0
 40
2.0
 10
363.1067682800984
 20
14.71470285603529
 30
0.0
 10
362.5617541743318
 20
14.71470285603529
 30
0.0
 10
362.2367714270172
 20
14.28139252628248
 30
0.0
 10
362.2367714270172
 20
13.76203749169012
 30
0.0
 10
362.2367714270172
 20
13.24403293452797
 30
0.0
 10
362.5617541743318
 20
12.810529679428
 30
0.0
 10
363.1067682800984
 20
12.810529679428
 30
0.0
  0
SPLINE
  5
199
330
1F
100
AcDbEntity
  8
0
  6
SLD-実線
 62
   179
370
    18
100
AcDbSpline
210
0.0
220
0.0
230
1.0
 70
     8
 71
     3
 72
     8
 73
     4
 74
     0
 42
0.000000001
 43
0.00000001
 40
1.0
 40
1.0
 40
1.0
 40
1.0
 40
2.0
 40
2.0
 40
2.0
 40
2.0
 10
365.6052479886752
 20
14.4110383595834
 30
0.0
 10
366.1031883097313
 20
14.4110383595834
 30
0.0
 10
366.2105512654335
 20
14.12666639784894
 30
0.0
 10
366.2105512654335
 20
13.76203749169012
 30
0.0
  0
SPLINE
  5
19A
330
1F
100
AcDbEntity
  8
0
  6
SLD-実線
 62
   179
370
    18
100
AcDbSpline
210
0.0
220
0.0
230
1.0
 70
     8
 71
     3
 72
     8
 73
     4
 74
     0
 42
0.000000001
 43
0.00000001
 40
2.0
 40
2.0
 40
2.0
 40
2.0
 40
3.0
 40
3.0
 40
3.0
 40
3.0
 10
366.2105512654335
 20
13.76203749169012
 30
0.0
 10
366.2105512654335
 20
13.39933783900301
 30
0.0
 10
366.1031883097313
 20
13.11400125053267
 30
0.0
 10
365.6052479886752
 20
13.11400125053267
 30
0.0
  0
SPLINE
  5
19B
330
1F
100
AcDbEntity
  8
0
  6
SLD-実線
 62
   179
370
    18
100
AcDbSpline
210
0.0
220
0.0
230
1.0
 70
     8
 71
     3
 72
     8
 73
     4
 74
     0
 42
0.000000001
 43
0.00000001
 40
1.0
 40
1.0
 40
1.0
 40
1.0
 40
2.0
 40
2.0
 40
2.0
 40
2.0
 10
365.7265980320477
 20
12.8543237332365
 30
0.0
 10
366.2868532402409
 20
12.8543237332365
 30
0.0
 10
366.5286851629235
 20
13.26101036507926
 30
0.0
 10
366.5286851629235
 20
13.76203749169012
 30
0.0
  0
SPLINE
  5
19C
330
1F
100
AcDbEntity
  8
0
  6
SLD-実線
 62
   179
370
    18
100
AcDbSpline
210
0.0
220
0.0
230
1.0
 70
     8
 71
     3
 72
     8
 73
     4
 74
     0
 42
0.000000001
 43
0.00000001
 40
2.0
 40
2.0
 40
2.0
 40
2.0
 40
3.0
 40
3.0
 40
3.0
 40
3.0
 10
366.5286851629235
 20
13.76203749169012
 30
0.0
 10
366.5286851629235
 20
14.26383631968965
 30
0.0
 10
366.2868532402409
 20
14.67033002618525
 30
0.0
 10
365.7265980320477
 20
14.67033002618525
 30
0.0
  0
SPLINE
  5
19D
330
1F
100
AcDbEntity
  8
0
  6
SLD-実線
 62
   179
370
    18
100
AcDbSpline
210
0.0
220
0.0
230
1.0
 70
     8
 71
     3
 72
     8
 73
     4
 74
     0
 42
0.000000001
 43
0.00000001
 40
2.0
 40
2.0
 40
2.0
 40
2.0
 40
3.0
 40
3.0
 40
3.0
 40
3.0
 10
368.8515063428983
 20
13.06789209255811
 30
0.0
 10
368.6808638733231
 20
12.87477382003696
 30
0.0
 10
368.5247872674591
 20
12.810529679428
 30
0.0
 10
368.3044665209865
 20
12.810529679428
 30
0.0
  0
SPLINE
  5
19E
330
1F
100
AcDbEntity
  8
0
  6
SLD-実線
 62
   179
370
    18
100
AcDbSpline
210
0.0
220
0.0
230
1.0
 70
     8
 71
     3
 72
     8
 73
     4
 74
     0
 42
0.000000001
 43
0.00000001
 40
3.0
 40
3.0
 40
3.0
 40
3.0
 40
4.0
 40
4.0
 40
4.0
 40
4.0
 10
368.3044665209865
 20
12.810529679428
 30
0.0
 10
367.75945241522
 20
12.810529679428
 30
0.0
 10
367.4339873545374
 20
13.24403293452797
 30
0.0
 10
367.4339873545374
 20
13.76203749169012
 30
0.0
  0
SPLINE
  5
19F
330
1F
100
AcDbEntity
  8
0
  6
SLD-実線
 62
   179
370
    18
100
AcDbSpline
210
0.0
220
0.0
230
1.0
 70
     8
 71
     3
 72
     8
 73
     4
 74
     0
 42
0.000000001
 43
0.00000001
 40
4.0
 40
4.0
 40
4.0
 40
4.0
 40
5.0
 40
5.0
 40
5.0
 40
5.0
 10
367.4339873545374
 20
13.76203749169012
 30
0.0
 10
367.4339873545374
 20
14.28139252628248
 30
0.0
 10
367.75945241522
 20
14.71470285603529
 30
0.0
 10
368.3044665209865
 20
14.71470285603529
 30
0.0
  0
SPLINE
  5
1A0
330
1F
100
AcDbEntity
  8
0
  6
SLD-実線
 62
   179
370
    18
100
AcDbSpline
210
0.0
220
0.0
230
1.0
 70
     8
 71
     3
 72
     8
 73
     4
 74
     0
 42
0.000000001
 43
0.00000001
 40
5.0
 40
5.0
 40
5.0
 40
5.0
 40
6.0
 40
6.0
 40
6.0
 40
6.0
 10
368.3044665209865
 20
14.71470285603529
 30
0.0
 10
368.7007351840819
 20
14.71470285603529
 30
0.0
 10
369.0347854227137
 20
14.50383545157413
 30
0.0
 10
369.0830167595072
 20
14.09329031278784
 30
0.0
  0
SPLINE
  5
1A1
330
1F
100
AcDbEntity
  8
0
  6
SLD-実線
 62
   179
370
    18
100
AcDbSpline
210
0.0
220
0.0
230
1.0
 70
     8
 71
     3
 72
     8
 73
     4
 74
     0
 42
0.000000001
 43
0.00000001
 40
7.0
 40
7.0
 40
7.0
 40
7.0
 40
8.0
 40
8.0
 40
8.0
 40
8.0
 10
368.7722140252099
 20
14.09329031278784
 30
0.0
 10
368.742021208377
 20
14.33290359397794
 30
0.0
 10
368.5329865947141
 20
14.45502533873909
 30
0.0
 10
368.3044665209865
 20
14.45502533873909
 30
0.0
  0
SPLINE
  5
1A2
330
1F
100
AcDbEntity
  8
0
  6
SLD-実線
 62
   179
370
    18
100
AcDbSpline
210
0.0
220
0.0
230
1.0
 70
     8
 71
     3
 72
     8
 73
     4
 74
     0
 42
0.000000001
 43
0.00000001
 40
8.0
 40
8.0
 40
8.0
 40
8.0
 40
9.0
 40
9.0
 40
9.0
 40
9.0
 10
368.3044665209865
 20
14.45502533873909
 30
0.0
 10
367.9150467077158
 20
14.45502533873909
 30
0.0
 10
367.7521212520275
 20
14.1108465193807
 30
0.0
 10
367.7521212520275
 20
13.76203749169012
 30
0.0
  0
SPLINE
  5
1A3
330
1F
100
AcDbEntity
  8
0
  6
SLD-実線
 62
   179
370
    18
100
AcDbSpline
210
0.0
220
0.0
230
1.0
 70
     8
 71
     3
 72
     8
 73
     4
 74
     0
 42
0.000000001
 43
0.00000001
 40
9.0
 40
9.0
 40
9.0
 40
9.0
 40
10.0
 40
10.0
 40
10.0
 40
10.0
 10
367.7521212520275
 20
13.76203749169012
 30
0.0
 10
367.7521212520275
 20
13.41438601608259
 30
0.0
 10
367.9150467077158
 20
13.070014271377
 30
0.0
 10
368.3044665209865
 20
13.070014271377
 30
0.0
  0
SPLINE
  5
1A4
330
1F
100
AcDbEntity
  8
0
  6
SLD-実線
 62
   179
370
    18
100
AcDbSpline
210
0.0
220
0.0
230
1.0
 70
     8
 71
     3
 72
     8
 73
     4
 74
     0
 42
0.000000001
 43
0.00000001
 40
10.0
 40
10.0
 40
10.0
 40
10.0
 40
11.0
 40
11.0
 40
11.0
 40
11.0
 10
368.3044665209865
 20
13.070014271377
 30
0.0
 10
368.6303174323634
 20
13.06615576443354
 30
0.0
 10
368.8080981397841
 20
13.26101036507926
 30
0.0
 10
368.8134035868314
 20
13.5693050698633
 30
0.0
  0
SPLINE
  5
1A5
330
1F
100
AcDbEntity
  8
0
  6
SLD-実線
 62
   179
370
    18
100
AcDbSpline
210
0.0
220
0.0
230
1.0
 70
     8
 71
     3
 72
     8
 73
     4
 74
     0
 42
0.000000001
 43
0.00000001
 40
0.0
 40
0.0
 40
0.0
 40
0.0
 40
1.0
 40
1.0
 40
1.0
 40
1.0
 10
374.4947656730849
 20
14.09329031278784
 30
0.0
 10
374.4412288892439
 20
14.3022284637773
 30
0.0
 10
374.3063740715693
 20
14.45502533873909
 30
0.0
 10
374.0417769579201
 20
14.45502533873909
 30
0.0
  0
SPLINE
  5
1A6
330
1F
100
AcDbEntity
  8
0
  6
SLD-実線
 62
   179
370
    18
100
AcDbSpline
210
0.0
220
0.0
230
1.0
 70
     8
 71
     3
 72
     8
 73
     4
 74
     0
 42
0.000000001
 43
0.00000001
 40
1.0
 40
1.0
 40
1.0
 40
1.0
 40
2.0
 40
2.0
 40
2.0
 40
2.0
 10
374.0417769579201
 20
14.45502533873909
 30
0.0
 10
373.6529359206911
 20
14.45502533873909
 30
0.0
 10
373.4897210769819
 20
14.1108465193807
 30
0.0
 10
373.4897210769819
 20
13.76203749169012
 30
0.0
  0
SPLINE
  5
1A7
330
1F
100
AcDbEntity
  8
0
  6
SLD-実線
 62
   179
370
    18
100
AcDbSpline
210
0.0
220
0.0
230
1.0
 70
     8
 71
     3
 72
     8
 73
     4
 74
     0
 42
0.000000001
 43
0.00000001
 40
2.0
 40
2.0
 40
2.0
 40
2.0
 40
3.0
 40
3.0
 40
3.0
 40
3.0
 10
373.4897210769819
 20
13.76203749169012
 30
0.0
 10
373.4897210769819
 20
13.41438601608259
 30
0.0
 10
373.6529359206911
 20
13.070014271377
 30
0.0
 10
374.0417769579201
 20
13.070014271377
 30
0.0
  0
SPLINE
  5
1A8
330
1F
100
AcDbEntity
  8
0
  6
SLD-実線
 62
   179
370
    18
100
AcDbSpline
210
0.0
220
0.0
230
1.0
 70
     8
 71
     3
 72
     8
 73
     4
 74
     0
 42
0.000000001
 43
0.00000001
 40
3.0
 40
3.0
 40
3.0
 40
3.0
 40
4.0
 40
4.0
 40
4.0
 40
4.0
 10
374.0417769579201
 20
13.070014271377
 30
0.0
 10
374.3241232035093
 20
13.070014271377
 30
0.0
 10
374.4784634812486
 20
13.28184630257406
 30
0.0
 10
374.5048942538115
 20
13.5463469535496
 30
0.0
  0
SPLINE
  5
1A9
330
1F
100
AcDbEntity
  8
0
  6
SLD-実線
 62
   179
370
    18
100
AcDbSpline
210
0.0
220
0.0
230
1.0
 70
     8
 71
     3
 72
     8
 73
     4
 74
     0
 42
0.000000001
 43
0.00000001
 40
5.0
 40
5.0
 40
5.0
 40
5.0
 40
6.0
 40
6.0
 40
6.0
 40
6.0
 10
374.8149252867199
 20
13.5463469535496
 30
0.0
 10
374.7885909768307
 20
13.11187907171378
 30
0.0
 10
374.4820326001713
 20
12.810529679428
 30
0.0
 10
374.0417769579201
 20
12.810529679428
 30
0.0
  0
SPLINE
  5
1AA
330
1F
100
AcDbEntity
  8
0
  6
SLD-実線
 62
   179
370
    18
100
AcDbSpline
210
0.0
220
0.0
230
1.0
 70
     8
 71
     3
 72
     8
 73
     4
 74
     0
 42
0.000000001
 43
0.00000001
 40
6.0
 40
6.0
 40
6.0
 40
6.0
 40
7.0
 40
7.0
 40
7.0
 40
7.0
 10
374.0417769579201
 20
12.810529679428
 30
0.0
 10
373.4970522401744
 20
12.810529679428
 30
0.0
 10
373.1712013287976
 20
13.24403293452797
 30
0.0
 10
373.1712013287976
 20
13.76203749169012
 30
0.0
  0
SPLINE
  5
1AB
330
1F
100
AcDbEntity
  8
0
  6
SLD-実線
 62
   179
370
    18
100
AcDbSpline
210
0.0
220
0.0
230
1.0
 70
     8
 71
     3
 72
     8
 73
     4
 74
     0
 42
0.000000001
 43
0.00000001
 40
7.0
 40
7.0
 40
7.0
 40
7.0
 40
8.0
 40
8.0
 40
8.0
 40
8.0
 10
373.1712013287976
 20
13.76203749169012
 30
0.0
 10
373.1712013287976
 20
14.28139252628248
 30
0.0
 10
373.4970522401744
 20
14.71470285603529
 30
0.0
 10
374.0417769579201
 20
14.71470285603529
 30
0.0
  0
SPLINE
  5
1AC
330
1F
100
AcDbEntity
  8
0
  6
SLD-実線
 62
   179
370
    18
100
AcDbSpline
210
0.0
220
0.0
230
1.0
 70
     8
 71
     3
 72
     8
 73
     4
 74
     0
 42
0.000000001
 43
0.00000001
 40
8.0
 40
8.0
 40
8.0
 40
8.0
 40
9.0
 40
9.0
 40
9.0
 40
9.0
 10
374.0417769579201
 20
14.71470285603529
 30
0.0
 10
374.4518397833386
 20
14.7118089758277
 30
0.0
 10
374.774507426487
 20
14.48570046893975
 30
0.0
 10
374.8131889585953
 20
14.09329031278784
 30
0.0
  0
SPLINE
  5
1AD
330
1F
100
AcDbEntity
  8
0
  6
SLD-実線
 62
   179
370
    18
100
AcDbSpline
210
0.0
220
0.0
230
1.0
 70
     8
 71
     3
 72
     8
 73
     4
 74
     0
 42
0.000000001
 43
0.00000001
 40
0.0
 40
0.0
 40
0.0
 40
0.0
 40
1.0
 40
1.0
 40
1.0
 40
1.0
 10
377.0381005248796
 20
14.09329031278784
 30
0.0
 10
376.985431905101
 20
14.3022284637773
 30
0.0
 10
376.8506735500999
 20
14.45502533873909
 30
0.0
 10
376.5856905857564
 20
14.45502533873909
 30
0.0
  0
SPLINE
  5
1AE
330
1F
100
AcDbEntity
  8
0
  6
SLD-実線
 62
   179
370
    18
100
AcDbSpline
210
0.0
220
0.0
230
1.0
 70
     8
 71
     3
 72
     8
 73
     4
 74
     0
 42
0.000000001
 43
0.00000001
 40
1.0
 40
1.0
 40
1.0
 40
1.0
 40
2.0
 40
2.0
 40
2.0
 40
2.0
 10
376.5856905857564
 20
14.45502533873909
 30
0.0
 10
376.1964636978331
 20
14.45502533873909
 30
0.0
 10
376.0335382421445
 20
14.1108465193807
 30
0.0
 10
376.0335382421445
 20
13.76203749169012
 30
0.0
  0
SPLINE
  5
1AF
330
1F
100
AcDbEntity
  8
0
  6
SLD-実線
 62
   179
370
    18
100
AcDbSpline
210
0.0
220
0.0
230
1.0
 70
     8
 71
     3
 72
     8
 73
     4
 74
     0
 42
0.000000001
 43
0.00000001
 40
2.0
 40
2.0
 40
2.0
 40
2.0
 40
3.0
 40
3.0
 40
3.0
 40
3.0
 10
376.0335382421445
 20
13.76203749169012
 30
0.0
 10
376.0335382421445
 20
13.41438601608259
 30
0.0
 10
376.1964636978331
 20
13.070014271377
 30
0.0
 10
376.5856905857564
 20
13.070014271377
 30
0.0
  0
SPLINE
  5
1B0
330
1F
100
AcDbEntity
  8
0
  6
SLD-実線
 62
   179
370
    18
100
AcDbSpline
210
0.0
220
0.0
230
1.0
 70
     8
 71
     3
 72
     8
 73
     4
 74
     0
 42
0.000000001
 43
0.00000001
 40
3.0
 40
3.0
 40
3.0
 40
3.0
 40
4.0
 40
4.0
 40
4.0
 40
4.0
 10
376.5856905857564
 20
13.070014271377
 30
0.0
 10
376.8678439059985
 20
13.070014271377
 30
0.0
 10
377.0233417358207
 20
13.28184630257406
 30
0.0
 10
377.0487114189741
 20
13.5463469535496
 30
0.0
  0
SPLINE
  5
1B1
330
1F
100
AcDbEntity
  8
0
  6
SLD-実線
 62
   179
370
    18
100
AcDbSpline
210
0.0
220
0.0
230
1.0
 70
     8
 71
     3
 72
     8
 73
     4
 74
     0
 42
0.000000001
 43
0.00000001
 40
5.0
 40
5.0
 40
5.0
 40
5.0
 40
6.0
 40
6.0
 40
6.0
 40
6.0
 10
377.359803541292
 20
13.5463469535496
 30
0.0
 10
377.3337586194237
 20
13.11187907171378
 30
0.0
 10
377.0259462280075
 20
12.810529679428
 30
0.0
 10
376.5856905857564
 20
12.810529679428
 30
0.0
  0
SPLINE
  5
1B2
330
1F
100
AcDbEntity
  8
0
  6
SLD-実線
 62
   161
370
    18
100
AcDbSpline
210
0.0
220
0.0
230
1.0
 70
     8
 71
     3
 72
     8
 73
     4
 74
     0
 42
0.000000001
 43
0.00000001
 40
3.0
 40
3.0
 40
3.0
 40
3.0
 40
4.0
 40
4.0
 40
4.0
 40
4.0
 10
340.7609234069766
 20
13.66965489072315
 30
0.0
 10
339.385413912963
 20
14.7766605328075
 30
0.0
 10
338.5049508597976
 20
16.47406596858107
 30
0.0
 10
338.5049508597976
 20
18.37862499588273
 30
0.0
  0
SPLINE
  5
1B3
330
1F
100
AcDbEntity
  8
0
  6
SLD-実線
 62
   161
370
    18
100
AcDbSpline
210
0.0
220
0.0
230
1.0
 70
     8
 71
     3
 72
    11
 73
     7
 74
     0
 42
0.000000001
 43
0.00000001
 40
1.0
 40
1.0
 40
1.0
 40
1.0
 40
2.0
 40
2.0
 40
2.0
 40
3.0
 40
3.0
 40
3.0
 40
3.0
 10
340.7609234069766
 20
23.08701632500076
 30
0.0
 10
338.7094034964653
 20
22.50515347792401
 30
0.0
 10
337.2055986465808
 20
20.61781303785764
 30
0.0
 10
337.2055986465808
 20
18.37862499588273
 30
0.0
 10
337.2055986465808
 20
16.13914756588701
 30
0.0
 10
338.7094034964653
 20
14.25151773779991
 30
0.0
 10
340.7609234069766
 20
13.66965489072315
 30
0.0
  0
SPLINE
  5
1B4
330
1F
100
AcDbEntity
  8
0
  6
SLD-実線
 62
   161
370
    18
100
AcDbSpline
210
0.0
220
0.0
230
1.0
 70
     8
 71
     3
 72
     8
 73
     4
 74
     0
 42
0.000000001
 43
0.00000001
 40
0.0
 40
0.0
 40
0.0
 40
0.0
 40
1.0
 40
1.0
 40
1.0
 40
1.0
 10
338.5049508597976
 20
18.37862499588273
 30
0.0
 10
338.5049508597976
 20
20.28279817249002
 30
0.0
 10
339.385413912963
 20
21.97957660088526
 30
0.0
 10
340.7609234069766
 20
23.08701632500076
 30
0.0
  0
SPLINE
  5
1B5
330
1F
100
AcDbEntity
  8
0
  6
SLD-実線
 62
   161
370
    18
100
AcDbSpline
210
0.0
220
0.0
230
1.0
 70
     8
 71
     3
 72
    14
 73
    10
 74
     0
 42
0.000000001
 43
0.00000001
 40
5.0
 40
5.0
 40
5.0
 40
5.0
 40
6.0
 40
6.0
 40
6.0
 40
7.0
 40
7.0
 40
7.0
 40
8.0
 40
8.0
 40
8.0
 40
8.0
 10
340.7609234069766
 20
13.66965489072315
 30
0.0
 10
341.7976077600161
 20
12.83544568954278
 30
0.0
 10
343.1140820977948
 20
12.33654074175086
 30
0.0
 10
344.5475174272975
 20
12.33654074175086
 30
0.0
 10
347.8839683813245
 20
12.33654074175086
 30
0.0
 10
350.5898910694502
 20
15.04116118378303
 30
0.0
 10
350.5898910694501
 20
18.37862499588271
 30
0.0
 10
350.5898910694501
 20
21.71464186787857
 30
0.0
 10
347.8839683813245
 20
24.42032339932019
 30
0.0
 10
344.5475174272975
 20
24.42032339932018
 30
0.0
  0
SPLINE
  5
1B6
330
1F
100
AcDbEntity
  8
0
  6
SLD-実線
 62
   161
370
    18
100
AcDbSpline
210
0.0
220
0.0
230
1.0
 70
     8
 71
     3
 72
    17
 73
    13
 74
     0
 42
0.000000001
 43
0.00000001
 40
1.0
 40
1.0
 40
1.0
 40
1.0
 40
2.0
 40
2.0
 40
2.0
 40
3.0
 40
3.0
 40
3.0
 40
4.0
 40
4.0
 40
4.0
 40
5.0
 40
5.0
 40
5.0
 40
5.0
 10
340.7609234069766
 20
23.08701632500076
 30
0.0
 10
341.1867096481898
 20
23.20788405500527
 30
0.0
 10
341.6361292444316
 20
23.2729963596765
 30
0.0
 10
342.100114704385
 20
23.2729963596765
 30
0.0
 10
344.802902355619
 20
23.2729963596765
 30
0.0
 10
346.9944860681788
 20
21.0816055724639
 30
0.0
 10
346.9944860681788
 20
18.37862499588273
 30
0.0
 10
346.9944860681788
 20
15.6749691805864
 30
0.0
 10
344.802902355619
 20
13.48444655743612
 30
0.0
 10
342.100114704385
 20
13.48444655743612
 30
0.0
 10
341.6361292444316
 20
13.48444655743612
 30
0.0
 10
341.1867096481898
 20
13.54849777269788
 30
0.0
 10
340.7609234069766
 20
13.66965489072315
 30
0.0
  0
SPLINE
  5
1B7
330
1F
100
AcDbEntity
  8
0
  6
SLD-実線
 62
   161
370
    18
100
AcDbSpline
210
0.0
220
0.0
230
1.0
 70
     8
 71
     3
 72
     8
 73
     4
 74
     0
 42
0.000000001
 43
0.00000001
 40
0.0
 40
0.0
 40
0.0
 40
0.0
 40
1.0
 40
1.0
 40
1.0
 40
1.0
 10
344.5475174272975
 20
24.42032339932018
 30
0.0
 10
343.1140820977948
 20
24.42032339932017
 30
0.0
 10
341.7976077600161
 20
23.92103260083391
 30
0.0
 10
340.7609234069766
 20
23.08701632500076
 30
0.0
  0
SPLINE
  5
1B8
330
1F
100
AcDbEntity
  8
0
  6
SLD-実線
 62
   179
370
    18
100
AcDbSpline
210
0.0
220
0.0
230
1.0
 70
     8
 71
     3
 72
     8
 73
     4
 74
     0
 42
0.000000001
 43
0.00000001
 40
6.0
 40
6.0
 40
6.0
 40
6.0
 40
7.0
 40
7.0
 40
7.0
 40
7.0
 10
376.5856905857564
 20
12.810529679428
 30
0.0
 10
376.0412552560315
 20
12.810529679428
 30
0.0
 10
375.7156937326754
 20
13.24403293452797
 30
0.0
 10
375.7156937326754
 20
13.76203749169012
 30
0.0
  0
SPLINE
  5
1B9
330
1F
100
AcDbEntity
  8
0
  6
SLD-実線
 62
   179
370
    18
100
AcDbSpline
210
0.0
220
0.0
230
1.0
 70
     8
 71
     3
 72
     8
 73
     4
 74
     0
 42
0.000000001
 43
0.00000001
 40
7.0
 40
7.0
 40
7.0
 40
7.0
 40
8.0
 40
8.0
 40
8.0
 40
8.0
 10
375.7156937326754
 20
13.76203749169012
 30
0.0
 10
375.7156937326754
 20
14.28139252628248
 30
0.0
 10
376.0412552560315
 20
14.71470285603529
 30
0.0
 10
376.5856905857564
 20
14.71470285603529
 30
0.0
  0
SPLINE
  5
1BA
330
1F
100
AcDbEntity
  8
0
  6
SLD-実線
 62
   179
370
    18
100
AcDbSpline
210
0.0
220
0.0
230
1.0
 70
     8
 71
     3
 72
     8
 73
     4
 74
     0
 42
0.000000001
 43
0.00000001
 40
8.0
 40
8.0
 40
8.0
 40
8.0
 40
9.0
 40
9.0
 40
9.0
 40
9.0
 10
376.5856905857564
 20
14.71470285603529
 30
0.0
 10
376.9958498738484
 20
14.7118089758277
 30
0.0
 10
377.318228128976
 20
14.48570046893975
 30
0.0
 10
377.3566202730636
 20
14.09329031278784
 30
0.0
  0
SPLINE
  5
1BB
330
1F
100
AcDbEntity
  8
0
  6
SLD-実線
 62
   179
370
    18
100
AcDbSpline
210
0.0
220
0.0
230
1.0
 70
     8
 71
     3
 72
    11
 73
     7
 74
     0
 42
0.000000001
 43
0.00000001
 40
2.0
 40
2.0
 40
2.0
 40
2.0
 40
3.0
 40
3.0
 40
3.0
 40
4.0
 40
4.0
 40
4.0
 40
4.0
 10
378.4229186668944
 20
13.070014271377
 30
0.0
 10
378.03340239095
 20
13.070014271377
 30
0.0
 10
377.8704769352617
 20
13.41438601608259
 30
0.0
 10
377.8704769352617
 20
13.76203749169012
 30
0.0
 10
377.8704769352617
 20
14.1108465193807
 30
0.0
 10
378.03340239095
 20
14.45502533873909
 30
0.0
 10
378.4229186668944
 20
14.45502533873909
 30
0.0
  0
SPLINE
  5
1BC
330
1F
100
AcDbEntity
  8
0
  6
SLD-実線
 62
   179
370
    18
100
AcDbSpline
210
0.0
220
0.0
230
1.0
 70
     8
 71
     3
 72
    11
 73
     7
 74
     0
 42
0.000000001
 43
0.00000001
 40
0.0
 40
0.0
 40
0.0
 40
0.0
 40
1.0
 40
1.0
 40
1.0
 40
2.0
 40
2.0
 40
2.0
 40
2.0
 10
378.4229186668944
 20
14.45502533873909
 30
0.0
 10
378.8117597041235
 20
14.45502533873909
 30
0.0
 10
378.9749745478329
 20
14.1108465193807
 30
0.0
 10
378.9749745478329
 20
13.76203749169012
 30
0.0
 10
378.9749745478329
 20
13.41438601608259
 30
0.0
 10
378.8117597041235
 20
13.070014271377
 30
0.0
 10
378.4229186668944
 20
13.070014271377
 30
0.0
  0
SPLINE
  5
1BD
330
1F
100
AcDbEntity
  8
0
  6
SLD-実線
 62
   179
370
    18
100
AcDbSpline
210
0.0
220
0.0
230
1.0
 70
     8
 71
     3
 72
    11
 73
     7
 74
     0
 42
0.000000001
 43
0.00000001
 40
2.0
 40
2.0
 40
2.0
 40
2.0
 40
3.0
 40
3.0
 40
3.0
 40
4.0
 40
4.0
 40
4.0
 40
4.0
 10
378.4229186668944
 20
12.810529679428
 30
0.0
 10
378.9672575339458
 20
12.810529679428
 30
0.0
 10
379.2920473559132
 20
13.24403293452797
 30
0.0
 10
379.2920473559132
 20
13.76203749169012
 30
0.0
 10
379.2920473559132
 20
14.28139252628248
 30
0.0
 10
378.9672575339458
 20
14.71470285603529
 30
0.0
 10
378.4229186668944
 20
14.71470285603529
 30
0.0
  0
SPLINE
  5
1BE
330
1F
100
AcDbEntity
  8
0
  6
SLD-実線
 62
   179
370
    18
100
AcDbSpline
210
0.0
220
0.0
230
1.0
 70
     8
 71
     3
 72
    11
 73
     7
 74
     0
 42
0.000000001
 43
0.00000001
 40
0.0
 40
0.0
 40
0.0
 40
0.0
 40
1.0
 40
1.0
 40
1.0
 40
2.0
 40
2.0
 40
2.0
 40
2.0
 10
378.4229186668944
 20
14.71470285603529
 30
0.0
 10
377.8779045611279
 20
14.71470285603529
 30
0.0
 10
377.5514748737095
 20
14.28139252628248
 30
0.0
 10
377.5514748737095
 20
13.76203749169012
 30
0.0
 10
377.5514748737095
 20
13.24403293452797
 30
0.0
 10
377.8779045611279
 20
12.810529679428
 30
0.0
 10
378.4229186668944
 20
12.810529679428
 30
0.0
  0
SPLINE
  5
1BF
330
1F
100
AcDbEntity
  8
0
  6
SLD-実線
 62
   179
370
    18
100
AcDbSpline
210
0.0
220
0.0
230
1.0
 70
     8
 71
     3
 72
     8
 73
     4
 74
     0
 42
0.000000001
 43
0.00000001
 40
2.0
 40
2.0
 40
2.0
 40
2.0
 40
3.0
 40
3.0
 40
3.0
 40
3.0
 10
380.6261261316213
 20
12.8543237332365
 30
0.0
 10
380.6239074901288
 20
12.64557850759426
 30
0.0
 10
380.4839401507541
 20
12.4935533340211
 30
0.0
 10
380.2826225509781
 20
12.45246023507307
 30
0.0
  0
SPLINE
  5
1C0
330
1F
100
AcDbEntity
  8
0
  6
SLD-実線
 62
   179
370
    18
100
AcDbSpline
210
0.0
220
0.0
230
1.0
 70
     8
 71
     3
 72
     8
 73
     4
 74
     0
 42
0.000000001
 43
0.00000001
 40
4.0
 40
4.0
 40
4.0
 40
4.0
 40
5.0
 40
5.0
 40
5.0
 40
5.0
 10
380.2826225509781
 20
12.60718636350657
 30
0.0
 10
380.3941334016446
 20
12.635353464194
 30
0.0
 10
380.4504676030194
 20
12.74551383743036
 30
0.0
 10
380.4484418868741
 20
12.8543237332365
 30
0.0
  0
SPLINE
  5
1C1
330
1F
100
AcDbEntity
  8
0
  6
SLD-実線
 62
   179
370
    18
100
AcDbSpline
210
0.0
220
0.0
230
1.0
 70
     8
 71
     3
 72
     8
 73
     4
 74
     0
 42
0.000000001
 43
0.00000001
 40
1.0
 40
1.0
 40
1.0
 40
1.0
 40
2.0
 40
2.0
 40
2.0
 40
2.0
 10
384.3645370464853
 20
14.4110383595834
 30
0.0
 10
384.8624773675414
 20
14.4110383595834
 30
0.0
 10
384.9686827711607
 20
14.12666639784894
 30
0.0
 10
384.9686827711607
 20
13.76203749169012
 30
0.0
  0
SPLINE
  5
1C2
330
1F
100
AcDbEntity
  8
0
  6
SLD-実線
 62
   179
370
    18
100
AcDbSpline
210
0.0
220
0.0
230
1.0
 70
     8
 71
     3
 72
     8
 73
     4
 74
     0
 42
0.000000001
 43
0.00000001
 40
2.0
 40
2.0
 40
2.0
 40
2.0
 40
3.0
 40
3.0
 40
3.0
 40
3.0
 10
384.9686827711607
 20
13.76203749169012
 30
0.0
 10
384.9686827711607
 20
13.39933783900301
 30
0.0
 10
384.8624773675414
 20
13.11400125053267
 30
0.0
 10
384.3645370464853
 20
13.11400125053267
 30
0.0
  0
SPLINE
  5
1C3
330
1F
100
AcDbEntity
  8
0
  6
SLD-実線
 62
   179
370
    18
100
AcDbSpline
210
0.0
220
0.0
230
1.0
 70
     8
 71
     3
 72
     8
 73
     4
 74
     0
 42
0.000000001
 43
0.00000001
 40
1.0
 40
1.0
 40
1.0
 40
1.0
 40
2.0
 40
2.0
 40
2.0
 40
2.0
 10
384.4859835525314
 20
12.8543237332365
 30
0.0
 10
385.0461422980512
 20
12.8543237332365
 30
0.0
 10
385.2882636087545
 20
13.26101036507926
 30
0.0
 10
385.2882636087545
 20
13.76203749169012
 30
0.0
  0
SPLINE
  5
1C4
330
1F
100
AcDbEntity
  8
0
  6
SLD-実線
 62
   179
370
    18
100
AcDbSpline
210
0.0
220
0.0
230
1.0
 70
     8
 71
     3
 72
     8
 73
     4
 74
     0
 42
0.000000001
 43
0.00000001
 40
2.0
 40
2.0
 40
2.0
 40
2.0
 40
3.0
 40
3.0
 40
3.0
 40
3.0
 10
385.2882636087545
 20
13.76203749169012
 30
0.0
 10
385.2882636087545
 20
14.26383631968965
 30
0.0
 10
385.0461422980512
 20
14.67033002618525
 30
0.0
 10
384.4859835525314
 20
14.67033002618525
 30
0.0
  0
SPLINE
  5
1C5
330
1F
100
AcDbEntity
  8
0
  6
SLD-実線
 62
   179
370
    18
100
AcDbSpline
210
0.0
220
0.0
230
1.0
 70
     8
 71
     3
 72
     8
 73
     4
 74
     0
 42
0.000000001
 43
0.00000001
 40
0.0
 40
0.0
 40
0.0
 40
0.0
 40
1.0
 40
1.0
 40
1.0
 40
1.0
 10
353.3445527877473
 20
22.60269683192786
 30
0.0
 10
353.7269308258461
 20
22.61234309928658
 30
0.0
 10
354.0997108279232
 20
22.63819509580789
 30
0.0
 10
354.4644844280922
 20
22.6381950958079
 30
0.0
  0
SPLINE
  5
1C6
330
1F
100
AcDbEntity
  8
0
  6
SLD-実線
 62
   179
370
    18
100
AcDbSpline
210
0.0
220
0.0
230
1.0
 70
     8
 71
     3
 72
     8
 73
     4
 74
     0
 42
0.000000001
 43
0.00000001
 40
1.0
 40
1.0
 40
1.0
 40
1.0
 40
2.0
 40
2.0
 40
2.0
 40
2.0
 10
354.4644844280922
 20
22.6381950958079
 30
0.0
 10
356.454509384192
 20
22.63819509580788
 30
0.0
 10
357.2272236309607
 20
21.95451589676006
 30
0.0
 10
357.2272236309607
 20
20.07146804566833
 30
0.0
  0
SPLINE
  5
1C7
330
1F
100
AcDbEntity
  8
0
  6
SLD-実線
 62
   179
370
    18
100
AcDbSpline
210
0.0
220
0.0
230
1.0
 70
     8
 71
     3
 72
     8
 73
     4
 74
     0
 42
0.000000001
 43
0.00000001
 40
2.0
 40
2.0
 40
2.0
 40
2.0
 40
3.0
 40
3.0
 40
3.0
 40
3.0
 10
357.2272236309607
 20
20.07146804566832
 30
0.0
 10
357.2272236309607
 20
18.98698643786653
 30
0.0
 10
356.9073051740093
 20
18.00065560043949
 30
0.0
 10
355.9485144298916
 20
17.52171842608005
 30
0.0
  0
SPLINE
  5
1C8
330
1F
100
AcDbEntity
  8
0
  6
SLD-実線
 62
   179
370
    18
100
AcDbSpline
210
0.0
220
0.0
230
1.0
 70
     8
 71
     3
 72
     8
 73
     4
 74
     0
 42
0.000000001
 43
0.00000001
 40
3.0
 40
3.0
 40
3.0
 40
3.0
 40
4.0
 40
4.0
 40
4.0
 40
4.0
 10
355.9485144298916
 20
17.52171842608005
 30
0.0
 10
355.2285170342382
 20
17.15747537061555
 30
0.0
 10
354.1267203765275
 20
17.26310199819333
 30
0.0
 10
353.3445527877473
 20
17.30737836536974
 30
0.0
  0
SPLINE
  5
1C9
330
1F
100
AcDbEntity
  8
0
  6
SLD-実線
 62
   179
370
    18
100
AcDbSpline
210
0.0
220
0.0
230
1.0
 70
     8
 71
     3
 72
     8
 73
     4
 74
     0
 42
0.000000001
 43
0.00000001
 40
1.0
 40
1.0
 40
1.0
 40
1.0
 40
2.0
 40
2.0
 40
2.0
 40
2.0
 10
354.2954335926312
 20
16.90734765800449
 30
0.0
 10
355.2373433688714
 20
16.90734765800449
 30
0.0
 10
356.2229507362465
 20
16.92586849133319
 30
0.0
 10
356.9787840151373
 20
17.5829722238078
 30
0.0
  0
SPLINE
  5
1CA
330
1F
100
AcDbEntity
  8
0
  6
SLD-実線
 62
   179
370
    18
100
AcDbSpline
210
0.0
220
0.0
230
1.0
 70
     8
 71
     3
 72
     8
 73
     4
 74
     0
 42
0.000000001
 43
0.00000001
 40
2.0
 40
2.0
 40
2.0
 40
2.0
 40
3.0
 40
3.0
 40
3.0
 40
3.0
 10
356.9787840151373
 20
17.5829722238078
 30
0.0
 10
357.6450034702659
 20
18.16850065248088
 30
0.0
 10
358.0980886481041
 20
18.96996077597841
 30
0.0
 10
358.0980886481041
 20
20.20487592323912
 30
0.0
  0
SPLINE
  5
1CB
330
1F
100
AcDbEntity
  8
0
  6
SLD-実線
 62
   179
370
    18
100
AcDbSpline
210
0.0
220
0.0
230
1.0
 70
     8
 71
     3
 72
     8
 73
     4
 74
     0
 42
0.000000001
 43
0.00000001
 40
3.0
 40
3.0
 40
3.0
 40
3.0
 40
4.0
 40
4.0
 40
4.0
 40
4.0
 10
358.0980886481041
 20
20.20487592323912
 30
0.0
 10
358.0980886481041
 20
21.04834554108382
 30
0.0
 10
357.8138613803799
 20
21.87498242238757
 30
0.0
 10
357.147497231241
 20
22.42583251990612
 30
0.0
  0
SPLINE
  5
1CC
330
1F
100
AcDbEntity
  8
0
  6
SLD-実線
 62
   179
370
    18
100
AcDbSpline
210
0.0
220
0.0
230
1.0
 70
     8
 71
     3
 72
     8
 73
     4
 74
     0
 42
0.000000001
 43
0.00000001
 40
4.0
 40
4.0
 40
4.0
 40
4.0
 40
5.0
 40
5.0
 40
5.0
 40
5.0
 10
357.147497231241
 20
22.42583251990612
 30
0.0
 10
356.4006832123306
 20
23.04690744379599
 30
0.0
 10
355.5040626613393
 20
22.95845117211671
 30
0.0
 10
354.5795161663448
 20
22.95845117211671
 30
0.0
  0
SPLINE
  5
1CD
330
1F
100
AcDbEntity
  8
0
  6
SLD-実線
 62
   179
370
    18
100
AcDbSpline
210
0.0
220
0.0
230
1.0
 70
     8
 71
     3
 72
     8
 73
     4
 74
     0
 42
0.000000001
 43
0.00000001
 40
0.0
 40
0.0
 40
0.0
 40
0.0
 40
1.0
 40
1.0
 40
1.0
 40
1.0
 10
360.1771486519246
 20
16.88130273613601
 30
0.0
 10
360.044416013069
 20
16.89037022745316
 30
0.0
 10
359.9371012887034
 20
16.90734765800448
 30
0.0
 10
359.8220695504509
 20
16.90734765800448
 30
0.0
  0
SPLINE
  5
1CE
330
1F
100
AcDbEntity
  8
0
  6
SLD-実線
 62
   179
370
    18
100
AcDbSpline
210
0.0
220
0.0
230
1.0
 70
     8
 71
     3
 72
     8
 73
     4
 74
     0
 42
0.000000001
 43
0.00000001
 40
1.0
 40
1.0
 40
1.0
 40
1.0
 40
2.0
 40
2.0
 40
2.0
 40
2.0
 10
359.8220695504509
 20
16.90734765800448
 30
0.0
 10
359.6978256268708
 20
16.90734765800448
 30
0.0
 10
359.5816845678722
 20
16.89037022745316
 30
0.0
 10
359.4666045982827
 20
16.88130273613601
 30
0.0
  0
SPLINE
  5
1CF
330
1F
100
AcDbEntity
  8
0
  6
SLD-実線
 62
   179
370
    18
100
AcDbSpline
210
0.0
220
0.0
230
1.0
 70
     8
 71
     3
 72
     8
 73
     4
 74
     0
 42
0.000000001
 43
0.00000001
 40
3.0
 40
3.0
 40
3.0
 40
3.0
 40
4.0
 40
4.0
 40
4.0
 40
4.0
 10
359.4666045982827
 20
21.12821663481386
 30
0.0
 10
359.5816845678722
 20
21.11992084488537
 30
0.0
 10
359.6978256268708
 20
21.10058007883118
 30
0.0
 10
359.8220695504509
 20
21.10058007883118
 30
0.0
  0
SPLINE
  5
1D0
330
1F
100
AcDbEntity
  8
0
  6
SLD-実線
 62
   179
370
    18
100
AcDbSpline
210
0.0
220
0.0
230
1.0
 70
     8
 71
     3
 72
     8
 73
     4
 74
     0
 42
0.000000001
 43
0.00000001
 40
4.0
 40
4.0
 40
4.0
 40
4.0
 40
5.0
 40
5.0
 40
5.0
 40
5.0
 10
359.8220695504509
 20
21.10058007883118
 30
0.0
 10
359.9371012887034
 20
21.10058007883118
 30
0.0
 10
360.044416013069
 20
21.11992084488537
 30
0.0
 10
360.1771486519246
 20
21.12821663481386
 30
0.0
  0
SPLINE
  5
1D1
330
1F
100
AcDbEntity
  8
0
  6
SLD-実線
 62
   179
370
    18
100
AcDbSpline
210
0.0
220
0.0
230
1.0
 70
     8
 71
     3
 72
    11
 73
     7
 74
     0
 42
0.000000001
 43
0.00000001
 40
2.0
 40
2.0
 40
2.0
 40
2.0
 40
3.0
 40
3.0
 40
3.0
 40
4.0
 40
4.0
 40
4.0
 40
4.0
 10
359.8220695504509
 20
23.10145708570941
 30
0.0
 10
360.0612969809465
 20
23.10145708570941
 30
0.0
 10
360.2746724149211
 20
22.89681152369462
 30
0.0
 10
360.2746724149211
 20
22.64750374380904
 30
0.0
 10
360.2746724149211
 20
22.39805126991308
 30
0.0
 10
360.0612969809465
 20
22.19465972265487
 30
0.0
 10
359.8220695504509
 20
22.19465972265487
 30
0.0
  0
SPLINE
  5
1D2
330
1F
100
AcDbEntity
  8
0
  6
SLD-実線
 62
   179
370
    18
100
AcDbSpline
210
0.0
220
0.0
230
1.0
 70
     8
 71
     3
 72
    11
 73
     7
 74
     0
 42
0.000000001
 43
0.00000001
 40
0.0
 40
0.0
 40
0.0
 40
0.0
 40
1.0
 40
1.0
 40
1.0
 40
2.0
 40
2.0
 40
2.0
 40
2.0
 10
359.8220695504509
 20
22.19465972265487
 30
0.0
 10
359.5730029272493
 20
22.19465972265487
 30
0.0
 10
359.3681162085505
 20
22.39805126991308
 30
0.0
 10
359.3681162085505
 20
22.64750374380904
 30
0.0
 10
359.3681162085505
 20
22.89681152369462
 30
0.0
 10
359.5730029272493
 20
23.10145708570941
 30
0.0
 10
359.8220695504509
 20
23.10145708570941
 30
0.0
  0
SPLINE
  5
1D3
330
1F
100
AcDbEntity
  8
0
  6
SLD-実線
 62
   179
370
    18
100
AcDbSpline
210
0.0
220
0.0
230
1.0
 70
     8
 71
     3
 72
     8
 73
     4
 74
     0
 42
0.000000001
 43
0.00000001
 40
0.0
 40
0.0
 40
0.0
 40
0.0
 40
1.0
 40
1.0
 40
1.0
 40
1.0
 10
367.053635032584
 20
21.89302094234835
 30
0.0
 10
366.5559840995485
 20
22.46123432111253
 30
0.0
 10
365.8092665433118
 20
22.75414322945944
 30
0.0
 10
365.054542585167
 20
22.75414322945944
 30
0.0
  0
SPLINE
  5
1D4
330
1F
100
AcDbEntity
  8
0
  6
SLD-実線
 62
   179
370
    18
100
AcDbSpline
210
0.0
220
0.0
230
1.0
 70
     8
 71
     3
 72
     8
 73
     4
 74
     0
 42
0.000000001
 43
0.00000001
 40
1.0
 40
1.0
 40
1.0
 40
1.0
 40
2.0
 40
2.0
 40
2.0
 40
2.0
 10
365.054542585167
 20
22.75414322945944
 30
0.0
 10
363.5437441914476
 20
22.75414322945944
 30
0.0
 10
362.4959666309456
 20
21.75937190809358
 30
0.0
 10
362.4959666309456
 20
19.9654555673962
 30
0.0
  0
SPLINE
  5
1D5
330
1F
100
AcDbEntity
  8
0
  6
SLD-実線
 62
   179
370
    18
100
AcDbSpline
210
0.0
220
0.0
230
1.0
 70
     8
 71
     3
 72
     8
 73
     4
 74
     0
 42
0.000000001
 43
0.00000001
 40
2.0
 40
2.0
 40
2.0
 40
2.0
 40
3.0
 40
3.0
 40
3.0
 40
3.0
 10
362.4959666309456
 20
19.9654555673962
 30
0.0
 10
362.4959666309456
 20
18.20477061774959
 30
0.0
 10
363.401654673254
 20
17.11223437670327
 30
0.0
 10
365.15196988549
 20
17.11223437670327
 30
0.0
  0
SPLINE
  5
1D6
330
1F
100
AcDbEntity
  8
0
  6
SLD-実線
 62
   179
370
    18
100
AcDbSpline
210
0.0
220
0.0
230
1.0
 70
     8
 71
     3
 72
     8
 73
     4
 74
     0
 42
0.000000001
 43
0.00000001
 40
3.0
 40
3.0
 40
3.0
 40
3.0
 40
4.0
 40
4.0
 40
4.0
 40
4.0
 10
365.15196988549
 20
17.11223437670327
 30
0.0
 10
365.6323539999531
 20
17.11223437670327
 30
0.0
 10
366.1301978583356
 20
17.20184820046559
 30
0.0
 10
366.5384278929558
 20
17.41435547037771
 30
0.0
  0
SPLINE
  5
1D7
330
1F
100
AcDbEntity
  8
0
  6
SLD-実線
 62
   179
370
    18
100
AcDbSpline
210
0.0
220
0.0
230
1.0
 70
     8
 71
     3
 72
     8
 73
     4
 74
     0
 42
0.000000001
 43
0.00000001
 40
5.0
 40
5.0
 40
5.0
 40
5.0
 40
6.0
 40
6.0
 40
6.0
 40
6.0
 10
366.5384278929558
 20
19.69815749888666
 30
0.0
 10
366.6629612045565
 20
19.68865592553832
 30
0.0
 10
366.7963690821275
 20
19.67081033092475
 30
0.0
 10
366.9296804970246
 20
19.67081033092475
 30
0.0
  0
SPLINE
  5
1D8
330
1F
100
AcDbEntity
  8
0
  6
SLD-実線
 62
   179
370
    18
100
AcDbSpline
210
0.0
220
0.0
230
1.0
 70
     8
 71
     3
 72
     8
 73
     4
 74
     0
 42
0.000000001
 43
0.00000001
 40
6.0
 40
6.0
 40
6.0
 40
6.0
 40
7.0
 40
7.0
 40
7.0
 40
7.0
 10
366.9296804970246
 20
19.67081033092475
 30
0.0
 10
367.0532491818895
 20
19.67081033092475
 30
0.0
 10
367.1784577322055
 20
19.68865592553832
 30
0.0
 10
367.3206437130728
 20
19.69815749888666
 30
0.0
  0
SPLINE
  5
1D9
330
1F
100
AcDbEntity
  8
0
  6
SLD-実線
 62
   179
370
    18
100
AcDbSpline
210
0.0
220
0.0
230
1.0
 70
     8
 71
     3
 72
     8
 73
     4
 74
     0
 42
0.000000001
 43
0.00000001
 40
8.0
 40
8.0
 40
8.0
 40
8.0
 40
9.0
 40
9.0
 40
9.0
 40
9.0
 10
367.3206437130728
 20
17.18361675515765
 30
0.0
 10
366.5473024589257
 20
16.91718685071036
 30
0.0
 10
365.7300706882967
 20
16.7746150191488
 30
0.0
 10
364.9031926503091
 20
16.7746150191488
 30
0.0
  0
SPLINE
  5
1DA
330
1F
100
AcDbEntity
  8
0
  6
SLD-実線
 62
   179
370
    18
100
AcDbSpline
210
0.0
220
0.0
230
1.0
 70
     8
 71
     3
 72
     8
 73
     4
 74
     0
 42
0.000000001
 43
0.00000001
 40
9.0
 40
9.0
 40
9.0
 40
9.0
 40
10.0
 40
10.0
 40
10.0
 40
10.0
 10
364.9031926503091
 20
16.7746150191488
 30
0.0
 10
362.6556123557321
 20
16.7746150191488
 30
0.0
 10
361.6255356958334
 20
18.11660373409106
 30
0.0
 10
361.6255356958334
 20
19.9202145734839
 30
0.0
  0
SPLINE
  5
1DB
330
1F
100
AcDbEntity
  8
0
  6
SLD-実線
 62
   179
370
    18
100
AcDbSpline
210
0.0
220
0.0
230
1.0
 70
     8
 71
     3
 72
     8
 73
     4
 74
     0
 42
0.000000001
 43
0.00000001
 40
10.0
 40
10.0
 40
10.0
 40
10.0
 40
11.0
 40
11.0
 40
11.0
 40
11.0
 10
361.6255356958334
 20
19.9202145734839
 30
0.0
 10
361.6255356958334
 20
21.99830995056854
 30
0.0
 10
363.1180544129081
 20
23.0913767363196
 30
0.0
 10
365.0897514610264
 20
23.0913767363196
 30
0.0
  0
SPLINE
  5
1DC
330
1F
100
AcDbEntity
  8
0
  6
SLD-実線
 62
   179
370
    18
100
AcDbSpline
210
0.0
220
0.0
230
1.0
 70
     8
 71
     3
 72
     8
 73
     4
 74
     0
 42
0.000000001
 43
0.00000001
 40
11.0
 40
11.0
 40
11.0
 40
11.0
 40
12.0
 40
12.0
 40
12.0
 40
12.0
 10
365.0897514610264
 20
23.0913767363196
 30
0.0
 10
366.4145698200701
 20
23.0913767363196
 30
0.0
 10
367.1598404362031
 20
22.70152284101775
 30
0.0
 10
367.3558525889321
 20
22.57713422342731
 30
0.0
  0
SPLINE
  5
1DD
330
1F
100
AcDbEntity
  8
0
  6
SLD-実線
 62
   179
370
    18
100
AcDbSpline
210
0.0
220
0.0
230
1.0
 70
     8
 71
     3
 72
     8
 73
     4
 74
     0
 42
0.000000001
 43
0.00000001
 40
12.0
 40
12.0
 40
12.0
 40
12.0
 40
13.0
 40
13.0
 40
13.0
 40
13.0
 10
367.3558525889321
 20
22.57713422342731
 30
0.0
 10
367.2756921071812
 20
22.35420898476778
 30
0.0
 10
367.2136666080648
 20
22.12322911286372
 30
0.0
 10
367.1514481836012
 20
21.89302094234835
 30
0.0
  0
SPLINE
  5
1DE
330
1F
100
AcDbEntity
  8
0
  6
SLD-実線
 62
   179
370
    18
100
AcDbSpline
210
0.0
220
0.0
230
1.0
 70
     8
 71
     3
 72
     8
 73
     4
 74
     0
 42
0.000000001
 43
0.00000001
 40
0.0
 40
0.0
 40
0.0
 40
0.0
 40
1.0
 40
1.0
 40
1.0
 40
1.0
 10
369.5594459043533
 20
16.88130273613601
 30
0.0
 10
369.4260380267825
 20
16.89037022745316
 30
0.0
 10
369.3193503097952
 20
16.90734765800448
 30
0.0
 10
369.2039809521852
 20
16.90734765800448
 30
0.0
  0
SPLINE
  5
1DF
330
1F
100
AcDbEntity
  8
0
  6
SLD-実線
 62
   179
370
    18
100
AcDbSpline
210
0.0
220
0.0
230
1.0
 70
     8
 71
     3
 72
     8
 73
     4
 74
     0
 42
0.000000001
 43
0.00000001
 40
1.0
 40
1.0
 40
1.0
 40
1.0
 40
2.0
 40
2.0
 40
2.0
 40
2.0
 10
369.2039809521852
 20
16.90734765800448
 30
0.0
 10
369.0786759391958
 20
16.90734765800448
 30
0.0
 10
368.9633065815856
 20
16.89037022745316
 30
0.0
 10
368.8486124626907
 20
16.88130273613601
 30
0.0
  0
SPLINE
  5
1E0
330
1F
100
AcDbEntity
  8
0
  6
SLD-実線
 62
   179
370
    18
100
AcDbSpline
210
0.0
220
0.0
230
1.0
 70
     8
 71
     3
 72
     8
 73
     4
 74
     0
 42
0.000000001
 43
0.00000001
 40
3.0
 40
3.0
 40
3.0
 40
3.0
 40
4.0
 40
4.0
 40
4.0
 40
4.0
 10
368.8486124626907
 20
21.12821663481386
 30
0.0
 10
368.9633065815856
 20
21.11992084488537
 30
0.0
 10
369.0786759391958
 20
21.10058007883118
 30
0.0
 10
369.2039809521852
 20
21.10058007883118
 30
0.0
  0
SPLINE
  5
1E1
330
1F
100
AcDbEntity
  8
0
  6
SLD-実線
 62
   179
370
    18
100
AcDbSpline
210
0.0
220
0.0
230
1.0
 70
     8
 71
     3
 72
     8
 73
     4
 74
     0
 42
0.000000001
 43
0.00000001
 40
4.0
 40
4.0
 40
4.0
 40
4.0
 40
5.0
 40
5.0
 40
5.0
 40
5.0
 10
369.2039809521852
 20
21.10058007883118
 30
0.0
 10
369.3193503097952
 20
21.10058007883118
 30
0.0
 10
369.4260380267825
 20
21.11992084488537
 30
0.0
 10
369.5594459043533
 20
21.12821663481386
 30
0.0
  0
SPLINE
  5
1E2
330
1F
100
AcDbEntity
  8
0
  6
SLD-実線
 62
   179
370
    18
100
AcDbSpline
210
0.0
220
0.0
230
1.0
 70
     8
 71
     3
 72
    11
 73
     7
 74
     0
 42
0.000000001
 43
0.00000001
 40
2.0
 40
2.0
 40
2.0
 40
2.0
 40
3.0
 40
3.0
 40
3.0
 40
4.0
 40
4.0
 40
4.0
 40
4.0
 10
369.2039809521852
 20
23.10145708570941
 30
0.0
 10
369.4432083826809
 20
23.10145708570941
 30
0.0
 10
369.6569696673498
 20
22.89681152369462
 30
0.0
 10
369.6569696673498
 20
22.64750374380904
 30
0.0
 10
369.6569696673498
 20
22.39805126991308
 30
0.0
 10
369.4432083826809
 20
22.19465972265487
 30
0.0
 10
369.2039809521852
 20
22.19465972265487
 30
0.0
  0
SPLINE
  5
1E3
330
1F
100
AcDbEntity
  8
0
  6
SLD-実線
 62
   179
370
    18
100
AcDbSpline
210
0.0
220
0.0
230
1.0
 70
     8
 71
     3
 72
    11
 73
     7
 74
     0
 42
0.000000001
 43
0.00000001
 40
0.0
 40
0.0
 40
0.0
 40
0.0
 40
1.0
 40
1.0
 40
1.0
 40
2.0
 40
2.0
 40
2.0
 40
2.0
 10
369.2039809521852
 20
22.19465972265487
 30
0.0
 10
368.955300179678
 20
22.19465972265487
 30
0.0
 10
368.7501240729583
 20
22.39805126991308
 30
0.0
 10
368.7501240729583
 20
22.64750374380904
 30
0.0
 10
368.7501240729583
 20
22.89681152369462
 30
0.0
 10
368.955300179678
 20
23.10145708570941
 30
0.0
 10
369.2039809521852
 20
23.10145708570941
 30
0.0
  0
SPLINE
  5
1E4
330
1F
100
AcDbEntity
  8
0
  6
SLD-実線
 62
   179
370
    18
100
AcDbSpline
210
0.0
220
0.0
230
1.0
 70
     8
 71
     3
 72
     8
 73
     4
 74
     0
 42
0.000000001
 43
0.00000001
 40
0.0
 40
0.0
 40
0.0
 40
0.0
 40
1.0
 40
1.0
 40
1.0
 40
1.0
 10
373.3447376785806
 20
16.8641323802375
 30
0.0
 10
373.2025516977134
 20
16.87358572224905
 30
0.0
 10
373.0777289980919
 20
16.89037022745316
 30
0.0
 10
372.9534850745118
 20
16.89037022745316
 30
0.0
  0
SPLINE
  5
1E5
330
1F
100
AcDbEntity
  8
0
  6
SLD-実線
 62
   179
370
    18
100
AcDbSpline
210
0.0
220
0.0
230
1.0
 70
     8
 71
     3
 72
     8
 73
     4
 74
     0
 42
0.000000001
 43
0.00000001
 40
1.0
 40
1.0
 40
1.0
 40
1.0
 40
2.0
 40
2.0
 40
2.0
 40
2.0
 10
372.9534850745118
 20
16.89037022745316
 30
0.0
 10
372.8204630476353
 20
16.89037022745316
 30
0.0
 10
372.6862834686758
 20
16.87358572224905
 30
0.0
 10
372.5620395450958
 20
16.8641323802375
 30
0.0
  0
SPLINE
  5
1E6
330
1F
100
AcDbEntity
  8
0
  6
SLD-実線
 62
   179
370
    18
100
AcDbSpline
210
0.0
220
0.0
230
1.0
 70
     8
 71
     3
 72
     8
 73
     4
 74
     0
 42
0.000000001
 43
0.00000001
 40
3.0
 40
3.0
 40
3.0
 40
3.0
 40
4.0
 40
4.0
 40
4.0
 40
4.0
 10
372.5620395450958
 20
22.53280962491409
 30
0.0
 10
371.6651296060838
 20
22.53280962491409
 30
0.0
 10
371.1236846192401
 20
22.47879052770539
 30
0.0
 10
370.6165803441933
 20
22.42583251990612
 30
0.0
  0
SPLINE
  5
1E7
330
1F
100
AcDbEntity
  8
0
  6
SLD-実線
 62
   179
370
    18
100
AcDbSpline
210
0.0
220
0.0
230
1.0
 70
     8
 71
     3
 72
     8
 73
     4
 74
     0
 42
0.000000001
 43
0.00000001
 40
4.0
 40
4.0
 40
4.0
 40
4.0
 40
5.0
 40
5.0
 40
5.0
 40
5.0
 10
370.6165803441933
 20
22.42583251990612
 30
0.0
 10
370.6248761341216
 20
22.51486756762691
 30
0.0
 10
370.6432040421031
 20
22.60269683192786
 30
0.0
 10
370.6432040421031
 20
22.69216596167979
 30
0.0
  0
SPLINE
  5
1E8
330
1F
100
AcDbEntity
  8
0
  6
SLD-実線
 62
   179
370
    18
100
AcDbSpline
210
0.0
220
0.0
230
1.0
 70
     8
 71
     3
 72
     8
 73
     4
 74
     0
 42
0.000000001
 43
0.00000001
 40
5.0
 40
5.0
 40
5.0
 40
5.0
 40
6.0
 40
6.0
 40
6.0
 40
6.0
 10
370.6432040421031
 20
22.69216596167979
 30
0.0
 10
370.6432040421031
 20
22.78086339004306
 30
0.0
 10
370.6248761341216
 20
22.86073448377311
 30
0.0
 10
370.6165803441933
 20
22.95845117211671
 30
0.0
  0
SPLINE
  5
1E9
330
1F
100
AcDbEntity
  8
0
  6
SLD-実線
 62
   179
370
    18
100
AcDbSpline
210
0.0
220
0.0
230
1.0
 70
     8
 71
     3
 72
     8
 73
     4
 74
     0
 42
0.000000001
 43
0.00000001
 40
7.0
 40
7.0
 40
7.0
 40
7.0
 40
8.0
 40
8.0
 40
8.0
 40
8.0
 10
375.201258294436
 20
22.95845117211671
 30
0.0
 10
375.1914191017301
 20
22.86073448377311
 30
0.0
 10
375.1745381338523
 20
22.78086339004306
 30
0.0
 10
375.1745381338523
 20
22.69216596167979
 30
0.0
  0
SPLINE
  5
1EA
330
1F
100
AcDbEntity
  8
0
  6
SLD-実線
 62
   179
370
    18
100
AcDbSpline
210
0.0
220
0.0
230
1.0
 70
     8
 71
     3
 72
     8
 73
     4
 74
     0
 42
0.000000001
 43
0.00000001
 40
8.0
 40
8.0
 40
8.0
 40
8.0
 40
9.0
 40
9.0
 40
9.0
 40
9.0
 10
375.1745381338523
 20
22.69216596167979
 30
0.0
 10
375.1745381338523
 20
22.60269683192786
 30
0.0
 10
375.1914191017301
 20
22.51486756762691
 30
0.0
 10
375.201258294436
 20
22.42583251990612
 30
0.0
  0
SPLINE
  5
1EB
330
1F
100
AcDbEntity
  8
0
  6
SLD-実線
 62
   179
370
    18
100
AcDbSpline
210
0.0
220
0.0
230
1.0
 70
     8
 71
     3
 72
     8
 73
     4
 74
     0
 42
0.000000001
 43
0.00000001
 40
9.0
 40
9.0
 40
9.0
 40
9.0
 40
10.0
 40
10.0
 40
10.0
 40
10.0
 10
375.201258294436
 20
22.42583251990612
 30
0.0
 10
374.7564689065262
 20
22.47879052770539
 30
0.0
 10
374.1354422139731
 20
22.53280962491409
 30
0.0
 10
373.3447376785806
 20
22.53280962491409
 30
0.0
  0
SPLINE
  5
1EC
330
1F
100
AcDbEntity
  8
0
  6
SLD-実線
 62
   179
370
    18
100
AcDbSpline
210
0.0
220
0.0
230
1.0
 70
     8
 71
     3
 72
     8
 73
     4
 74
     0
 42
0.000000001
 43
0.00000001
 40
1.0
 40
1.0
 40
1.0
 40
1.0
 40
2.0
 40
2.0
 40
2.0
 40
2.0
 10
378.3282887841056
 20
20.31127425220559
 30
0.0
 10
378.5941399125113
 20
20.31127425220559
 30
0.0
 10
378.85227402703
 20
20.34648312806483
 30
0.0
 10
379.1186074688038
 20
20.35550238804521
 30
0.0
  0
SPLINE
  5
1ED
330
1F
100
AcDbEntity
  8
0
  6
SLD-実線
 62
   179
370
    18
100
AcDbSpline
210
0.0
220
0.0
230
1.0
 70
     8
 71
     3
 72
     8
 73
     4
 74
     0
 42
0.000000001
 43
0.00000001
 40
2.0
 40
2.0
 40
2.0
 40
2.0
 40
3.0
 40
3.0
 40
3.0
 40
3.0
 10
379.1186074688038
 20
20.35550238804521
 30
0.0
 10
379.1107939922432
 20
20.28436116627481
 30
0.0
 10
379.0924660842617
 20
20.20487592323912
 30
0.0
 10
379.0924660842617
 20
20.12514952351947
 30
0.0
  0
SPLINE
  5
1EE
330
1F
100
AcDbEntity
  8
0
  6
SLD-実線
 62
   179
370
    18
100
AcDbSpline
210
0.0
220
0.0
230
1.0
 70
     8
 71
     3
 72
     8
 73
     4
 74
     0
 42
0.000000001
 43
0.00000001
 40
3.0
 40
3.0
 40
3.0
 40
3.0
 40
4.0
 40
4.0
 40
4.0
 40
4.0
 10
379.0924660842617
 20
20.12514952351947
 30
0.0
 10
379.0924660842617
 20
20.0529954436764
 30
0.0
 10
379.1107939922432
 20
19.97259380524166
 30
0.0
 10
379.1186074688038
 20
19.87569704962349
 30
0.0
  0
SPLINE
  5
1EF
330
1F
100
AcDbEntity
  8
0
  6
SLD-実線
 62
   179
370
    18
100
AcDbSpline
210
0.0
220
0.0
230
1.0
 70
     8
 71
     3
 72
     8
 73
     4
 74
     0
 42
0.000000001
 43
0.00000001
 40
4.0
 40
4.0
 40
4.0
 40
4.0
 40
5.0
 40
5.0
 40
5.0
 40
5.0
 10
379.1186074688038
 20
19.87569704962349
 30
0.0
 10
378.85227402703
 20
19.88587386168694
 30
0.0
 10
378.5941399125113
 20
19.9202145734839
 30
0.0
 10
378.3282887841056
 20
19.9202145734839
 30
0.0
  0
SPLINE
  5
1F0
330
1F
100
AcDbEntity
  8
0
  6
SLD-実線
 62
   179
370
    18
100
AcDbSpline
210
0.0
220
0.0
230
1.0
 70
     8
 71
     3
 72
     8
 73
     4
 74
     0
 42
0.000000001
 43
0.00000001
 40
7.0
 40
7.0
 40
7.0
 40
7.0
 40
8.0
 40
8.0
 40
8.0
 40
8.0
 10
376.950608879936
 20
17.32541688533052
 30
0.0
 10
377.4928255681685
 20
17.30737836536974
 30
0.0
 10
378.0254924517159
 20
17.34374479331203
 30
0.0
 10
378.5597992007144
 20
17.36120453723132
 30
0.0
  0
SPLINE
  5
1F1
330
1F
100
AcDbEntity
  8
0
  6
SLD-実線
 62
   179
370
    18
100
AcDbSpline
210
0.0
220
0.0
230
1.0
 70
     8
 71
     3
 72
     8
 73
     4
 74
     0
 42
0.000000001
 43
0.00000001
 40
8.0
 40
8.0
 40
8.0
 40
8.0
 40
9.0
 40
9.0
 40
9.0
 40
9.0
 10
378.5597992007144
 20
17.36120453723132
 30
0.0
 10
378.83452489509
 20
17.37036849122208
 30
0.0
 10
379.1016300382524
 20
17.39718511447925
 30
0.0
 10
379.3765486579755
 20
17.44117209363492
 30
0.0
  0
SPLINE
  5
1F2
330
1F
100
AcDbEntity
  8
0
  6
SLD-実線
 62
   179
370
    18
100
AcDbSpline
210
0.0
220
0.0
230
1.0
 70
     8
 71
     3
 72
     8
 73
     4
 74
     0
 42
0.000000001
 43
0.00000001
 40
9.0
 40
9.0
 40
9.0
 40
9.0
 40
10.0
 40
10.0
 40
10.0
 40
10.0
 10
379.3765486579755
 20
17.44117209363492
 30
0.0
 10
379.3679634800263
 20
17.34374479331203
 30
0.0
 10
379.350503736107
 20
17.26310199819333
 30
0.0
 10
379.350503736107
 20
17.17397048779896
 30
0.0
  0
SPLINE
  5
1F3
330
1F
100
AcDbEntity
  8
0
  6
SLD-実線
 62
   179
370
    18
100
AcDbSpline
210
0.0
220
0.0
230
1.0
 70
     8
 71
     3
 72
     8
 73
     4
 74
     0
 42
0.000000001
 43
0.00000001
 40
10.0
 40
10.0
 40
10.0
 40
10.0
 40
11.0
 40
11.0
 40
11.0
 40
11.0
 10
379.350503736107
 20
17.17397048779896
 30
0.0
 10
379.350503736107
 20
17.08599652948759
 30
0.0
 10
379.3679634800263
 20
16.99667209374605
 30
0.0
 10
379.3765486579755
 20
16.90734765800448
 30
0.0
  0
SPLINE
  5
1F4
330
1F
100
AcDbEntity
  8
0
  6
SLD-実線
 62
   179
370
    18
100
AcDbSpline
210
0.0
220
0.0
230
1.0
 70
     8
 71
     3
 72
     8
 73
     4
 74
     0
 42
0.000000001
 43
0.00000001
 40
14.0
 40
14.0
 40
14.0
 40
14.0
 40
15.0
 40
15.0
 40
15.0
 40
15.0
 10
379.3230118741347
 20
22.95845117211671
 30
0.0
 10
379.3152948602477
 20
22.86073448377311
 30
0.0
 10
379.2966775642455
 20
22.78086339004306
 30
0.0
 10
379.2966775642455
 20
22.69216596167979
 30
0.0
  0
SPLINE
  5
1F5
330
1F
100
AcDbEntity
  8
0
  6
SLD-実線
 62
   179
370
    18
100
AcDbSpline
210
0.0
220
0.0
230
1.0
 70
     8
 71
     3
 72
     8
 73
     4
 74
     0
 42
0.000000001
 43
0.00000001
 40
15.0
 40
15.0
 40
15.0
 40
15.0
 40
16.0
 40
16.0
 40
16.0
 40
16.0
 10
379.2966775642455
 20
22.69216596167979
 30
0.0
 10
379.2966775642455
 20
22.60269683192786
 30
0.0
 10
379.3152948602477
 20
22.51486756762691
 30
0.0
 10
379.3230118741347
 20
22.42583251990612
 30
0.0
  0
SPLINE
  5
1F6
330
1F
100
AcDbEntity
  8
0
  6
SLD-実線
 62
   179
370
    18
100
AcDbSpline
210
0.0
220
0.0
230
1.0
 70
     8
 71
     3
 72
     8
 73
     4
 74
     0
 42
0.000000001
 43
0.00000001
 40
16.0
 40
16.0
 40
16.0
 40
16.0
 40
17.0
 40
17.0
 40
17.0
 40
17.0
 10
379.3230118741347
 20
22.42583251990612
 30
0.0
 10
379.0569678203817
 20
22.47879052770539
 30
0.0
 10
378.7895732891986
 20
22.50555891962577
 30
0.0
 10
378.5238186234664
 20
22.52292220087144
 30
0.0
  0
SPLINE
  5
1F7
330
1F
100
AcDbEntity
  8
0
  6
SLD-実線
 62
   179
370
    18
100
AcDbSpline
210
0.0
220
0.0
230
1.0
 70
     8
 71
     3
 72
     8
 73
     4
 74
     0
 42
0.000000001
 43
0.00000001
 40
0.0
 40
0.0
 40
0.0
 40
0.0
 40
1.0
 40
1.0
 40
1.0
 40
1.0
 10
385.249582076646
 20
17.2810440554805
 30
0.0
 10
384.6903879578623
 20
16.90734765800448
 30
0.0
 10
383.9617089215861
 20
16.7746150191488
 30
0.0
 10
383.2860843557829
 20
16.7746150191488
 30
0.0
  0
SPLINE
  5
1F8
330
1F
100
AcDbEntity
  8
0
  6
SLD-実線
 62
   179
370
    18
100
AcDbSpline
210
0.0
220
0.0
230
1.0
 70
     8
 71
     3
 72
     8
 73
     4
 74
     0
 42
0.000000001
 43
0.00000001
 40
1.0
 40
1.0
 40
1.0
 40
1.0
 40
2.0
 40
2.0
 40
2.0
 40
2.0
 10
383.2860843557829
 20
16.7746150191488
 30
0.0
 10
381.332039976931
 20
16.7746150191488
 30
0.0
 10
380.158378627398
 20
18.00924077838873
 30
0.0
 10
380.158378627398
 20
19.95585753137431
 30
0.0
  0
SPLINE
  5
1F9
330
1F
100
AcDbEntity
  8
0
  6
SLD-実線
 62
   179
370
    18
100
AcDbSpline
210
0.0
220
0.0
230
1.0
 70
     8
 71
     3
 72
     8
 73
     4
 74
     0
 42
0.000000001
 43
0.00000001
 40
2.0
 40
2.0
 40
2.0
 40
2.0
 40
3.0
 40
3.0
 40
3.0
 40
3.0
 10
380.158378627398
 20
19.95585753137431
 30
0.0
 10
380.158378627398
 20
21.95451589676006
 30
0.0
 10
381.6330999811959
 20
23.0913767363196
 30
0.0
 10
383.5084308184008
 20
23.0913767363196
 30
0.0
  0
SPLINE
  5
1FA
330
1F
100
AcDbEntity
  8
0
  6
SLD-実線
 62
   179
370
    18
100
AcDbSpline
210
0.0
220
0.0
230
1.0
 70
     8
 71
     3
 72
     8
 73
     4
 74
     0
 42
0.000000001
 43
0.00000001
 40
3.0
 40
3.0
 40
3.0
 40
3.0
 40
4.0
 40
4.0
 40
4.0
 40
4.0
 10
383.5084308184008
 20
23.0913767363196
 30
0.0
 10
384.1566599849054
 20
23.0913767363196
 30
0.0
 10
384.8234099847388
 20
22.94147374156541
 30
0.0
 10
385.4184882180969
 20
22.68358078373056
 30
0.0
  0
SPLINE
  5
1FB
330
1F
100
AcDbEntity
  8
0
  6
SLD-実線
 62
   179
370
    18
100
AcDbSpline
210
0.0
220
0.0
230
1.0
 70
     8
 71
     3
 72
     8
 73
     4
 74
     0
 42
0.000000001
 43
0.00000001
 40
4.0
 40
4.0
 40
4.0
 40
4.0
 40
5.0
 40
5.0
 40
5.0
 40
5.0
 10
385.4184882180969
 20
22.68358078373056
 30
0.0
 10
385.3290673196817
 20
22.46123432111253
 30
0.0
 10
385.276688087924
 20
22.23015798653489
 30
0.0
 10
385.2320258700533
 20
21.99830995056854
 30
0.0
  0
SPLINE
  5
1FC
330
1F
100
AcDbEntity
  8
0
  6
SLD-実線
 62
   179
370
    18
100
AcDbSpline
210
0.0
220
0.0
230
1.0
 70
     8
 71
     3
 72
     8
 73
     4
 74
     0
 42
0.000000001
 43
0.00000001
 40
6.0
 40
6.0
 40
6.0
 40
6.0
 40
7.0
 40
7.0
 40
7.0
 40
7.0
 10
385.1694215948954
 20
21.98986946662968
 30
0.0
 10
385.0451776713151
 20
22.15043158681523
 30
0.0
 10
384.3874951627991
 20
22.75414322945944
 30
0.0
 10
383.4729325545208
 20
22.75414322945944
 30
0.0
  0
SPLINE
  5
1FD
330
1F
100
AcDbEntity
  8
0
  6
SLD-実線
 62
   179
370
    18
100
AcDbSpline
210
0.0
220
0.0
230
1.0
 70
     8
 71
     3
 72
     8
 73
     4
 74
     0
 42
0.000000001
 43
0.00000001
 40
7.0
 40
7.0
 40
7.0
 40
7.0
 40
8.0
 40
8.0
 40
8.0
 40
8.0
 10
383.4729325545208
 20
22.75414322945944
 30
0.0
 10
381.8379866998947
 20
22.75414322945944
 30
0.0
 10
381.0292436445413
 20
21.42995187779396
 30
0.0
 10
381.0292436445413
 20
19.9202145734839
 30
0.0
  0
SPLINE
  5
1FE
330
1F
100
AcDbEntity
  8
0
  6
SLD-実線
 62
   179
370
    18
100
AcDbSpline
210
0.0
220
0.0
230
1.0
 70
     8
 71
     3
 72
     8
 73
     4
 74
     0
 42
0.000000001
 43
0.00000001
 40
8.0
 40
8.0
 40
8.0
 40
8.0
 40
9.0
 40
9.0
 40
9.0
 40
9.0
 10
381.0292436445413
 20
19.9202145734839
 30
0.0
 10
381.0292436445413
 20
18.21345225837241
 30
0.0
 10
382.0062176026305
 20
17.12130186802043
 30
0.0
 10
383.4099424286684
 20
17.12130186802043
 30
0.0
  0
SPLINE
  5
1FF
330
1F
100
AcDbEntity
  8
0
  6
SLD-実線
 62
   179
370
    18
100
AcDbSpline
210
0.0
220
0.0
230
1.0
 70
     8
 71
     3
 72
     8
 73
     4
 74
     0
 42
0.000000001
 43
0.00000001
 40
9.0
 40
9.0
 40
9.0
 40
9.0
 40
10.0
 40
10.0
 40
10.0
 40
10.0
 10
383.4099424286684
 20
17.12130186802043
 30
0.0
 10
384.3698424935328
 20
17.12130186802043
 30
0.0
 10
385.1158848110546
 20
17.69023871683654
 30
0.0
 10
385.2942442945169
 20
17.84110633832662
 30
0.0
  0
DIMENSION
  5
200
330
1F
100
AcDbEntity
  8
0
  6
SLD-実線
 62
     7
370
    18
100
AcDbDimension
  2
_D
 10
-6.879307489
 20
0.0
 30
0.0
 11
-6.879307489
 21
271.472222168
 31
0.0
 70
   160
  1
<>
 71
     1
 42
-1.0
  3
SLDDIMSTYLE0
100
AcDbAlignedDimension
 13
0.0
 23
0.0
 33
0.0
 14
0.0
 24
0.0
 34
0.0
 50
90.0
100
AcDbRotatedDimension
  0
MTEXT
  5
20A
330
1F
100
AcDbEntity
  8
レイヤー_1
 62
     7
100
AcDbMText
 10
278.8571747663
 20
163.986996949
 30
0.0
 40
3.5
 41
0.0
 71
     1
 72
     1
  1
2
  7
SLDTEXTSTYLE0
 73
     1
 44
1.0
  0
MTEXT
  5
20B
330
1F
100
AcDbEntity
  8
レイヤー_1
 62
     7
100
AcDbMText
 10
353.2110422908
 20
166.4885940851
 30
0.0
 40
3.5
 41
0.0
 71
     1
 72
     1
  1
2
  7
SLDTEXTSTYLE0
 73
     1
 44
1.0
  0
INSERT
  5
215
330
1F
100
AcDbEntity
  8
レイヤー_1
 62
     7
100
AcDbBlockReference
  2
SW_NOTE_0
 10
231.7451643241
 20
235.3405251358
 30
0.0
  0
MTEXT
  5
216
330
1F
100
AcDbEntity
  8
レイヤー_1
 62
     7
100
AcDbMText
 10
298.8150284221
 20
133.4350313385
 30
0.0
 40
3.5
 41
0.0
 71
     1
 72
     1
  1
2
  7
SLDTEXTSTYLE0
 73
     1
 44
1.0
  0
MTEXT
  5
218
330
1F
100
AcDbEntity
  8
0
  6
Continuous
 62
     7
370
     0
100
AcDbMText
 10
414.6137063608
 20
25.4600170897
 30
0.0
 40
3.5
 41
0.0
 71
     2
 72
     1
  1
F
  7
SLDTEXTSTYLE2
 73
     1
 44
1.0
  0
MTEXT
  5
219
330
1F
100
AcDbEntity
  8
0
  6
Continuous
 62
     7
370
     0
100
AcDbMText
 10
413.3481189104
 20
274.8723181839
 30
0.0
 40
3.5
 41
0.0
 71
     2
 72
     1
  1
A
  7
SLDTEXTSTYLE2
 73
     1
 44
1.0
  0
MTEXT
  5
21A
330
1F
100
AcDbEntity
  8
0
  6
Continuous
 62
     7
370
     0
100
AcDbMText
 10
413.9943428345
 20
175.7234896072
 30
0.0
 40
3.5
 41
0.0
 71
     2
 72
     1
  1
C
  7
SLDTEXTSTYLE2
 73
     1
 44
1.0
  0
MTEXT
  5
21B
330
1F
100
AcDbEntity
  8
0
  6
Continuous
 62
     7
370
     0
100
AcDbMText
 10
414.5205581885
 20
75.7234896072
 30
0.0
 40
3.5
 41
0.0
 71
     2
 72
     1
  1
E
  7
SLDTEXTSTYLE2
 73
     1
 44
1.0
  0
MTEXT
  5
21C
330
1F
100
AcDbEntity
  8
0
  6
Continuous
 62
     7
370
     0
100
AcDbMText
 10
413.4474678345
 20
225.7234896072
 30
0.0
 40
3.5
 41
0.0
 71
     2
 72
     1
  1
B
  7
SLDTEXTSTYLE2
 73
     1
 44
1.0
  0
MTEXT
  5
21D
330
1F
100
AcDbEntity
  8
0
  6
Continuous
 62
     7
370
     0
100
AcDbMText
 10
413.9906969227
 20
125.7234896072
 30
0.0
 40
3.5
 41
0.0
 71
     2
 72
     1
  1
D
  7
SLDTEXTSTYLE2
 73
     1
 44
1.0
  0
MTEXT
  5
21E
330
1F
100
AcDbEntity
  8
0
  6
Continuous
 62
     7
370
     0
100
AcDbMText
 10
86.2898942795
 20
291.9660917712
 30
0.0
 40
3.5
 41
0.0
 71
     2
 72
     1
  1
2
  7
SLDTEXTSTYLE2
 73
     1
 44
1.0
  0
MTEXT
  5
21F
330
1F
100
AcDbEntity
  8
0
  6
Continuous
 62
     7
370
     0
100
AcDbMText
 10
31.4493798471
 20
291.9660917712
 30
0.0
 40
3.5
 41
0.0
 71
     2
 72
     1
  1
1
  7
SLDTEXTSTYLE2
 73
     1
 44
1.0
  0
MTEXT
  5
220
330
1F
100
AcDbEntity
  8
0
  6
Continuous
 62
     7
370
     0
100
AcDbMText
 10
336.4418421836
 20
291.9660917712
 30
0.0
 40
3.5
 41
0.0
 71
     2
 72
     1
  1
7
  7
SLDTEXTSTYLE2
 73
     1
 44
1.0
  0
MTEXT
  5
221
330
1F
100
AcDbEntity
  8
0
  6
Continuous
 62
     7
370
     0
100
AcDbMText
 10
236.0711732812
 20
291.9660917712
 30
0.0
 40
3.5
 41
0.0
 71
     2
 72
     1
  1
5
  7
SLDTEXTSTYLE2
 73
     1
 44
1.0
  0
MTEXT
  5
222
330
1F
100
AcDbEntity
  8
0
  6
Continuous
 62
     7
370
     0
100
AcDbMText
 10
136.4558926481
 20
291.9660917712
 30
0.0
 40
3.5
 41
0.0
 71
     2
 72
     1
  1
3
  7
SLDTEXTSTYLE2
 73
     1
 44
1.0
  0
MTEXT
  5
223
330
1F
100
AcDbEntity
  8
0
  6
Continuous
 62
     7
370
     0
100
AcDbMText
 10
391.4132830604
 20
291.8997722324
 30
0.0
 40
3.5
 41
0.0
 71
     2
 72
     1
  1
8
  7
SLDTEXTSTYLE2
 73
     1
 44
1.0
  0
MTEXT
  5
224
330
1F
100
AcDbEntity
  8
0
  6
Continuous
 62
     7
370
     0
100
AcDbMText
 10
286.3740325912
 20
291.9660917712
 30
0.0
 40
3.5
 41
0.0
 71
     2
 72
     1
  1
6
  7
SLDTEXTSTYLE2
 73
     1
 44
1.0
  0
MTEXT
  5
225
330
1F
100
AcDbEntity
  8
0
  6
Continuous
 62
     7
370
     0
100
AcDbMText
 10
186.3567148807
 20
291.9660917712
 30
0.0
 40
3.5
 41
0.0
 71
     2
 72
     1
  1
4
  7
SLDTEXTSTYLE2
 73
     1
 44
1.0
  0
MTEXT
  5
226
330
1F
100
AcDbEntity
  8
0
  6
Continuous
 62
     7
370
     0
100
AcDbMText
 10
6.1819882844
 20
125.7234896072
 30
0.0
 40
3.5
 41
0.0
 71
     2
 72
     1
  1
D
  7
SLDTEXTSTYLE2
 73
     1
 44
1.0
  0
MTEXT
  5
227
330
1F
100
AcDbEntity
  8
0
  6
Continuous
 62
     7
370
     0
100
AcDbMText
 10
6.1856341962
 20
175.7234896072
 30
0.0
 40
3.5
 41
0.0
 71
     2
 72
     1
  1
C
  7
SLDTEXTSTYLE2
 73
     1
 44
1.0
  0
MTEXT
  5
228
330
1F
100
AcDbEntity
  8
0
  6
Continuous
 62
     7
370
     0
100
AcDbMText
 10
5.6387591962
 20
225.8449502643
 30
0.0
 40
3.5
 41
0.0
 71
     2
 72
     1
  1
B
  7
SLDTEXTSTYLE2
 73
     1
 44
1.0
  0
MTEXT
  5
229
330
1F
100
AcDbEntity
  8
0
  6
Continuous
 62
     7
370
     0
100
AcDbMText
 10
6.2281689173
 20
75.7234896072
 30
0.0
 40
3.5
 41
0.0
 71
     2
 72
     1
  1
E
  7
SLDTEXTSTYLE2
 73
     1
 44
1.0
  0
MTEXT
  5
22A
330
1F
100
AcDbEntity
  8
0
  6
Continuous
 62
     7
370
     0
100
AcDbMText
 10
390.1189953632
 20
8.2391526799
 30
0.0
 40
3.5
 41
0.0
 71
     2
 72
     1
  1
8
  7
SLDTEXTSTYLE2
 73
     1
 44
1.0
  0
MTEXT
  5
22B
330
1F
100
AcDbEntity
  8
0
  6
Continuous
 62
     7
370
     0
100
AcDbMText
 10
135.0754620529
 20
8.3687633579
 30
0.0
 40
3.5
 41
0.0
 71
     2
 72
     1
  1
3
  7
SLDTEXTSTYLE2
 73
     1
 44
1.0
  0
MTEXT
  5
22C
330
1F
100
AcDbEntity
  8
0
  6
Continuous
 62
     7
370
     0
100
AcDbMText
 10
184.9799479386
 20
8.3687635325
 30
0.0
 40
3.5
 41
0.0
 71
     2
 72
     1
  1
4
  7
SLDTEXTSTYLE2
 73
     1
 44
1.0
  0
MTEXT
  5
22D
330
1F
100
AcDbEntity
  8
0
  6
Continuous
 62
     7
370
     0
100
AcDbMText
 10
234.9893662874
 20
8.3687633579
 30
0.0
 40
3.5
 41
0.0
 71
     2
 72
     1
  1
5
  7
SLDTEXTSTYLE2
 73
     1
 44
1.0
  0
MTEXT
  5
22E
330
1F
100
AcDbEntity
  8
0
  6
Continuous
 62
     7
370
     0
100
AcDbMText
 10
284.997265649
 20
8.3687633579
 30
0.0
 40
3.5
 41
0.0
 71
     2
 72
     1
  1
6
  7
SLDTEXTSTYLE2
 73
     1
 44
1.0
  0
MTEXT
  5
22F
330
1F
100
AcDbEntity
  8
0
  6
Continuous
 62
     7
370
     0
100
AcDbMText
 10
334.9933160264
 20
8.3687633579
 30
0.0
 40
3.5
 41
0.0
 71
     2
 72
     1
  1
7
  7
SLDTEXTSTYLE2
 73
     1
 44
1.0
  0
MTEXT
  5
230
330
1F
100
AcDbEntity
  8
0
  6
Continuous
 62
     7
370
     0
100
AcDbMText
 10
5.539410272
 20
274.9991841568
 30
0.0
 40
3.5
 41
0.0
 71
     2
 72
     1
  1
A
  7
SLDTEXTSTYLE2
 73
     1
 44
1.0
  0
MTEXT
  5
231
330
1F
100
AcDbEntity
  8
0
  6
Continuous
 62
     7
370
     0
100
AcDbMText
 10
84.9842014052
 20
8.3687633579
 30
0.0
 40
3.5
 41
0.0
 71
     2
 72
     1
  1
2
  7
SLDTEXTSTYLE2
 73
     1
 44
1.0
  0
MTEXT
  5
232
330
1F
100
AcDbEntity
  8
0
  6
Continuous
 62
     7
370
     0
100
AcDbMText
 10
30.0726129049
 20
8.3687633579
 30
0.0
 40
3.5
 41
0.0
 71
     2
 72
     1
  1
1
  7
SLDTEXTSTYLE2
 73
     1
 44
1.0
  0
MTEXT
  5
233
330
1F
100
AcDbEntity
  8
0
  6
Continuous
 62
     7
370
     0
100
AcDbMText
 10
6.2220924864
 20
26.4991841567
 30
0.0
 40
3.5
 41
0.0
 71
     2
 72
     1
  1
F
  7
SLDTEXTSTYLE2
 73
     1
 44
1.0
  0
MTEXT
  5
235
330
1F
100
AcDbEntity
  8
0
  6
Continuous
 62
     7
370
     0
100
AcDbMText
 10
396.1675459685
 20
21.2190208363
 30
0.0
 40
5.2916666667
 41
0.0
 71
     1
 72
     1
  1
1/1
  7
SLDTEXTSTYLE3
 73
     1
 44
1.0
  0
MTEXT
  5
236
330
1F
100
AcDbEntity
  8
0
  6
Continuous
 62
     7
370
     0
100
AcDbMText
 10
305.2894561275
 20
24.2825914655
 30
0.0
 40
2.6458333333
 41
0.0
 71
     1
 72
     1
  1
尺度 / SCALE
  7
SLDTEXTSTYLE1
 73
     1
 44
1.0
  0
MTEXT
  5
237
330
1F
100
AcDbEntity
  8
0
  6
Continuous
 62
     7
370
     0
100
AcDbMText
 10
262.3644031052
 20
24.2825914655
 30
0.0
 40
2.5
 41
0.0
 71
     1
 72
     1
  1
{投影法 / PROJECTION}
  7
SLDTEXTSTYLE1
 73
     1
 44
1.0
1001
ACAD
1000
ACAD_MTEXT_DEFINED_HEIGHT_BEGIN
1070
    46
1040
2.612542203326247
1000
ACAD_MTEXT_DEFINED_HEIGHT_END
  0
MTEXT
  5
238
330
1F
100
AcDbEntity
  8
0
  6
Continuous
 62
     7
370
     0
100
AcDbMText
 10
225.1484536269
 20
68.9933472305
 30
0.0
 40
2.6458333333
 41
0.0
 71
     1
 72
     1
  1
名前 / NAME
  7
SLDTEXTSTYLE1
 73
     1
 44
1.0
  0
MTEXT
  5
239
330
1F
100
AcDbEntity
  8
0
  6
Continuous
 62
     7
370
     0
100
AcDbMText
 10
215.5917145345
 20
59.0174587687
 30
0.0
 40
2.6458333333
 41
0.0
 71
     1
 72
     1
  1
検認
  7
SLDTEXTSTYLE1
 73
     1
 44
1.0
  0
MTEXT
  5
23A
330
1F
100
AcDbEntity
  8
0
  6
Continuous
 62
     7
370
     0
100
AcDbMText
 10
215.5840588302
 20
45.7834172048
 30
0.0
 40
2.6458333333
 41
0.0
 71
     1
 72
     1
  1
検認
  7
SLDTEXTSTYLE1
 73
     1
 44
1.0
  0
MTEXT
  5
23B
330
1F
100
AcDbEntity
  8
0
  6
Continuous
 62
     7
370
     0
100
AcDbMText
 10
215.5684407834
 20
32.078149501
 30
0.0
 40
2.6458333333
 41
0.0
 71
     1
 72
     1
  1
設計
  7
SLDTEXTSTYLE1
 73
     1
 44
1.0
  0
MTEXT
  5
23C
330
1F
100
AcDbEntity
  8
0
  6
Continuous
 62
     7
370
     0
100
AcDbMText
 10
215.6618414946
 20
15.0034527669
 30
0.0
 40
2.6458333333
 41
0.0
 71
     1
 72
     1
  1
日付
  7
SLDTEXTSTYLE1
 73
     1
 44
1.0
  0
MTEXT
  5
23D
330
1F
100
AcDbEntity
  8
0
  6
Continuous
 62
     7
370
     0
100
AcDbMText
 10
215.5917145345
 20
22.1048415582
 30
0.0
 40
2.6458333333
 41
0.0
 71
     1
 72
     1
  1
製図
  7
SLDTEXTSTYLE1
 73
     1
 44
1.0
  0
MTEXT
  5
23E
330
1F
100
AcDbEntity
  8
0
  6
Continuous
 62
     7
370
     0
100
AcDbMText
 10
13.7356847247
 20
15.0034527669
 30
0.0
 40
2.6458333333
 41
0.0
 71
     1
 72
     1
  1
NO.
  7
SLDTEXTSTYLE0
 73
     1
 44
1.0
  0
MTEXT
  5
23F
330
1F
100
AcDbEntity
  8
0
  6
Continuous
 62
     7
370
     0
100
AcDbMText
 10
58.1737779039
 20
15.0034527669
 30
0.0
 40
2.6458333333
 41
0.0
 71
     1
 72
     1
  1
改定履歴 / REVISION HISTORY
  7
SLDTEXTSTYLE1
 73
     1
 44
1.0
  0
MTEXT
  5
240
330
1F
100
AcDbEntity
  8
0
  6
Continuous
 62
     7
370
     0
100
AcDbMText
 10
161.3568625542
 20
15.0034527669
 30
0.0
 40
2.6458333333
 41
0.0
 71
     1
 72
     1
  1
日付
  7
SLDTEXTSTYLE1
 73
     1
 44
1.0
  0
MTEXT
  5
241
330
1F
100
AcDbEntity
  8
0
  6
Continuous
 62
     7
370
     0
100
AcDbMText
 10
179.7775564518
 20
15.0034527669
 30
0.0
 40
2.6458333333
 41
0.0
 71
     1
 72
     1
  1
名前 / NAME
  7
SLDTEXTSTYLE1
 73
     1
 44
1.0
  0
MTEXT
  5
242
330
1F
100
AcDbEntity
  8
0
  6
Continuous
 62
     7
370
     0
100
AcDbMText
 10
370.9688195639
 20
69.0645179316
 30
0.0
 40
2.6458333333
 41
0.0
 71
     2
 72
     1
  1
品番 / PART NO.
  7
SLDTEXTSTYLE1
 73
     1
 44
1.0
  0
MTEXT
  5
243
330
1F
100
AcDbEntity
  8
レイヤー_1
 62
     7
100
AcDbMText
 10
371.6379333763
 20
61.5645179316
 30
0.0
 40
2.6458333333
 41
0.0
 71
     2
 72
     1
  1
HIC-024S
  7
SLDTEXTSTYLE0
 73
     1
 44
1.0
  0
MTEXT
  5
244
330
1F
100
AcDbEntity
  8
レイヤー_1
 62
     7
100
AcDbMText
 10
371.3788629799
 20
54.0645179316
 30
0.0
 40
2.6458333333
 41
0.0
 71
     2
 72
     1
  1
色 / COLOR
  7
SLDTEXTSTYLE1
 73
     1
 44
1.0
  0
MTEXT
  5
245
330
1F
100
AcDbEntity
  8
レイヤー_1
 62
     7
100
AcDbMText
 10
372.3940171333
 20
46.5645179316
 30
0.0
 40
2.6458333333
 41
0.0
 71
     2
 72
     1
  1
-
  7
SLDTEXTSTYLE0
 73
     1
 44
1.0
  0
MTEXT
  5
246
330
1F
100
AcDbEntity
  8
レイヤー_1
 62
     7
100
AcDbMText
 10
370.3499272618
 20
39.0645179316
 30
0.0
 40
2.6458333333
 41
0.0
 71
     2
 72
     1
  1
品名 / DRAWING NAME
  7
SLDTEXTSTYLE1
 73
     1
 44
1.0
  0
MTEXT
  5
247
330
1F
100
AcDbEntity
  8
レイヤー_1
 62
     7
100
AcDbMText
 10
370.3404350185
 20
31.5645179316
 30
0.0
 40
2.6458333333
 41
0.0
 71
     2
 72
     1
  1
ウォーターバルブスイッチ
  7
SLDTEXTSTYLE1
 73
     1
 44
1.0
  0
MTEXT
  5
248
330
1F
100
AcDbEntity
  8
レイヤー_1
 62
     7
100
AcDbMText
 10
296.1962191351
 20
61.4883999492
 30
0.0
 40
2.6458333333
 41
0.0
 71
     2
 72
     1
  1
5W
  7
SLDTEXTSTYLE0
 73
     1
 44
1.0
  0
MTEXT
  5
249
330
1F
100
AcDbEntity
  8
レイヤー_1
 62
     7
100
AcDbMText
 10
294.8028688356
 20
53.9883999492
 30
0.0
 40
2.6458333333
 41
0.0
 71
     2
 72
     1
  1
材質 / MATERIAL
  7
SLDTEXTSTYLE1
 73
     1
 44
1.0
  0
MTEXT
  5
24A
330
1F
100
AcDbEntity
  8
レイヤー_1
 62
     7
100
AcDbMText
 10
293.691864421
 20
46.4883999492
 30
0.0
 40
2.6458333333
 41
0.0
 71
     2
 72
     1
  1
アルミ、真鍮、ステンレス、スチール
  7
SLDTEXTSTYLE1
 73
     1
 44
1.0
  0
MTEXT
  5
24B
330
1F
100
AcDbEntity
  8
レイヤー_1
 62
     7
100
AcDbMText
 10
295.091032433
 20
38.9883999492
 30
0.0
 40
2.6458333333
 41
0.0
 71
     2
 72
     1
  1
重量 / WEIGHT
  7
SLDTEXTSTYLE1
 73
     1
 44
1.0
  0
MTEXT
  5
24C
330
1F
100
AcDbEntity
  8
レイヤー_1
 62
     7
100
AcDbMText
 10
295.8566092973
 20
31.4883999492
 30
0.0
 40
2.6458333333
 41
0.0
 71
     2
 72
     1
  1
約0.2kg
  7
SLDTEXTSTYLE1
 73
     1
 44
1.0
  0
MTEXT
  5
24D
330
1F
100
AcDbEntity
  8
レイヤー_1
 62
     7
100
AcDbMText
 10
242.1852212117
 20
15.0544349829
 30
0.0
 40
3.175
 41
0.0
 71
     2
 72
     1
  1
2019/09/06
  7
SLDTEXTSTYLE0
 73
     1
 44
1.0
  0
MTEXT
  5
24E
330
1F
100
AcDbEntity
  8
レイヤー_1
 62
     7
100
AcDbMText
 10
243.276628782
 20
22.0280003184
 30
0.0
 40
3.175
 41
0.0
 71
     2
 72
     1
  1
青木
  7
SLDTEXTSTYLE1
 73
     1
 44
1.0
  0
MTEXT
  5
24F
330
1F
100
AcDbEntity
  8
レイヤー_1
 62
     7
100
AcDbMText
 10
243.276628782
 20
32.0294570642
 30
0.0
 40
3.175
 41
0.0
 71
     2
 72
     1
  1
小林
  7
SLDTEXTSTYLE1
 73
     1
 44
1.0
  0
MTEXT
  5
250
330
1F
100
AcDbEntity
  8
レイヤー_1
 62
     7
100
AcDbMText
 10
243.276628782
 20
45.4125761187
 30
0.0
 40
3.175
 41
0.0
 71
     2
 72
     1
  1
小林
  7
SLDTEXTSTYLE1
 73
     1
 44
1.0
  0
MTEXT
  5
251
330
1F
100
AcDbEntity
  8
レイヤー_1
 62
     7
100
AcDbMText
 10
243.5577485481
 20
58.8921521058
 30
0.0
 40
3.175
 41
0.0
 71
     2
 72
     1
  1
原
  7
SLDTEXTSTYLE1
 73
     1
 44
1.0
  0
MTEXT
  5
252
330
1F
100
AcDbEntity
  8
レイヤー_1
 62
     7
100
AcDbMText
 10
315.9330192935
 20
16.3062662052
 30
0.0
 40
3.175
 41
0.0
 71
     2
 72
     1
  1
1:1
  7
SLDTEXTSTYLE0
 73
     1
 44
1.0
  0
MTEXT
  5
253
330
1F
100
AcDbEntity
  8
レイヤー_1
 62
     7
100
AcDbMText
 10
15.0352429282
 20
283.7705354145
 30
0.0
 40
3.5
 41
0.0
 71
     2
 72
     1
  1
No.
  7
SLDTEXTSTYLE0
 73
     1
 44
1.0
  0
MTEXT
  5
254
330
1F
100
AcDbEntity
  8
レイヤー_1
 62
     7
100
AcDbMText
 10
39.9598957747
 20
283.8392169202
 30
0.0
 40
3.5
 41
0.0
 71
     2
 72
     1
  1
部品名
  7
SLDTEXTSTYLE1
 73
     1
 44
1.0
  0
MTEXT
  5
255
330
1F
100
AcDbEntity
  8
レイヤー_1
 62
     7
100
AcDbMText
 10
64.973264005
 20
283.7705354145
 30
0.0
 40
3.5
 41
0.0
 71
     2
 72
     1
  1
個数
  7
SLDTEXTSTYLE1
 73
     1
 44
1.0
  0
MTEXT
  5
256
330
1F
100
AcDbEntity
  8
レイヤー_1
 62
     7
100
AcDbMText
 10
89.973264005
 20
283.8392169202
 30
0.0
 40
3.5
 41
0.0
 71
     2
 72
     1
  1
材質
  7
SLDTEXTSTYLE1
 73
     1
 44
1.0
  0
MTEXT
  5
257
330
1F
100
AcDbEntity
  8
レイヤー_1
 62
     7
100
AcDbMText
 10
64.9659722513
 20
273.7705354145
 30
0.0
 40
3.5
 41
0.0
 71
     2
 72
     1
  1
1
  7
SLDTEXTSTYLE0
 73
     1
 44
1.0
  0
MTEXT
  5
258
330
1F
100
AcDbEntity
  8
レイヤー_1
 62
     7
100
AcDbMText
 10
39.973264005
 20
273.8392169202
 30
0.0
 40
3.5
 41
0.0
 71
     2
 72
     1
  1
本体
  7
SLDTEXTSTYLE1
 73
     1
 44
1.0
  0
MTEXT
  5
259
330
1F
100
AcDbEntity
  8
レイヤー_1
 62
     7
100
AcDbMText
 10
14.9659722513
 20
273.7705354145
 30
0.0
 40
3.5
 41
0.0
 71
     2
 72
     1
  1
1
  7
SLDTEXTSTYLE0
 73
     1
 44
1.0
  0
MTEXT
  5
25A
330
1F
100
AcDbEntity
  8
レイヤー_1
 62
     7
100
AcDbMText
 10
89.9671874754
 20
273.8392169202
 30
0.0
 40
3.5
 41
0.0
 71
     2
 72
     1
  1
アルミ
  7
SLDTEXTSTYLE1
 73
     1
 44
1.0
  0
MTEXT
  5
25B
330
1F
100
AcDbEntity
  8
レイヤー_1
 62
     7
100
AcDbMText
 10
14.9659722513
 20
263.7705354145
 30
0.0
 40
3.5
 41
0.0
 71
     2
 72
     1
  1
2
  7
SLDTEXTSTYLE0
 73
     1
 44
1.0
  0
MTEXT
  5
25C
330
1F
100
AcDbEntity
  8
レイヤー_1
 62
     7
100
AcDbMText
 10
64.9659722513
 20
263.7705354145
 30
0.0
 40
3.5
 41
0.0
 71
     2
 72
     1
  1
2
  7
SLDTEXTSTYLE0
 73
     1
 44
1.0
  0
MTEXT
  5
25D
330
1F
100
AcDbEntity
  8
レイヤー_1
 62
     7
100
AcDbMText
 10
89.973264005
 20
263.8392169202
 30
0.0
 40
3.5
 41
0.0
 71
     2
 72
     1
  1
真鍮
  7
SLDTEXTSTYLE1
 73
     1
 44
1.0
  0
MTEXT
  5
25E
330
1F
100
AcDbEntity
  8
レイヤー_1
 62
     7
100
AcDbMText
 10
39.9526045099
 20
263.8392169202
 30
0.0
 40
3.5
 41
0.0
 71
     2
 72
     1
  1
異径ニップル
  7
SLDTEXTSTYLE1
 73
     1
 44
1.0
  0
MTEXT
  5
25F
330
1F
100
AcDbEntity
  8
レイヤー_1
 62
     0
100
AcDbMText
 10
293.3559281876
 20
68.9888994345
 30
0.0
 40
2.6458333333
 41
0.0
 71
     2
 72
     1
  1
消費電力 / POWER CONSUMPTION
  7
SLDTEXTSTYLE1
 73
     1
 44
1.0
  0
MTEXT
  5
260
330
1F
100
AcDbEntity
  8
レイヤー_1
 62
     7
100
AcDbMText
 10
89.973264005
 20
253.8392169202
 30
0.0
 40
3.5
 41
0.0
 71
     2
 72
     1
  1
真鍮
  7
SLDTEXTSTYLE1
 73
     1
 44
1.0
  0
MTEXT
  5
261
330
1F
100
AcDbEntity
  8
レイヤー_1
 62
     7
100
AcDbMText
 10
64.9659722513
 20
253.7705354145
 30
0.0
 40
3.5
 41
0.0
 71
     2
 72
     1
  1
2
  7
SLDTEXTSTYLE0
 73
     1
 44
1.0
  0
MTEXT
  5
262
330
1F
100
AcDbEntity
  8
レイヤー_1
 62
     7
100
AcDbMText
 10
39.9392367005
 20
253.8392169202
 30
0.0
 40
3.5
 41
0.0
 71
     2
 72
     1
  1
ホースニップル
  7
SLDTEXTSTYLE1
 73
     1
 44
1.0
  0
MTEXT
  5
263
330
1F
100
AcDbEntity
  8
レイヤー_1
 62
     7
100
AcDbMText
 10
14.9659722513
 20
253.7705354145
 30
0.0
 40
3.5
 41
0.0
 71
     2
 72
     1
  1
3
  7
SLDTEXTSTYLE0
 73
     1
 44
1.0
  0
MTEXT
  5
264
330
1F
100
AcDbEntity
  8
レイヤー_1
 62
     7
100
AcDbMText
 10
39.9538197815
 20
243.8392169202
 30
0.0
 40
3.5
 41
0.0
 71
     2
 72
     1
  1
ホースクランプ
  7
SLDTEXTSTYLE1
 73
     1
 44
1.0
  0
MTEXT
  5
265
330
1F
100
AcDbEntity
  8
レイヤー_1
 62
     7
100
AcDbMText
 10
14.9659722513
 20
243.7705354145
 30
0.0
 40
3.5
 41
0.0
 71
     2
 72
     1
  1
4
  7
SLDTEXTSTYLE0
 73
     1
 44
1.0
  0
MTEXT
  5
266
330
1F
100
AcDbEntity
  8
レイヤー_1
 62
     7
100
AcDbMText
 10
89.9708336219
 20
243.8392169202
 30
0.0
 40
3.5
 41
0.0
 71
     2
 72
     1
  1
スチール
  7
SLDTEXTSTYLE1
 73
     1
 44
1.0
  0
MTEXT
  5
267
330
1F
100
AcDbEntity
  8
レイヤー_1
 62
     7
100
AcDbMText
 10
64.9659722513
 20
243.7705354145
 30
0.0
 40
3.5
 41
0.0
 71
     2
 72
     1
  1
2
  7
SLDTEXTSTYLE0
 73
     1
 44
1.0
  0
INSERT
  5
26B
330
1F
100
AcDbEntity
  8
0
  6
Continuous
 62
     7
100
AcDbBlockReference
  2
SW_BROKEN_VIEW_0
 10
0.0
 20
0.0
 30
0.0
  0
LINE
  5
26C
330
1F
100
AcDbEntity
  8
0
  6
SLD-実線
 62
     7
370
    35
100
AcDbLine
 10
194.7095259264
 20
194.481549575
 30
0.0
 11
212.606908305
 21
194.481549575
 31
0.0
  0
LINE
  5
26D
330
1F
100
AcDbEntity
  8
0
  6
SLD-実線
 62
     7
370
    35
100
AcDbLine
 10
212.606908305
 20
196.7815493932
 30
0.0
 11
194.0283640459
 21
196.7815493932
 31
0.0
  0
LINE
  5
26E
330
1F
100
AcDbEntity
  8
0
  6
SLD-実線
 62
     7
370
    35
100
AcDbLine
 10
212.606908305
 20
196.7815493932
 30
0.0
 11
212.606908305
 21
194.481549575
 31
0.0
  0
LINE
  5
26F
330
1F
100
AcDbEntity
  8
0
  6
SLD-実線
 62
     7
370
    35
100
AcDbLine
 10
172.3730047404
 20
194.481549575
 30
0.0
 11
184.7095270812
 21
194.481549575
 31
0.0
  0
LINE
  5
270
330
1F
100
AcDbEntity
  8
0
  6
SLD-実線
 62
     7
370
    35
100
AcDbLine
 10
184.0283652007
 20
196.7815493932
 30
0.0
 11
172.3730047404
 21
196.7815493932
 31
0.0
  0
LINE
  5
271
330
1F
100
AcDbEntity
  8
0
  6
SLD-実線
 62
     7
370
    35
100
AcDbLine
 10
155.5733918383
 20
206.6315503559
 30
0.0
 11
155.5733918383
 21
207.6315505198
 31
0.0
  0
LINE
  5
272
330
1F
100
AcDbEntity
  8
0
  6
SLD-実線
 62
     7
370
    35
100
AcDbLine
 10
148.5733925536
 20
207.6315505198
 30
0.0
 11
148.5733925536
 21
206.6315503559
 31
0.0
  0
LINE
  5
273
330
1F
100
AcDbEntity
  8
0
  6
SLD-実線
 62
     7
370
    35
100
AcDbLine
 10
141.3730024531
 20
203.6315498641
 30
0.0
 11
141.3730024531
 21
173.631550069
 31
0.0
  0
LINE
  5
274
330
1F
100
AcDbEntity
  8
0
  6
SLD-実線
 62
     7
370
    35
100
AcDbLine
 10
141.3730024531
 20
203.6315498641
 30
0.0
 11
169.3729986608
 21
203.6315498641
 31
0.0
  0
LINE
  5
275
330
1F
100
AcDbEntity
  8
0
  6
SLD-実線
 62
     7
370
    35
100
AcDbLine
 10
141.3730024531
 20
173.631550069
 30
0.0
 11
169.3729986608
 21
173.631550069
 31
0.0
  0
LINE
  5
276
330
1F
100
AcDbEntity
  8
0
  6
SLD-実線
 62
     7
370
    35
100
AcDbLine
 10
169.3729986608
 20
203.6315498641
 30
0.0
 11
169.3729986608
 21
173.631550069
 31
0.0
  0
LINE
  5
277
330
1F
100
AcDbEntity
  8
0
  6
SLD-実線
 62
     7
370
    35
100
AcDbLine
 10
172.3730047404
 20
198.6315509072
 30
0.0
 11
169.3729986608
 21
198.6315509072
 31
0.0
  0
LINE
  5
278
330
1F
100
AcDbEntity
  8
0
  6
SLD-実線
 62
     7
370
    35
100
AcDbLine
 10
172.3730047404
 20
198.6315509072
 30
0.0
 11
172.3730047404
 21
192.6315499237
 31
0.0
  0
LINE
  5
279
330
1F
100
AcDbEntity
  8
0
  6
SLD-実線
 62
     7
370
    35
100
AcDbLine
 10
172.3730047404
 20
192.6315499237
 30
0.0
 11
169.3729986608
 21
192.6315499237
 31
0.0
  0
LINE
  5
27A
330
1F
100
AcDbEntity
  8
0
  6
SLD-実線
 62
     7
370
    35
100
AcDbLine
 10
158.0733894542
 20
203.6315498641
 30
0.0
 11
158.0733894542
 21
206.6315503559
 31
0.0
  0
LINE
  5
27B
330
1F
100
AcDbEntity
  8
0
  6
SLD-実線
 62
     7
370
    35
100
AcDbLine
 10
152.073392196
 20
203.6315498641
 30
0.0
 11
152.073392196
 21
206.6315503559
 31
0.0
  0
LINE
  5
27C
330
1F
100
AcDbEntity
  8
0
  6
SLD-実線
 62
     7
370
    35
100
AcDbLine
 10
152.073392196
 20
206.6315503559
 30
0.0
 11
158.0733894542
 21
206.6315503559
 31
0.0
  0
LINE
  5
27D
330
1F
100
AcDbEntity
  8
0
  6
SLD-実線
 62
     7
370
    35
100
AcDbLine
 10
146.0733800366
 20
203.6315498641
 30
0.0
 11
146.0733800366
 21
206.6315503559
 31
0.0
  0
LINE
  5
27E
330
1F
100
AcDbEntity
  8
0
  6
SLD-実線
 62
     7
370
    35
100
AcDbLine
 10
146.0733800366
 20
206.6315503559
 30
0.0
 11
152.073392196
 21
206.6315503559
 31
0.0
  0
LINE
  5
27F
330
1F
100
AcDbEntity
  8
0
  6
SLD-実線
 62
     7
370
    35
100
AcDbLine
 10
148.5733925536
 20
207.6315505198
 30
0.0
 11
155.5733918383
 21
207.6315505198
 31
0.0
  0
LINE
  5
280
330
1F
100
AcDbEntity
  8
0
  6
SLD-実線
 62
     7
370
    35
100
AcDbLine
 10
141.3730024531
 20
144.6315495065
 30
0.0
 11
141.3730024531
 21
173.631550069
 31
0.0
  0
LINE
  5
281
330
1F
100
AcDbEntity
  8
0
  6
SLD-実線
 62
     7
370
    35
100
AcDbLine
 10
170.87299425
 20
144.6315495065
 30
0.0
 11
141.3730024531
 21
144.6315495065
 31
0.0
  0
LINE
  5
282
330
1F
100
AcDbEntity
  8
0
  6
SLD-実線
 62
     7
370
    35
100
AcDbLine
 10
170.87299425
 20
173.631550069
 30
0.0
 11
169.3729986608
 21
173.631550069
 31
0.0
  0
LINE
  5
283
330
1F
100
AcDbEntity
  8
0
  6
SLD-実線
 62
     7
370
    35
100
AcDbLine
 10
170.87299425
 20
144.6315495065
 30
0.0
 11
170.87299425
 21
173.631550069
 31
0.0
  0
DIMENSION
  5
284
330
1F
100
AcDbEntity
  8
レイヤー_1
 62
     7
100
AcDbDimension
  2
_D_1
 10
131.3729986802
 20
144.6315500131
 30
0.0
 11
131.3729986802
 21
176.1315500131
 31
0.0
 70
   160
  1
<>
 71
     2
 42
-1.0
  3
SLDDIMSTYLE1
100
AcDbAlignedDimension
 13
148.5733844768
 23
207.6315500131
 33
0.0
 14
141.3729986802
 24
144.6315500131
 34
0.0
 50
90.0
100
AcDbRotatedDimension
  0
DIMENSION
  5
295
330
1F
100
AcDbEntity
  8
レイヤー_1
 62
     7
100
AcDbDimension
  2
_D_2
 10
170.8729986802
 20
134.6315500131
 30
0.0
 11
156.1229986802
 21
134.6315500131
 31
0.0
 70
   160
  1
<>
 71
     2
 42
-1.0
  3
SLDDIMSTYLE2
100
AcDbAlignedDimension
 13
141.3729986802
 23
144.6315500131
 33
0.0
 14
170.8729986802
 24
144.6315500131
 34
0.0
100
AcDbRotatedDimension
  0
DIMENSION
  5
2A0
330
1F
100
AcDbEntity
  8
レイヤー_1
 62
     7
100
AcDbDimension
  2
_D_3
 10
212.6069120779
 20
216.9027313992
 30
0.0
 11
192.489955379
 21
216.9027313992
 31
0.0
 70
   160
  1
400
 71
     2
 42
-1.0
  3
SLDDIMSTYLE1
100
AcDbAlignedDimension
 13
172.3729986802
 23
198.6315500131
 33
0.0
 14
212.6069120779
 24
196.7815500131
 34
0.0
100
AcDbRotatedDimension
  0
INSERT
  5
2AF
330
1F
100
AcDbEntity
  8
レイヤー_1
 62
     7
100
AcDbBlockReference
  2
SW_NOTE_1
 10
180.8797468354
 20
166.9620253165
 30
0.0
  0
LEADER
  5
2B1
330
1F
100
AcDbEntity
  8
レイヤー_1
 62
     7
100
AcDbLeader
  3
SLDDIMSTYLE3
 76
     2
 10
170.8729986802
 20
159.8847841257
 30
0.0
 10
180.8797468354
 20
166.9620253165
 30
0.0
  0
ARC
  5
2B2
330
1F
100
AcDbEntity
  8
0
  6
SLD-破線
 62
     7
370
    18
100
AcDbCircle
 10
189.5589510519
 20
197.7940500131
 30
0.0
 40
5.622500000000007
100
AcDbArc
 50
157.380135052
 51
202.619864948
  0
ARC
  5
2B3
330
1F
100
AcDbEntity
  8
0
  6
SLD-破線
 62
     7
370
    18
100
AcDbCircle
 10
179.1789510519
 20
193.4690500131
 30
0.0
 40
5.622500000000007
100
AcDbArc
 50
337.380135052
 51
22.619864948
  0
ARC
  5
2B4
330
1F
100
AcDbEntity
  8
0
  6
SLD-破線
 62
     7
370
    18
100
AcDbCircle
 10
199.5589510519
 20
197.7940500131
 30
0.0
 40
5.622500000000007
100
AcDbArc
 50
157.380135052
 51
202.619864948
  0
ARC
  5
2B5
330
1F
100
AcDbEntity
  8
0
  6
SLD-破線
 62
     7
370
    18
100
AcDbCircle
 10
189.1789510519
 20
193.4690500131
 30
0.0
 40
5.622500000000007
100
AcDbArc
 50
337.380135052
 51
22.619864948
  0
LINE
  5
2B6
330
1F
100
AcDbEntity
  8
0
  6
SLD-実線
 62
     7
370
    35
100
AcDbLine
 10
81.8755629702
 20
206.6315498343
 30
0.0
 11
81.8755629702
 21
207.6315518609
 31
0.0
  0
LINE
  5
2B7
330
1F
100
AcDbEntity
  8
0
  6
SLD-実線
 62
     7
370
    35
100
AcDbLine
 10
74.8755627541
 20
207.6315518609
 30
0.0
 11
74.8755627541
 21
206.6315498343
 31
0.0
  0
LINE
  5
2B8
330
1F
100
AcDbEntity
  8
0
  6
SLD-実線
 62
     7
370
    35
100
AcDbLine
 10
89.3755623369
 20
203.6315493426
 30
0.0
 11
89.3755623369
 21
173.6315500131
 31
0.0
  0
LINE
  5
2B9
330
1F
100
AcDbEntity
  8
0
  6
SLD-実線
 62
     7
370
    35
100
AcDbLine
 10
67.3755629509
 20
203.6315493426
 30
0.0
 11
67.3755629509
 21
173.6315500131
 31
0.0
  0
LINE
  5
2BA
330
1F
100
AcDbEntity
  8
0
  6
SLD-実線
 62
     7
370
    35
100
AcDbLine
 10
67.3755629509
 20
173.6315500131
 30
0.0
 11
89.3755623369
 21
173.6315500131
 31
0.0
  0
LINE
  5
2BB
330
1F
100
AcDbEntity
  8
0
  6
SLD-実線
 62
     7
370
    35
100
AcDbLine
 10
67.3755629509
 20
203.6315493426
 30
0.0
 11
89.3755623369
 21
203.6315493426
 31
0.0
  0
LINE
  5
2BC
330
1F
100
AcDbEntity
  8
0
  6
SLD-実線
 62
     7
370
    35
100
AcDbLine
 10
74.9114615141
 20
203.6315493426
 30
0.0
 11
74.9114615141
 21
206.6315498343
 31
0.0
  0
LINE
  5
2BD
330
1F
100
AcDbEntity
  8
0
  6
SLD-実線
 62
     7
370
    35
100
AcDbLine
 10
71.4473597004
 20
203.6315493426
 30
0.0
 11
71.4473597004
 21
206.6315498343
 31
0.0
  0
LINE
  5
2BE
330
1F
100
AcDbEntity
  8
0
  6
SLD-実線
 62
     7
370
    35
100
AcDbLine
 10
71.4473597004
 20
206.6315498343
 30
0.0
 11
74.9114615141
 21
206.6315498343
 31
0.0
  0
LINE
  5
2BF
330
1F
100
AcDbEntity
  8
0
  6
SLD-実線
 62
     7
370
    35
100
AcDbLine
 10
85.303766024
 20
203.6315493426
 30
0.0
 11
85.303766024
 21
206.6315498343
 31
0.0
  0
LINE
  5
2C0
330
1F
100
AcDbEntity
  8
0
  6
SLD-実線
 62
     7
370
    35
100
AcDbLine
 10
81.8396642102
 20
203.6315493426
 30
0.0
 11
81.8396642102
 21
206.6315498343
 31
0.0
  0
LINE
  5
2C1
330
1F
100
AcDbEntity
  8
0
  6
SLD-実線
 62
     7
370
    35
100
AcDbLine
 10
81.8396642102
 20
206.6315498343
 30
0.0
 11
85.303766024
 21
206.6315498343
 31
0.0
  0
LINE
  5
2C2
330
1F
100
AcDbEntity
  8
0
  6
SLD-実線
 62
     7
370
    35
100
AcDbLine
 10
74.9114615141
 20
206.6315498343
 30
0.0
 11
81.8396642102
 21
206.6315498343
 31
0.0
  0
LINE
  5
2C3
330
1F
100
AcDbEntity
  8
0
  6
SLD-実線
 62
     7
370
    35
100
AcDbLine
 10
74.8755627541
 20
207.6315518609
 30
0.0
 11
81.8755629702
 21
207.6315518609
 31
0.0
  0
CIRCLE
  5
2C4
330
1F
100
AcDbEntity
  8
0
  6
SLD-実線
 62
     7
370
    35
100
AcDbCircle
 10
78.3755629628
 20
155.5315500131
 30
0.0
 40
6.899999999999977
  0
LINE
  5
2C5
330
1F
100
AcDbEntity
  8
0
  6
SLD-実線
 62
     7
370
    35
100
AcDbLine
 10
89.1255636929
 20
144.6315508476
 30
0.0
 11
89.1255636929
 21
173.6315500131
 31
0.0
  0
LINE
  5
2C6
330
1F
100
AcDbEntity
  8
0
  6
SLD-実線
 62
     7
370
    35
100
AcDbLine
 10
89.1255636929
 20
144.6315508476
 30
0.0
 11
67.6255629628
 21
144.6315508476
 31
0.0
  0
LINE
  5
2C7
330
1F
100
AcDbEntity
  8
0
  6
SLD-実線
 62
     7
370
    35
100
AcDbLine
 10
67.6255629628
 20
144.6315508476
 30
0.0
 11
67.6255629628
 21
173.6315500131
 31
0.0
  0
LINE
  5
2C8
330
1F
100
AcDbEntity
  8
0
  6
SLD-実線
 62
     7
370
    35
100
AcDbLine
 10
89.1255636929
 20
173.6315500131
 30
0.0
 11
67.6255629628
 21
173.6315500131
 31
0.0
  0
DIMENSION
  5
2C9
330
1F
100
AcDbEntity
  8
レイヤー_1
 62
     7
100
AcDbDimension
  2
_D_4
 10
89.3755629628
 20
217.6315500131
 30
0.0
 11
78.3755629628
 21
217.6315500131
 31
0.0
 70
   160
  1
<>
 71
     2
 42
-1.0
  3
SLDDIMSTYLE1
100
AcDbAlignedDimension
 13
67.3755629628
 23
203.6315500131
 33
0.0
 14
89.3755629628
 24
203.6315500131
 34
0.0
100
AcDbRotatedDimension
  0
LINE
  5
2D3
330
1F
100
AcDbEntity
  8
0
  6
SLD-実線
 62
     7
370
    35
100
AcDbLine
 10
268.5191031415
 20
181.4061302568
 30
0.0
 11
280.5191037114
 21
181.4061302568
 31
0.0
  0
LINE
  5
2D4
330
1F
100
AcDbEntity
  8
0
  6
SLD-実線
 62
     7
370
    35
100
AcDbLine
 10
280.5191037114
 20
201.4061298097
 30
0.0
 11
268.5191031415
 21
201.4061298097
 31
0.0
  0
LINE
  5
2D5
330
1F
100
AcDbEntity
  8
0
  6
SLD-実線
 62
     7
370
    35
100
AcDbLine
 10
264.5191029515
 20
197.8061298716
 30
0.0
 11
252.5191028472
 21
197.8061298716
 31
0.0
  0
LINE
  5
2D6
330
1F
100
AcDbEntity
  8
0
  6
SLD-実線
 62
     7
370
    35
100
AcDbLine
 10
252.5191028472
 20
185.0061301949
 30
0.0
 11
264.5191029515
 21
185.0061301949
 31
0.0
  0
LINE
  5
2D7
330
1F
100
AcDbEntity
  8
0
  6
SLD-実線
 62
     7
370
    35
100
AcDbLine
 10
268.5191031415
 20
191.4061300333
 30
0.0
 11
264.5191029515
 21
191.4061300333
 31
0.0
  0
LINE
  5
2D8
330
1F
100
AcDbEntity
  8
0
  6
SLD-実線
 62
     7
370
    35
100
AcDbLine
 10
268.5191031415
 20
191.4061300333
 30
0.0
 11
268.5191031415
 21
181.1561297501
 31
0.0
  0
LINE
  5
2D9
330
1F
100
AcDbEntity
  8
0
  6
SLD-実線
 62
     7
370
    35
100
AcDbLine
 10
268.5191031415
 20
181.1561297501
 30
0.0
 11
264.5191029515
 21
181.1561297501
 31
0.0
  0
LINE
  5
2DA
330
1F
100
AcDbEntity
  8
0
  6
SLD-実線
 62
     7
370
    35
100
AcDbLine
 10
264.5191029515
 20
191.4061300333
 30
0.0
 11
264.5191029515
 21
181.1561297501
 31
0.0
  0
LINE
  5
2DB
330
1F
100
AcDbEntity
  8
0
  6
SLD-実線
 62
     7
370
    35
100
AcDbLine
 10
268.5191031415
 20
201.6561303164
 30
0.0
 11
264.5191029515
 21
201.6561303164
 31
0.0
  0
LINE
  5
2DC
330
1F
100
AcDbEntity
  8
0
  6
SLD-実線
 62
     7
370
    35
100
AcDbLine
 10
268.5191031415
 20
201.6561303164
 30
0.0
 11
268.5191031415
 21
191.4061300333
 31
0.0
  0
LINE
  5
2DD
330
1F
100
AcDbEntity
  8
0
  6
SLD-実線
 62
     7
370
    35
100
AcDbLine
 10
264.5191029515
 20
201.6561303164
 30
0.0
 11
264.5191029515
 21
191.4061300333
 31
0.0
  0
LINE
  5
2DE
330
1F
100
AcDbEntity
  8
0
  6
SLD-実線
 62
     7
370
    35
100
AcDbLine
 10
280.5191037114
 20
191.4061300333
 30
0.0
 11
280.5191037114
 21
181.4061302568
 31
0.0
  0
LINE
  5
2DF
330
1F
100
AcDbEntity
  8
0
  6
SLD-実線
 62
     7
370
    35
100
AcDbLine
 10
280.5191037114
 20
201.4061298097
 30
0.0
 11
280.5191037114
 21
191.4061300333
 31
0.0
  0
LINE
  5
2E0
330
1F
100
AcDbEntity
  8
0
  6
SLD-実線
 62
     7
370
    35
100
AcDbLine
 10
252.5191028472
 20
185.0061301949
 30
0.0
 11
252.5191028472
 21
197.8061298716
 31
0.0
  0
LINE
  5
2E1
330
1F
100
AcDbEntity
  8
レイヤー_1
 62
     7
370
    18
100
AcDbLine
 10
280.5191029515
 20
181.4061300333
 30
0.0
 11
280.5191029515
 21
201.4061300333
 31
0.0
  0
LINE
  5
2E2
330
1F
100
AcDbEntity
  8
レイヤー_1
 62
     7
370
    18
100
AcDbLine
 10
280.5191029515
 20
201.4061300333
 30
0.0
 11
268.5191029515
 21
201.4061300333
 31
0.0
  0
LINE
  5
2E3
330
1F
100
AcDbEntity
  8
レイヤー_1
 62
     7
370
    18
100
AcDbLine
 10
280.5191029515
 20
181.4061300333
 30
0.0
 11
268.5191029515
 21
181.4061300333
 31
0.0
  0
LINE
  5
2E4
330
1F
100
AcDbEntity
  8
レイヤー_1
 62
     7
370
    18
100
AcDbLine
 10
268.5191029515
 20
181.4061300333
 30
0.0
 11
268.5191029515
 21
201.4061300333
 31
0.0
  0
LINE
  5
2E5
330
1F
100
AcDbEntity
  8
レイヤー_1
 62
     7
370
    18
100
AcDbLine
 10
262.825460361
 20
197.8061300333
 30
0.0
 11
262.825460361
 21
184.9360795104
 31
0.0
  0
LINE
  5
2E6
330
1F
100
AcDbEntity
  8
レイヤー_1
 62
     7
370
    18
100
AcDbLine
 10
264.5191029515
 20
197.8061300333
 30
0.0
 11
252.5191029515
 21
197.8061300333
 31
0.0
  0
LINE
  5
2E7
330
1F
100
AcDbEntity
  8
レイヤー_1
 62
     7
370
    18
100
AcDbLine
 10
252.5191029515
 20
197.8061300333
 30
0.0
 11
252.5191029515
 21
185.0061300333
 31
0.0
  0
LINE
  5
2E8
330
1F
100
AcDbEntity
  8
レイヤー_1
 62
     7
370
    18
100
AcDbLine
 10
252.5191029515
 20
185.0061300333
 30
0.0
 11
264.5191029515
 21
184.9245681156
 31
0.0
  0
HATCH
  5
2E9
330
1F
100
AcDbEntity
  8
レイヤー_1
 62
     7
100
AcDbHatch
 10
0.0
 20
0.0
 30
0.0
210
0.0
220
0.0
230
1.0
  2
ANSI31
 70
     0
 71
     0
 91
        1
 92
        0
 93
        4
 72
     1
 10
268.5191029514727
 20
201.4061300332613
 11
268.5191029514727
 21
181.4061300332613
 72
     1
 10
268.5191029514727
 20
181.4061300332613
 11
280.5191029514727
 21
181.4061300332614
 72
     1
 10
280.5191029514727
 20
181.4061300332614
 11
280.5191029514726
 21
201.4061300332614
 72
     1
 10
280.5191029514726
 20
201.4061300332614
 11
268.5191029514727
 21
201.4061300332613
 97
        0
 75
     0
 76
     1
 52
40.0
 41
0.5
 77
     0
 78
     1
 53
85.0000000000001
 43
0.0
 44
0.0
 45
-1.581459083220646
 46
0.1383597416119048
 79
     0
 98
        1
 10
0.0
 20
0.0
  0
HATCH
  5
2EA
330
1F
100
AcDbEntity
  8
レイヤー_1
 62
     7
100
AcDbHatch
 10
0.0
 20
0.0
 30
0.0
210
0.0
220
0.0
230
1.0
  2
ANSI31
 70
     0
 71
     0
 91
        1
 92
        0
 93
        4
 72
     1
 10
252.5191029514726
 20
197.8061300332612
 11
252.5191029514728
 21
185.0061300332612
 72
     1
 10
252.5191029514728
 20
185.0061300332612
 11
262.8254603609806
 21
184.9360795103827
 72
     1
 10
262.8254603609806
 20
184.9360795103827
 11
262.8254603609804
 21
197.8061300332613
 72
     1
 10
262.8254603609804
 20
197.8061300332613
 11
252.5191029514726
 21
197.8061300332612
 97
        0
 75
     0
 76
     1
 52
40.0
 41
0.5
 77
     0
 78
     1
 53
85.0000000000001
 43
0.0
 44
0.0
 45
-1.581459083220646
 46
0.1383597416119048
 79
     0
 98
        1
 10
0.0
 20
0.0
  0
DIMENSION
  5
2EB
330
1F
100
AcDbEntity
  8
レイヤー_1
 62
     7
100
AcDbDimension
  2
_D_5
 10
252.5191029515
 20
220.0843576217
 30
0.0
 11
266.5191029515
 21
220.0843576217
 31
0.0
 70
   160
  1
<>
 71
     2
 42
-1.0
  3
SLDDIMSTYLE1
100
AcDbAlignedDimension
 13
280.5191029515
 23
201.4061300333
 33
0.0
 14
252.5191029515
 24
197.8061300333
 34
0.0
100
AcDbRotatedDimension
  0
DIMENSION
  5
2F5
330
1F
100
AcDbEntity
  8
レイヤー_1
 62
     7
100
AcDbDimension
  2
_D_6
 10
268.5191029515
 20
211.6561300333
 30
0.0
 11
274.6910682692
 21
211.6561300333
 31
0.0
 70
   160
  1
<>
 71
     2
 42
-1.0
  3
SLDDIMSTYLE1
100
AcDbAlignedDimension
 13
280.5191029515
 23
201.4061300333
 33
0.0
 14
268.5191029515
 24
201.4061300333
 34
0.0
100
AcDbRotatedDimension
  0
DIMENSION
  5
2FF
330
1F
100
AcDbEntity
  8
レイヤー_1
 62
     7
100
AcDbDimension
  2
_D_7
 10
252.5191029515
 20
211.6561300333
 30
0.0
 11
258.5191029515
 21
211.6561300333
 31
0.0
 70
   160
  1
<>
 71
     2
 42
-1.0
  3
SLDDIMSTYLE1
100
AcDbAlignedDimension
 13
264.5191029515
 23
191.4061300333
 33
0.0
 14
252.5191029515
 24
197.8061300333
 34
0.0
100
AcDbRotatedDimension
  0
DIMENSION
  5
309
330
1F
100
AcDbEntity
  8
レイヤー_1
 62
     7
100
AcDbDimension
  2
_D_8
 10
242.5191029515
 20
185.0061300333
 30
0.0
 11
242.5191029515
 21
215.1191310649369
 31
0.0
 70
   160
  1
呼び径(B)\P1/4
 71
     3
 42
12.80000000000001
  3
SLDDIMSTYLE4
100
AcDbAlignedDimension
 13
252.5191029515
 23
197.8061300333
 33
0.0
 14
252.5191029515
 24
185.0061300333
 34
0.0
 50
90.0
100
AcDbRotatedDimension
1001
ACAD
1000
DSTYLE
1002
{
1070
   140
1040
3.3
1002
}
  0
DIMENSION
  5
317
330
1F
100
AcDbEntity
  8
レイヤー_1
 62
     7
100
AcDbDimension
  2
_D_9
 10
296.5191029515
 20
201.4061300333
 30
0.0
 11
296.5191029515
 21
215.4171310649369
 31
0.0
 70
   160
  1
呼び径(B)\P1/2
 71
     3
 42
20.0
  3
SLDDIMSTYLE1
100
AcDbAlignedDimension
 13
280.5191029515
 23
181.4061300333
 33
0.0
 14
280.5191029515
 24
201.4061300333
 34
0.0
 50
90.0
100
AcDbRotatedDimension
1001
ACAD
1000
DSTYLE
1002
{
1070
   140
1040
3.3
1002
}
  0
DIMENSION
  5
323
330
1F
100
AcDbEntity
  8
レイヤー_1
 62
     7
100
AcDbDimension
  2
_D_10
 10
230.5191029515
 20
181.1561300333
 30
0.0
 11
230.5191029515
 21
191.4061300333
 31
0.0
 70
   160
  1
<>
 71
     2
 42
-1.0
  3
SLDDIMSTYLE1
100
AcDbAlignedDimension
 13
264.5191029515
 23
201.6561300333
 33
0.0
 14
264.5191029515
 24
181.1561300333
 34
0.0
 50
90.0
100
AcDbRotatedDimension
  0
MTEXT
  5
32D
330
1F
100
AcDbEntity
  8
レイヤー_1
 62
     7
100
AcDbMText
 10
254.5408748256
 20
155.4141390169
 30
0.0
 40
3.5
 41
0.0
 71
     1
 72
     1
  1
【異径ニップル】
  7
SLDTEXTSTYLE1
 73
     1
 44
1.0
  0
INSERT
  5
333
330
1F
100
AcDbEntity
  8
レイヤー_1
 62
     7
100
AcDbBlockReference
  2
SW_NOTE_2
 10
272.5949367089
 20
171.1549225313
 30
0.0
  0
LEADER
  5
334
330
1F
100
AcDbEntity
  8
レイヤー_1
 62
     7
100
AcDbLeader
  3
SLDDIMSTYLE3
 76
     2
 10
272.7570032306
 20
181.4061300333
 30
0.0
 10
272.5949367089
 20
171.1549225313
 30
0.0
  0
LINE
  5
335
330
1F
100
AcDbEntity
  8
0
  6
SLD-実線
 62
     7
370
    35
100
AcDbLine
 10
339.6617447402
 20
196.729980479
 30
0.0
 11
331.6617448259
 21
196.729980479
 31
0.0
  0
LINE
  5
336
330
1F
100
AcDbEntity
  8
0
  6
SLD-実線
 62
     7
370
    35
100
AcDbLine
 10
331.6617448259
 20
184.0299806325
 30
0.0
 11
339.6617447402
 21
184.0299806325
 31
0.0
  0
LINE
  5
337
330
1F
100
AcDbEntity
  8
0
  6
SLD-実線
 62
     7
370
    35
100
AcDbLine
 10
342.6617447663
 20
186.3799803658
 30
0.0
 11
360.6617439914
 21
186.3799803658
 31
0.0
  0
LINE
  5
338
330
1F
100
AcDbEntity
  8
0
  6
SLD-実線
 62
     7
370
    35
100
AcDbLine
 10
360.6617439914
 20
194.3799807457
 30
0.0
 11
342.6617447663
 21
194.3799807457
 31
0.0
  0
LINE
  5
339
330
1F
100
AcDbEntity
  8
0
  6
SLD-実線
 62
     7
370
    35
100
AcDbLine
 10
339.6617447402
 20
190.3799805558
 30
0.0
 11
342.6617447663
 21
190.3799805558
 31
0.0
  0
LINE
  5
33A
330
1F
100
AcDbEntity
  8
0
  6
SLD-実線
 62
     7
370
    35
100
AcDbLine
 10
339.6617447402
 20
190.3799805558
 30
0.0
 11
339.6617447402
 21
196.8799806899
 31
0.0
  0
LINE
  5
33B
330
1F
100
AcDbEntity
  8
0
  6
SLD-実線
 62
     7
370
    35
100
AcDbLine
 10
339.6617447402
 20
196.8799806899
 30
0.0
 11
342.6617447663
 21
196.8799806899
 31
0.0
  0
LINE
  5
33C
330
1F
100
AcDbEntity
  8
0
  6
SLD-実線
 62
     7
370
    35
100
AcDbLine
 10
342.6617447663
 20
190.3799805558
 30
0.0
 11
342.6617447663
 21
196.8799806899
 31
0.0
  0
LINE
  5
33D
330
1F
100
AcDbEntity
  8
0
  6
SLD-実線
 62
     7
370
    35
100
AcDbLine
 10
339.6617447402
 20
183.8799804216
 30
0.0
 11
342.6617447663
 21
183.8799804216
 31
0.0
  0
LINE
  5
33E
330
1F
100
AcDbEntity
  8
0
  6
SLD-実線
 62
     7
370
    35
100
AcDbLine
 10
339.6617447402
 20
183.8799804216
 30
0.0
 11
339.6617447402
 21
190.3799805558
 31
0.0
  0
LINE
  5
33F
330
1F
100
AcDbEntity
  8
0
  6
SLD-実線
 62
     7
370
    35
100
AcDbLine
 10
342.6617447663
 20
183.8799804216
 30
0.0
 11
342.6617447663
 21
190.3799805558
 31
0.0
  0
LINE
  5
340
330
1F
100
AcDbEntity
  8
0
  6
SLD-実線
 62
     7
370
    35
100
AcDbLine
 10
331.6617448259
 20
190.3799805558
 30
0.0
 11
331.6617448259
 21
196.729980479
 31
0.0
  0
LINE
  5
341
330
1F
100
AcDbEntity
  8
0
  6
SLD-実線
 62
     7
370
    35
100
AcDbLine
 10
331.6617448259
 20
184.0299806325
 30
0.0
 11
331.6617448259
 21
190.3799805558
 31
0.0
  0
LINE
  5
342
330
1F
100
AcDbEntity
  8
0
  6
SLD-実線
 62
     7
370
    35
100
AcDbLine
 10
360.6617439914
 20
194.3799807457
 30
0.0
 11
360.6617439914
 21
186.3799803658
 31
0.0
  0
LINE
  5
343
330
1F
100
AcDbEntity
  8
レイヤー_1
 62
     7
370
    18
100
AcDbLine
 10
339.6617447663
 20
196.7055220511
 30
0.0
 11
331.6617447663
 21
196.7299805558
 31
0.0
  0
LINE
  5
344
330
1F
100
AcDbEntity
  8
レイヤー_1
 62
     7
370
    18
100
AcDbLine
 10
331.6617447663
 20
196.7299805558
 30
0.0
 11
331.6617447663
 21
184.0299805558
 31
0.0
  0
LINE
  5
345
330
1F
100
AcDbEntity
  8
レイヤー_1
 62
     7
370
    18
100
AcDbLine
 10
331.6617447663
 20
184.0299805558
 30
0.0
 11
339.6617447663
 21
184.0299805558
 31
0.0
  0
LINE
  5
346
330
1F
100
AcDbEntity
  8
レイヤー_1
 62
     7
370
    18
100
AcDbLine
 10
339.6617447663
 20
184.0299805558
 30
0.0
 11
339.6617447663
 21
196.7055220511
 31
0.0
  0
HATCH
  5
347
330
1F
100
AcDbEntity
  8
レイヤー_1
 62
     7
100
AcDbHatch
 10
0.0
 20
0.0
 30
0.0
210
0.0
220
0.0
230
1.0
  2
ANSI31
 70
     0
 71
     0
 91
        1
 92
        0
 93
        4
 72
     1
 10
331.6617447662991
 20
184.0299805557584
 11
339.6617447662991
 21
184.0299805557584
 72
     1
 10
339.6617447662991
 20
184.0299805557584
 11
339.6617447662991
 21
196.7055220511065
 72
     1
 10
339.6617447662991
 20
196.7055220511065
 11
331.6617447662991
 21
196.7299805557584
 72
     1
 10
331.6617447662991
 20
196.7299805557584
 11
331.6617447662991
 21
184.0299805557584
 97
        0
 75
     0
 76
     1
 52
35.0
 41
0.5
 77
     0
 78
     1
 53
80.00000000000009
 43
0.0
 44
0.0
 45
-1.563382307906881
 46
0.2756664820462496
 79
     0
 98
        1
 10
0.0
 20
0.0
  0
DIMENSION
  5
348
330
1F
100
AcDbEntity
  8
レイヤー_1
 62
     7
100
AcDbDimension
  2
_D_11
 10
360.6617447663
 20
213.7599897198
 30
0.0
 11
346.1617447663
 21
213.7599897198
 31
0.0
 70
   160
  1
<>
 71
     2
 42
-1.0
  3
SLDDIMSTYLE1
100
AcDbAlignedDimension
 13
331.6617447663
 23
196.7299805558
 33
0.0
 14
360.6617447663
 24
194.3799805558
 34
0.0
100
AcDbRotatedDimension
  0
DIMENSION
  5
352
330
1F
100
AcDbEntity
  8
レイヤー_1
 62
     7
100
AcDbDimension
  2
_D_12
 10
331.6617447663
 20
206.8799805558
 30
0.0
 11
326.2038901472
 21
206.8799805558
 31
0.0
 70
   160
  1
<>
 71
     2
 42
-1.0
  3
SLDDIMSTYLE5
100
AcDbAlignedDimension
 13
339.6617447663
 23
196.7055220511
 33
0.0
 14
331.6617447663
 24
196.7299805558
 34
0.0
100
AcDbRotatedDimension
  0
DIMENSION
  5
35F
330
1F
100
AcDbEntity
  8
レイヤー_1
 62
     7
100
AcDbDimension
  2
_D_13
 10
321.6617447663
 20
184.0299805558
 30
0.0
 11
321.6617447663
 21
214.0429815874369
 31
0.0
 70
   160
  1
呼び径(B)\P1/4
 71
     3
 42
12.70000000000002
  3
SLDDIMSTYLE5
100
AcDbAlignedDimension
 13
331.6617447663
 23
196.7299805558
 33
0.0
 14
331.6617447663
 24
184.0299805558
 34
0.0
 50
90.0
100
AcDbRotatedDimension
1001
ACAD
1000
DSTYLE
1002
{
1070
   140
1040
3.3
1002
}
  0
DIMENSION
  5
36C
330
1F
100
AcDbEntity
  8
レイヤー_1
 62
     7
100
AcDbDimension
  2
_D_14
 10
375.2782870449
 20
183.8799805558
 30
0.0
 11
375.2782870449
 21
190.3799805558
 31
0.0
 70
   160
  1
<>
 71
     2
 42
-1.0
  3
SLDDIMSTYLE1
100
AcDbAlignedDimension
 13
342.6617447663
 23
196.8799805558
 33
0.0
 14
342.6617447663
 24
183.8799805558
 34
0.0
 50
90.0
100
AcDbRotatedDimension
  0
DIMENSION
  5
376
330
1F
100
AcDbEntity
  8
レイヤー_1
 62
     7
100
AcDbDimension
  2
_D_15
 10
368.1080683899
 20
186.3799805558
 30
0.0
 11
368.1080683899
 21
202.1077346666
 31
0.0
 70
   160
  1
%%c<>
 71
     2
 42
-1.0
  3
SLDDIMSTYLE5
100
AcDbAlignedDimension
 13
360.6617447663
 23
194.3799805558
 33
0.0
 14
360.6617447663
 24
186.3799805558
 34
0.0
 50
90.0
100
AcDbRotatedDimension
  0
DIMENSION
  5
383
330
1F
100
AcDbEntity
  8
レイヤー_1
 62
     7
100
AcDbDimension
  2
_D_16
 10
360.6617447663
 20
201.1522264449
 30
0.0
 11
351.6617447663
 21
201.1522264449
 31
0.0
 70
   160
  1
<>
 71
     2
 42
-1.0
  3
SLDDIMSTYLE1
100
AcDbAlignedDimension
 13
342.6617447663
 23
196.8799805558
 33
0.0
 14
360.6617447663
 24
194.3799805558
 34
0.0
100
AcDbRotatedDimension
  0
MTEXT
  5
38D
330
1F
100
AcDbEntity
  8
レイヤー_1
 62
     7
100
AcDbMText
 10
330.8037384957
 20
153.7701017387
 30
0.0
 40
3.5
 41
0.0
 71
     1
 72
     1
  1
【ホースニップル】
  7
SLDTEXTSTYLE1
 73
     1
 44
1.0
  0
INSERT
  5
393
330
1F
100
AcDbEntity
  8
レイヤー_1
 62
     7
100
AcDbBlockReference
  2
SW_NOTE_3
 10
346.8987341772
 20
174.0663149363
 30
0.0
  0
LEADER
  5
394
330
1F
100
AcDbEntity
  8
レイヤー_1
 62
     7
100
AcDbLeader
  3
SLDDIMSTYLE3
 76
     2
 10
347.197167945
 20
186.3799805558
 30
0.0
 10
346.8987341772
 20
174.0663149363
 30
0.0
  0
LINE
  5
395
330
1F
100
AcDbEntity
  8
0
  6
SLD-実線
 62
     7
370
    35
100
AcDbLine
 10
280.0903365365
 20
126.0200793167
 30
0.0
 11
280.3269781521
 21
126.4299553131
 31
0.0
  0
LINE
  5
396
330
1F
100
AcDbEntity
  8
0
  6
SLD-実線
 62
     7
370
    35
100
AcDbLine
 10
280.3269781521
 20
131.6799553588
 30
0.0
 11
280.0903365365
 21
132.0898314716
 31
0.0
  0
LINE
  5
397
330
1F
100
AcDbEntity
  8
0
  6
SLD-実線
 62
     7
370
    25
100
AcDbLine
 10
276.7269782139
 20
130.570499763
 30
0.0
 11
276.7269782139
 21
127.5394107924
 31
0.0
  0
LINE
  5
398
330
1F
100
AcDbEntity
  8
0
  6
SLD-実線
 62
     7
370
    35
100
AcDbLine
 10
275.6019782624
 20
132.8049554267
 30
0.0
 11
273.3519783592
 21
132.8049554267
 31
0.0
  0
LINE
  5
399
330
1F
100
AcDbEntity
  8
0
  6
SLD-実線
 62
     7
370
    35
100
AcDbLine
 10
273.3519783592
 20
125.3049551287
 30
0.0
 11
274.52416796
 21
125.3049551287
 31
0.0
  0
LINE
  5
39A
330
1F
100
AcDbEntity
  8
0
  6
SLD-実線
 62
     7
370
    35
100
AcDbLine
 10
274.8519783723
 20
125.3049551287
 30
0.0
 11
275.6019782624
 21
125.3049551287
 31
0.0
  0
LINE
  5
39B
330
1F
100
AcDbEntity
  8
0
  6
SLD-実線
 62
     7
370
    35
100
AcDbLine
 10
273.3519783592
 20
132.8049554267
 30
0.0
 11
262.7019787556
 21
132.8049554267
 31
0.0
  0
ARC
  5
39C
330
1F
100
AcDbEntity
  8
0
  6
SLD-実線
 62
     7
370
    35
100
AcDbCircle
 10
269.0769783016
 20
118.3299553151
 30
0.0
 40
7.424999999999931
100
AcDbArc
 50
69.95002427580002
 51
110.0499757242
  0
LINE
  5
39D
330
1F
100
AcDbEntity
  8
0
  6
SLD-実線
 62
     7
370
    35
100
AcDbLine
 10
266.5313937119
 20
125.3049551287
 30
0.0
 11
262.7019787556
 21
125.3049551287
 31
0.0
  0
LINE
  5
39E
330
1F
100
AcDbEntity
  8
0
  6
SLD-実線
 62
     7
370
    35
100
AcDbLine
 10
273.3519783592
 20
125.3049551287
 30
0.0
 11
271.6225627169
 21
125.3049551287
 31
0.0
  0
LINE
  5
39F
330
1F
100
AcDbEntity
  8
0
  6
SLD-実線
 62
     7
370
    35
100
AcDbLine
 10
262.3269779956
 20
125.3049551287
 30
0.0
 11
262.3269779956
 21
132.8049554267
 31
0.0
  0
LINE
  5
3A0
330
1F
100
AcDbEntity
  8
0
  6
SLD-実線
 62
     7
370
    35
100
AcDbLine
 10
262.3269779956
 20
132.8049554267
 30
0.0
 11
262.7019787556
 21
132.8049554267
 31
0.0
  0
LINE
  5
3A1
330
1F
100
AcDbEntity
  8
0
  6
SLD-実線
 62
     7
370
    35
100
AcDbLine
 10
262.7019787556
 20
125.3049551287
 30
0.0
 11
262.3269779956
 21
125.3049551287
 31
0.0
  0
ARC
  5
3A2
330
1F
100
AcDbEntity
  8
0
  6
SLD-実線
 62
     7
370
    35
100
AcDbCircle
 10
269.0769783016
 20
119.0434641701
 30
0.0
 40
7.400000000000021
100
AcDbArc
 50
30.0115883643
 51
57.7950850749
  0
LINE
  5
3A3
330
1F
100
AcDbEntity
  8
0
  6
SLD-実線
 62
     7
370
    35
100
AcDbLine
 10
275.0518588232
 20
122.4946673737
 30
0.0
 11
275.4848178825
 21
122.7447600813
 31
0.0
  0
ARC
  5
3A4
330
1F
100
AcDbEntity
  8
0
  6
SLD-実線
 62
     7
370
    35
100
AcDbCircle
 10
269.0769783016
 20
119.0434641701
 30
0.0
 40
6.900000000000049
100
AcDbArc
 50
30.0115355365
 51
65.1570077892
  0
ARC
  5
3A5
330
1F
100
AcDbEntity
  8
0
  6
SLD-実線
 62
     7
370
    35
100
AcDbCircle
 10
269.0769783016
 20
119.0434641701
 30
0.0
 40
8.00000000000003
100
AcDbArc
 50
128.4927986238
 51
51.5072013762
  0
ARC
  5
3A6
330
1F
100
AcDbEntity
  8
0
  6
SLD-実線
 62
     7
370
    35
100
AcDbCircle
 10
269.0769783016
 20
119.0434641701
 30
0.0
 40
7.499999999999995
100
AcDbArc
 50
123.3981657259
 51
56.60183427410001
  0
ARC
  5
3A7
330
1F
100
AcDbEntity
  8
0
  6
SLD-実線
 62
     7
370
    35
100
AcDbCircle
 10
269.0769783016
 20
119.0434641701
 30
0.0
 40
6.899999999999983
100
AcDbArc
 50
114.8429922108
 51
149.9867565564
  0
LINE
  5
3A8
330
1F
100
AcDbEntity
  8
0
  6
SLD-実線
 62
     7
370
    35
100
AcDbLine
 10
262.6691338024
 20
122.7447521651
 30
0.0
 11
263.1022006622
 21
122.4948452563
 31
0.0
  0
ARC
  5
3A9
330
1F
100
AcDbEntity
  8
0
  6
SLD-実線
 62
     7
370
    35
100
AcDbCircle
 10
269.0769783016
 20
119.0434641701
 30
0.0
 40
7.399999999999985
100
AcDbArc
 50
122.2049149251
 51
149.9884836397
  0
LINE
  5
3AA
330
1F
100
AcDbEntity
  8
0
  6
SLD-実線
 62
     7
370
    35
100
AcDbLine
 10
274.52416796
 20
125.3049551287
 30
0.0
 11
274.8519783723
 21
125.3049551287
 31
0.0
  0
SPLINE
  5
3AB
330
1F
100
AcDbEntity
  8
0
  6
SLD-実線
 62
     7
370
    35
100
AcDbSpline
210
0.0
220
0.0
230
1.0
 70
     8
 71
     3
 72
     8
 73
     4
 74
     0
 42
0.000000001
 43
0.00000001
 40
0.0
 40
0.0
 40
0.0
 40
0.0
 40
0.0020448822214876
 40
0.0020448822214876
 40
0.0020448822214876
 40
0.0020448822214876
 10
280.0925227582276
 20
130.5704997717153
 30
0.0
 10
280.2356609038904
 20
130.8184223125042
 30
0.0
 10
280.3269783016043
 20
131.070067325971
 30
0.0
 10
280.3269783016043
 20
131.3282720000267
 30
0.0
  0
LINE
  5
3AC
330
1F
100
AcDbEntity
  8
0
  6
SLD-実線
 62
     7
370
    35
100
AcDbLine
 10
276.7269782139
 20
130.570499763
 30
0.0
 11
280.0925223506
 21
130.570499763
 31
0.0
  0
LINE
  5
3AD
330
1F
100
AcDbEntity
  8
0
  6
SLD-実線
 62
     7
370
    35
100
AcDbLine
 10
276.7269782139
 20
132.0860442483
 30
0.0
 11
276.7269782139
 21
131.6799553588
 31
0.0
  0
LINE
  5
3AE
330
1F
100
AcDbEntity
  8
0
  6
SLD-実線
 62
     7
370
    35
100
AcDbLine
 10
276.7269782139
 20
132.0860442483
 30
0.0
 11
280.0925223506
 21
132.0860442483
 31
0.0
  0
SPLINE
  5
3AF
330
1F
100
AcDbEntity
  8
0
  6
SLD-実線
 62
     7
370
    35
100
AcDbSpline
210
0.0
220
0.0
230
1.0
 70
     8
 71
     3
 72
    10
 73
     6
 74
     0
 42
0.000000001
 43
0.00000001
 40
0.0020448822214876
 40
0.0020448822214876
 40
0.0020448822214876
 40
0.0020448822214876
 40
0.0030633842352185
 40
0.0030633842352185
 40
0.0040818862489495
 40
0.0040818862489495
 40
0.0040818862489495
 40
0.0040818862489495
 10
280.3269783016043
 20
131.3282720000267
 30
0.0
 10
280.3269783016043
 20
131.4568919267726
 30
0.0
 10
280.3045277938064
 20
131.5853442516085
 30
0.0
 10
280.2228475057758
 20
131.8377086517786
 30
0.0
 10
280.1639132528454
 20
131.9623922644822
 30
0.0
 10
280.0925227582273
 20
132.0860442283382
 30
0.0
  0
SPLINE
  5
3B0
330
1F
100
AcDbEntity
  8
0
  6
SLD-実線
 62
     7
370
    35
100
AcDbSpline
210
0.0
220
0.0
230
1.0
 70
     8
 71
     3
 72
     8
 73
     4
 74
     0
 42
0.000000001
 43
0.00000001
 40
0.0061610376313665
 40
0.0061610376313665
 40
0.0061610376313665
 40
0.0061610376313665
 40
0.0077093882072157
 40
0.0077093882072157
 40
0.0077093882072157
 40
0.0077093882072157
 10
280.3115916689876
 20
129.4299553150925
 30
0.0
 10
280.2797142839212
 20
129.8203719538273
 30
0.0
 10
280.1996138814071
 20
130.1995252389402
 30
0.0
 10
280.092522758227
 20
130.5704997717153
 30
0.0
  0
LINE
  5
3B1
330
1F
100
AcDbEntity
  8
0
  6
SLD-実線
 62
     7
370
    35
100
AcDbLine
 10
280.3269781521
 20
131.3282720057
 30
0.0
 11
280.3269781521
 21
129.4299553101
 31
0.0
  0
LINE
  5
3B2
330
1F
100
AcDbEntity
  8
0
  6
SLD-実線
 62
     7
370
    35
100
AcDbLine
 10
280.3269781521
 20
129.4299553101
 30
0.0
 11
280.3115917718
 21
129.4299553101
 31
0.0
  0
LINE
  5
3B3
330
1F
100
AcDbEntity
  8
0
  6
SLD-実線
 62
     7
370
    35
100
AcDbLine
 10
279.2019782005
 20
129.4299553101
 30
0.0
 11
280.3115917718
 21
129.4299553101
 31
0.0
  0
LINE
  5
3B4
330
1F
100
AcDbEntity
  8
0
  6
SLD-実線
 62
     7
370
    35
100
AcDbLine
 10
279.2019782005
 20
129.4299553101
 30
0.0
 11
279.2019782005
 21
128.6799553327
 31
0.0
  0
LINE
  5
3B5
330
1F
100
AcDbEntity
  8
0
  6
SLD-実線
 62
     7
370
    35
100
AcDbLine
 10
279.2019782005
 20
128.6799553327
 30
0.0
 11
280.3115917718
 21
128.6799553327
 31
0.0
  0
SPLINE
  5
3B6
330
1F
100
AcDbEntity
  8
0
  6
SLD-実線
 62
     7
370
    35
100
AcDbSpline
210
0.0
220
0.0
230
1.0
 70
     8
 71
     3
 72
    10
 73
     6
 74
     0
 42
0.000000001
 43
0.00000001
 40
0.003619348700218
 40
0.003619348700218
 40
0.003619348700218
 40
0.003619348700218
 40
0.0043913297885955
 40
0.0043913297885955
 40
0.005163310876973
 40
0.005163310876973
 40
0.005163310876973
 40
0.005163310876973
 10
280.092522758227
 20
127.5394108584698
 30
0.0
 10
280.1462675806491
 20
127.7255883846276
 30
0.0
 10
280.1935457254553
 20
127.9152770378576
 30
0.0
 10
280.2683658395565
 20
128.296403520176
 30
0.0
 10
280.2958961436501
 20
128.4877251734835
 30
0.0
 10
280.3115916689876
 20
128.6799553150926
 30
0.0
  0
LINE
  5
3B7
330
1F
100
AcDbEntity
  8
0
  6
SLD-実線
 62
     7
370
    35
100
AcDbLine
 10
276.7269782139
 20
127.5394107924
 30
0.0
 11
280.0925223506
 21
127.5394107924
 31
0.0
  0
LINE
  5
3B8
330
1F
100
AcDbEntity
  8
0
  6
SLD-実線
 62
     7
370
    35
100
AcDbLine
 10
280.3269781521
 20
128.6799553327
 30
0.0
 11
280.3269781521
 21
126.7816385498
 31
0.0
  0
SPLINE
  5
3B9
330
1F
100
AcDbEntity
  8
0
  6
SLD-実線
 62
     7
370
    35
100
AcDbSpline
210
0.0
220
0.0
230
1.0
 70
     8
 71
     3
 72
    10
 73
     6
 74
     0
 42
0.000000001
 43
0.00000001
 40
0.0020448822214876
 40
0.0020448822214876
 40
0.0020448822214876
 40
0.0020448822214876
 40
0.0030633842352185
 40
0.0030633842352185
 40
0.0040818862489495
 40
0.0040818862489495
 40
0.0040818862489495
 40
0.0040818862489495
 10
280.3269783016043
 20
126.7816386301584
 30
0.0
 10
280.3269783016043
 20
126.9102585569043
 30
0.0
 10
280.3045277938064
 20
127.0387108817402
 30
0.0
 10
280.2228475057758
 20
127.2910752819103
 30
0.0
 10
280.1639132528454
 20
127.4157588946139
 30
0.0
 10
280.0925227582273
 20
127.5394108584698
 30
0.0
  0
LINE
  5
3BA
330
1F
100
AcDbEntity
  8
0
  6
SLD-実線
 62
     7
370
    35
100
AcDbLine
 10
280.3115917718
 20
128.6799553327
 30
0.0
 11
280.3269781521
 21
128.6799553327
 31
0.0
  0
LINE
  5
3BB
330
1F
100
AcDbEntity
  8
0
  6
SLD-実線
 62
     7
370
    35
100
AcDbLine
 10
276.7269782139
 20
126.0238663071
 30
0.0
 11
280.0925223506
 21
126.0238663071
 31
0.0
  0
LINE
  5
3BC
330
1F
100
AcDbEntity
  8
0
  6
SLD-実線
 62
     7
370
    35
100
AcDbLine
 10
276.7269782139
 20
126.4299553131
 30
0.0
 11
276.7269782139
 21
126.0238663071
 31
0.0
  0
SPLINE
  5
3BD
330
1F
100
AcDbEntity
  8
0
  6
SLD-実線
 62
     7
370
    35
100
AcDbSpline
210
0.0
220
0.0
230
1.0
 70
     8
 71
     3
 72
     8
 73
     4
 74
     0
 42
0.000000001
 43
0.00000001
 40
0.0
 40
0.0
 40
0.0
 40
0.0
 40
0.0020448822214876
 40
0.0020448822214876
 40
0.0020448822214876
 40
0.0020448822214876
 10
280.0925227582276
 20
126.023866401847
 30
0.0
 10
280.2356609038904
 20
126.2717889426359
 30
0.0
 10
280.3269783016043
 20
126.5234339561027
 30
0.0
 10
280.3269783016043
 20
126.7816386301584
 30
0.0
  0
LINE
  5
3BE
330
1F
100
AcDbEntity
  8
0
  6
SLD-実線
 62
     7
370
    35
100
AcDbLine
 10
280.3269781521
 20
126.7816385498
 30
0.0
 11
280.3269781521
 21
126.4299553131
 31
0.0
  0
LINE
  5
3BF
330
1F
100
AcDbEntity
  8
0
  6
SLD-実線
 62
     7
370
    35
100
AcDbLine
 10
280.3269781521
 20
131.6799553588
 30
0.0
 11
280.3269781521
 21
131.3282720057
 31
0.0
  0
LINE
  5
3C0
330
1F
100
AcDbEntity
  8
0
  6
SLD-実線
 62
     7
370
    25
100
AcDbLine
 10
276.7269783016
 20
132.0860442283
 30
0.0
 11
276.7269783016
 21
126.0795900695
 31
0.0
  0
LINE
  5
3C1
330
1F
100
AcDbEntity
  8
0
  6
SLD-実線
 62
     7
370
    25
100
AcDbLine
 10
275.6019783016
 20
132.8049553151
 30
0.0
 11
276.7269783016
 21
131.6799553151
 31
0.0
  0
LINE
  5
3C2
330
1F
100
AcDbEntity
  8
0
  6
SLD-実線
 62
     7
370
    25
100
AcDbLine
 10
275.6019783016
 20
125.3049553151
 30
0.0
 11
276.7269783016
 21
126.4299553151
 31
0.0
  0
DIMENSION
  5
3C3
330
1F
100
AcDbEntity
  8
0
  6
SLD-実線
 62
     7
370
    18
100
AcDbDimension
  2
_D_17
 10
261.8325346044
 20
117.1023213319
 30
0.0
 11
248.412775356996
 21
113.5065076789889
 31
0.0
 70
   163
  1
%%c10～%%c15
 71
     1
 42
15.00000000005203
  3
SLDDIMSTYLE6
100
AcDbDiametricDimension
 15
276.3214219988
 25
120.9846070084
 35
0.0
 40
0.0
1001
ACAD
1000
DSTYLE
1002
{
1070
   140
1040
3.3
1002
}
  0
DIMENSION
  5
3D1
330
1F
100
AcDbEntity
  8
0
  6
SLD-実線
 62
     7
370
    18
100
AcDbDimension
  2
_D_18
 10
262.3269783016
 20
138.3674276876
 30
0.0
 11
271.3269783016
 21
138.3674276876
 31
0.0
 70
   160
  1
<>
 71
     2
 42
-1.0
  3
SLDDIMSTYLE1
100
AcDbAlignedDimension
 13
280.3269783016
 23
131.6799553151
 33
0.0
 14
262.3269783016
 24
132.8049553151
 34
0.0
100
AcDbRotatedDimension
  0
INSERT
  5
3E0
330
1F
100
AcDbEntity
  8
レイヤー_1
 62
     7
100
AcDbBlockReference
  2
SW_NOTE_4
 10
289.8670886076
 20
134.5569620253
 30
0.0
  0
LEADER
  5
3E1
330
1F
100
AcDbEntity
  8
レイヤー_1
 62
     7
100
AcDbLeader
  3
SLDDIMSTYLE3
 76
     2
 10
280.3269783016
 20
130.3076004198
 30
0.0
 10
289.8670886076
 20
134.5569620253
 30
0.0
  0
MTEXT
  5
3E2
330
1F
100
AcDbEntity
  8
レイヤー_1
 62
     7
100
AcDbMText
 10
255.3984138923
 20
103.3318263244
 30
0.0
 40
3.5
 41
0.0
 71
     1
 72
     1
  1
【ホースクランプ】
  7
SLDTEXTSTYLE1
 73
     1
 44
1.0
  0
ENDSEC
  0
SECTION
  2
OBJECTS
  0
DICTIONARY
  5
C
330
0
100
AcDbDictionary
281
     1
  3
ACAD_GROUP
350
D
  3
ACAD_LAYOUT
350
1A
  3
ACAD_MLINESTYLE
350
17
  3
ACAD_PLOTSETTINGS
350
19
  3
ACAD_PLOTSTYLENAME
350
E
  3
ACAD_SCALELIST
350
47
  3
APPDATA
350
404
  3
DWGPROPS
350
45F
  0
DICTIONARY
  5
459
330
1F
100
AcDbDictionary
280
     1
281
     1
  3
ACAD_SORTENTS
360
45A
  0
DICTIONARY
  5
45C
330
20C
100
AcDbDictionary
280
     1
281
     1
  3
ACAD_SORTENTS
360
45D
  0
DICTIONARY
  5
D
102
{ACAD_REACTORS
330
C
102
}
330
C
100
AcDbDictionary
281
     1
  0
DICTIONARY
  5
1A
102
{ACAD_REACTORS
330
C
102
}
330
C
100
AcDbDictionary
281
     1
  3
Layout1
350
1E
  3
Layout2
350
26
  3
Model
350
22
  0
DICTIONARY
  5
17
102
{ACAD_REACTORS
330
C
102
}
330
C
100
AcDbDictionary
281
     1
  3
Standard
350
18
  0
DICTIONARY
  5
19
102
{ACAD_REACTORS
330
C
102
}
330
C
100
AcDbDictionary
281
     1
  0
ACDBDICTIONARYWDFLT
  5
E
102
{ACAD_REACTORS
330
C
102
}
330
C
100
AcDbDictionary
281
     1
  3
Normal
350
F
100
AcDbDictionaryWithDefault
340
F
  0
DICTIONARY
  5
47
102
{ACAD_REACTORS
330
C
102
}
330
C
100
AcDbDictionary
281
     1
  3
A0
350
48
  3
A1
350
49
  3
A2
350
4A
  3
A3
350
4B
  3
A4
350
4C
  3
A5
350
4D
  3
A6
350
4E
  3
A7
350
4F
  3
A8
350
50
  3
A9
350
51
  3
B0
350
52
  3
B1
350
53
  3
B2
350
54
  3
B3
350
55
  3
B4
350
56
  3
B5
350
57
  3
B6
350
58
  3
B7
350
59
  3
B8
350
5A
  3
B9
350
5B
  3
C0
350
5C
  3
C1
350
5D
  3
C2
350
5E
  3
C3
350
5F
  3
C4
350
60
  3
C5
350
61
  3
C6
350
62
  3
C7
350
63
  3
C8
350
64
  3
C9
350
65
  3
D0
350
66
  3
D1
350
67
  3
D2
350
68
  0
DICTIONARY
  5
404
102
{ACAD_REACTORS
330
C
102
}
330
C
100
AcDbDictionary
281
     1
  0
XRECORD
  5
45F
102
{ACAD_REACTORS
330
C
102
}
330
C
100
AcDbXrecord
280
     1
  1
DWGPROPS COOKIE
  2

  3

  4

  6

  7

  8
9176
  9

300
=
301
=
302
=
303
=
304
=
305
=
306
=
307
=
308
=
309
=
 40
0.0
 41
2458754.016682477
 42
2458865.300151146
  1

 90
        0
  0
SORTENTSTABLE
  5
45A
102
{ACAD_REACTORS
330
459
102
}
330
459
100
AcDbSortentsTable
330
1F
  0
SORTENTSTABLE
  5
45D
102
{ACAD_REACTORS
330
45C
102
}
330
45C
100
AcDbSortentsTable
330
20C
  0
LAYOUT
  5
1E
102
{ACAD_REACTORS
330
1A
102
}
330
1A
100
AcDbPlotSettings
  1

  2
none_device
  4

  6

 40
0.0
 41
0.0
 42
0.0
 43
0.0
 44
0.0
 45
0.0
 46
0.0
 47
0.0
 48
0.0
 49
0.0
140
0.0
141
0.0
142
1.0
143
1.0
 70
   688
 72
     1
 73
     0
 74
     5
  7

 75
    16
147
1.0
148
0.0
149
0.0
100
AcDbLayout
  1
Layout1
 70
     1
 71
     1
 10
0.0
 20
0.0
 11
420.0
 21
297.0
 12
0.0
 22
0.0
 32
0.0
 14
1.000000000000000E+20
 24
1.000000000000000E+20
 34
1.000000000000000E+20
 15
-1.000000000000000E+20
 25
-1.000000000000000E+20
 35
-1.000000000000000E+20
146
0.0
 13
0.0
 23
0.0
 33
0.0
 16
1.0
 26
0.0
 36
0.0
 17
0.0
 27
1.0
 37
0.0
 76
     0
330
1B
  0
LAYOUT
  5
26
102
{ACAD_REACTORS
330
1A
102
}
330
1A
100
AcDbPlotSettings
  1

  2
none_device
  4

  6

 40
0.0
 41
0.0
 42
0.0
 43
0.0
 44
0.0
 45
0.0
 46
0.0
 47
0.0
 48
0.0
 49
0.0
140
0.0
141
0.0
142
1.0
143
1.0
 70
   688
 72
     1
 73
     0
 74
     5
  7

 75
    16
147
1.0
148
0.0
149
0.0
100
AcDbLayout
  1
Layout2
 70
     1
 71
     2
 10
0.0
 20
0.0
 11
0.0
 21
0.0
 12
0.0
 22
0.0
 32
0.0
 14
0.0
 24
0.0
 34
0.0
 15
0.0
 25
0.0
 35
0.0
146
0.0
 13
0.0
 23
0.0
 33
0.0
 16
1.0
 26
0.0
 36
0.0
 17
0.0
 27
1.0
 37
0.0
 76
     0
330
23
  0
LAYOUT
  5
22
102
{ACAD_REACTORS
330
1A
102
}
330
1A
100
AcDbPlotSettings
  1

  2
none_device
  4
Letter_(8.50_x_11.00_Inches)
  6

 40
6.35
 41
6.35
 42
6.35000508
 43
6.35000508
 44
215.9
 45
279.4
 46
0.0
 47
0.0
 48
0.0
 49
0.0
140
0.0
141
0.0
142
1.0
143
1.0
 70
  1712
 72
     1
 73
     0
 74
     0
  7

 75
     0
147
1.0
148
0.0
149
0.0
100
AcDbLayout
  1
Model
 70
     1
 71
     0
 10
0.0
 20
0.0
 11
420.0
 21
297.0
 12
0.0
 22
0.0
 32
0.0
 14
-7.897710237700011
 24
0.0
 34
-10.75
 15
420.0
 25
297.0
 35
186.0
146
0.0
 13
0.0
 23
0.0
 33
0.0
 16
1.0
 26
0.0
 36
0.0
 17
0.0
 27
1.0
 37
0.0
 76
     0
330
1F
331
29
  0
MLINESTYLE
  5
18
102
{ACAD_REACTORS
330
17
102
}
330
17
100
AcDbMlineStyle
  2
Standard
 70
     0
  3

 62
   256
 51
90.0
 52
90.0
 71
     2
 49
0.5
 62
   256
  6
BYLAYER
 49
-0.5
 62
   256
  6
BYLAYER
  0
ACDBPLACEHOLDER
  5
F
102
{ACAD_REACTORS
330
E
102
}
330
E
  0
SCALE
  5
48
102
{ACAD_REACTORS
330
47
102
}
330
47
100
AcDbScale
 70
     0
300
1:1
140
1.0
141
1.0
290
     1
  0
SCALE
  5
49
102
{ACAD_REACTORS
330
47
102
}
330
47
100
AcDbScale
 70
     0
300
1:2
140
1.0
141
2.0
290
     0
  0
SCALE
  5
4A
102
{ACAD_REACTORS
330
47
102
}
330
47
100
AcDbScale
 70
     0
300
1:4
140
1.0
141
4.0
290
     0
  0
SCALE
  5
4B
102
{ACAD_REACTORS
330
47
102
}
330
47
100
AcDbScale
 70
     0
300
1:5
140
1.0
141
5.0
290
     0
  0
SCALE
  5
4C
102
{ACAD_REACTORS
330
47
102
}
330
47
100
AcDbScale
 70
     0
300
1:8
140
1.0
141
8.0
290
     0
  0
SCALE
  5
4D
102
{ACAD_REACTORS
330
47
102
}
330
47
100
AcDbScale
 70
     0
300
1:10
140
1.0
141
10.0
290
     0
  0
SCALE
  5
4E
102
{ACAD_REACTORS
330
47
102
}
330
47
100
AcDbScale
 70
     0
300
1:16
140
1.0
141
16.0
290
     0
  0
SCALE
  5
4F
102
{ACAD_REACTORS
330
47
102
}
330
47
100
AcDbScale
 70
     0
300
1:20
140
1.0
141
20.0
290
     0
  0
SCALE
  5
50
102
{ACAD_REACTORS
330
47
102
}
330
47
100
AcDbScale
 70
     0
300
1:30
140
1.0
141
30.0
290
     0
  0
SCALE
  5
51
102
{ACAD_REACTORS
330
47
102
}
330
47
100
AcDbScale
 70
     0
300
1:40
140
1.0
141
40.0
290
     0
  0
SCALE
  5
52
102
{ACAD_REACTORS
330
47
102
}
330
47
100
AcDbScale
 70
     0
300
1:50
140
1.0
141
50.0
290
     0
  0
SCALE
  5
53
102
{ACAD_REACTORS
330
47
102
}
330
47
100
AcDbScale
 70
     0
300
1:100
140
1.0
141
100.0
290
     0
  0
SCALE
  5
54
102
{ACAD_REACTORS
330
47
102
}
330
47
100
AcDbScale
 70
     0
300
2:1
140
2.0
141
1.0
290
     0
  0
SCALE
  5
55
102
{ACAD_REACTORS
330
47
102
}
330
47
100
AcDbScale
 70
     0
300
4:1
140
4.0
141
1.0
290
     0
  0
SCALE
  5
56
102
{ACAD_REACTORS
330
47
102
}
330
47
100
AcDbScale
 70
     0
300
8:1
140
8.0
141
1.0
290
     0
  0
SCALE
  5
57
102
{ACAD_REACTORS
330
47
102
}
330
47
100
AcDbScale
 70
     0
300
10:1
140
10.0
141
1.0
290
     0
  0
SCALE
  5
58
102
{ACAD_REACTORS
330
47
102
}
330
47
100
AcDbScale
 70
     0
300
100:1
140
100.0
141
1.0
290
     0
  0
SCALE
  5
59
102
{ACAD_REACTORS
330
47
102
}
330
47
100
AcDbScale
 70
     0
300
1/128" = 1'-0"
140
0.0078125
141
12.0
290
     0
  0
SCALE
  5
5A
102
{ACAD_REACTORS
330
47
102
}
330
47
100
AcDbScale
 70
     0
300
1/64" = 1'-0"
140
0.015625
141
12.0
290
     0
  0
SCALE
  5
5B
102
{ACAD_REACTORS
330
47
102
}
330
47
100
AcDbScale
 70
     0
300
1/32" = 1'-0"
140
0.03125
141
12.0
290
     0
  0
SCALE
  5
5C
102
{ACAD_REACTORS
330
47
102
}
330
47
100
AcDbScale
 70
     0
300
1/16" = 1'-0"
140
0.0625
141
12.0
290
     0
  0
SCALE
  5
5D
102
{ACAD_REACTORS
330
47
102
}
330
47
100
AcDbScale
 70
     0
300
3/32" = 1'-0"
140
0.09375
141
12.0
290
     0
  0
SCALE
  5
5E
102
{ACAD_REACTORS
330
47
102
}
330
47
100
AcDbScale
 70
     0
300
1/8" = 1'-0"
140
0.125
141
12.0
290
     0
  0
SCALE
  5
5F
102
{ACAD_REACTORS
330
47
102
}
330
47
100
AcDbScale
 70
     0
300
3/16" = 1'-0"
140
0.1875
141
12.0
290
     0
  0
SCALE
  5
60
102
{ACAD_REACTORS
330
47
102
}
330
47
100
AcDbScale
 70
     0
300
1/4" = 1'-0"
140
0.25
141
12.0
290
     0
  0
SCALE
  5
61
102
{ACAD_REACTORS
330
47
102
}
330
47
100
AcDbScale
 70
     0
300
3/8" = 1'-0"
140
0.375
141
12.0
290
     0
  0
SCALE
  5
62
102
{ACAD_REACTORS
330
47
102
}
330
47
100
AcDbScale
 70
     0
300
1/2" = 1'-0"
140
0.5
141
12.0
290
     0
  0
SCALE
  5
63
102
{ACAD_REACTORS
330
47
102
}
330
47
100
AcDbScale
 70
     0
300
3/4" = 1'-0"
140
0.75
141
12.0
290
     0
  0
SCALE
  5
64
102
{ACAD_REACTORS
330
47
102
}
330
47
100
AcDbScale
 70
     0
300
1" = 1'-0"
140
1.0
141
12.0
290
     0
  0
SCALE
  5
65
102
{ACAD_REACTORS
330
47
102
}
330
47
100
AcDbScale
 70
     0
300
1-1/2" = 1'-0"
140
1.5
141
12.0
290
     0
  0
SCALE
  5
66
102
{ACAD_REACTORS
330
47
102
}
330
47
100
AcDbScale
 70
     0
300
3" = 1'-0"
140
3.0
141
12.0
290
     0
  0
SCALE
  5
67
102
{ACAD_REACTORS
330
47
102
}
330
47
100
AcDbScale
 70
     0
300
6" = 1'-0"
140
6.0
141
12.0
290
     0
  0
SCALE
  5
68
102
{ACAD_REACTORS
330
47
102
}
330
47
100
AcDbScale
 70
     0
300
1'-0" = 1'-0"
140
12.0
141
12.0
290
     0
  0
ENDSEC
  0
EOF
